  0
SECTION
  2
HEADER
  9
$ACADVER
  1
AC1015
  9
$ACADMAINTVER
 70
    20
  9
$DWGCODEPAGE
  3
ANSI_1250
  9
$INSBASE
 10
0.0
 20
0.0
 30
0.0
  9
$EXTMIN
 10
28628.57137023421
 20
-31.43048861302967
 30
0.0
  9
$EXTMAX
 10
39731.63093381251
 20
15709.90796141908
 30
0.0
  9
$LIMMIN
 10
0.0
 20
0.0
  9
$LIMMAX
 10
29700.0
 20
21000.0
  9
$ORTHOMODE
 70
     0
  9
$REGENMODE
 70
     1
  9
$FILLMODE
 70
     1
  9
$QTEXTMODE
 70
     0
  9
$MIRRTEXT
 70
     0
  9
$LTSCALE
 40
100.0
  9
$ATTMODE
 70
     1
  9
$TEXTSIZE
 40
0.2
  9
$TRACEWID
 40
0.05
  9
$TEXTSTYLE
  7
Standard
  9
$CLAYER
  8
0
  9
$CELTYPE
  6
ByLayer
  9
$CECOLOR
 62
   256
  9
$CELTSCALE
 40
1.0
  9
$DISPSILH
 70
     0
  9
$DIMSCALE
 40
1.0
  9
$DIMASZ
 40
1.799999999999999
  9
$DIMEXO
 40
0.0625
  9
$DIMDLI
 40
0.38
  9
$DIMRND
 40
0.0
  9
$DIMDLE
 40
0.0
  9
$DIMEXE
 40
0.18
  9
$DIMTP
 40
0.0
  9
$DIMTM
 40
0.0
  9
$DIMTXT
 40
0.25
  9
$DIMCEN
 40
0.09
  9
$DIMTSZ
 40
0.0
  9
$DIMTOL
 70
     0
  9
$DIMLIM
 70
     0
  9
$DIMTIH
 70
     1
  9
$DIMTOH
 70
     1
  9
$DIMSE1
 70
     0
  9
$DIMSE2
 70
     0
  9
$DIMTAD
 70
     0
  9
$DIMZIN
 70
     0
  9
$DIMBLK
  1

  9
$DIMASO
 70
     1
  9
$DIMSHO
 70
     1
  9
$DIMPOST
  1

  9
$DIMAPOST
  1

  9
$DIMALT
 70
     0
  9
$DIMALTD
 70
     2
  9
$DIMALTF
 40
25.4
  9
$DIMLFAC
 40
1.0
  9
$DIMTOFL
 70
     0
  9
$DIMTVP
 40
0.0
  9
$DIMTIX
 70
     0
  9
$DIMSOXD
 70
     0
  9
$DIMSAH
 70
     0
  9
$DIMBLK1
  1

  9
$DIMBLK2
  1

  9
$DIMSTYLE
  2
Standard
  9
$DIMCLRD
 70
     0
  9
$DIMCLRE
 70
     0
  9
$DIMCLRT
 70
     0
  9
$DIMTFAC
 40
1.0
  9
$DIMGAP
 40
0.09
  9
$DIMJUST
 70
     0
  9
$DIMSD1
 70
     0
  9
$DIMSD2
 70
     0
  9
$DIMTOLJ
 70
     1
  9
$DIMTZIN
 70
     0
  9
$DIMALTZ
 70
     0
  9
$DIMALTTZ
 70
     0
  9
$DIMUPT
 70
     0
  9
$DIMDEC
 70
     4
  9
$DIMTDEC
 70
     4
  9
$DIMALTU
 70
     2
  9
$DIMALTTD
 70
     2
  9
$DIMTXSTY
  7
Standard
  9
$DIMAUNIT
 70
     0
  9
$DIMADEC
 70
     0
  9
$DIMALTRND
 40
0.0
  9
$DIMAZIN
 70
     0
  9
$DIMDSEP
 70
    46
  9
$DIMATFIT
 70
     3
  9
$DIMFRAC
 70
     0
  9
$DIMLDRBLK
  1

  9
$DIMLUNIT
 70
     2
  9
$DIMLWD
 70
    -2
  9
$DIMLWE
 70
    -2
  9
$DIMTMOVE
 70
     0
  9
$LUNITS
 70
     2
  9
$LUPREC
 70
     4
  9
$SKETCHINC
 40
0.1
  9
$FILLETRAD
 40
0.0
  9
$AUNITS
 70
     0
  9
$AUPREC
 70
     0
  9
$MENU
  1
.
  9
$ELEVATION
 40
0.0
  9
$PELEVATION
 40
0.0
  9
$THICKNESS
 40
0.0
  9
$LIMCHECK
 70
     0
  9
$CHAMFERA
 40
0.0
  9
$CHAMFERB
 40
0.0
  9
$CHAMFERC
 40
0.0
  9
$CHAMFERD
 40
0.0
  9
$SKPOLY
 70
     0
  9
$TDCREATE
 40
2458569.349559919
  9
$TDUCREATE
 40
2458569.266226586
  9
$TDUPDATE
 40
2458621.587634873
  9
$TDUUPDATE
 40
2458621.504301539
  9
$TDINDWG
 40
0.0379815972
  9
$TDUSRTIMER
 40
0.0379815972
  9
$USRTIMER
 70
     1
  9
$ANGBASE
 50
0.0
  9
$ANGDIR
 70
     0
  9
$PDMODE
 70
     0
  9
$PDSIZE
 40
0.0
  9
$PLINEWID
 40
0.0
  9
$SPLFRAME
 70
     0
  9
$SPLINETYPE
 70
     6
  9
$SPLINESEGS
 70
     8
  9
$HANDSEED
  5
E93
  9
$SURFTAB1
 70
     6
  9
$SURFTAB2
 70
     6
  9
$SURFTYPE
 70
     6
  9
$SURFU
 70
     6
  9
$SURFV
 70
     6
  9
$UCSBASE
  2

  9
$UCSNAME
  2

  9
$UCSORG
 10
0.0
 20
0.0
 30
0.0
  9
$UCSXDIR
 10
1.0
 20
0.0
 30
0.0
  9
$UCSYDIR
 10
0.0
 20
1.0
 30
0.0
  9
$UCSORTHOREF
  2

  9
$UCSORTHOVIEW
 70
     0
  9
$UCSORGTOP
 10
0.0
 20
0.0
 30
0.0
  9
$UCSORGBOTTOM
 10
0.0
 20
0.0
 30
0.0
  9
$UCSORGLEFT
 10
0.0
 20
0.0
 30
0.0
  9
$UCSORGRIGHT
 10
0.0
 20
0.0
 30
0.0
  9
$UCSORGFRONT
 10
0.0
 20
0.0
 30
0.0
  9
$UCSORGBACK
 10
0.0
 20
0.0
 30
0.0
  9
$PUCSBASE
  2

  9
$PUCSNAME
  2

  9
$PUCSORG
 10
0.0
 20
0.0
 30
0.0
  9
$PUCSXDIR
 10
1.0
 20
0.0
 30
0.0
  9
$PUCSYDIR
 10
0.0
 20
1.0
 30
0.0
  9
$PUCSORTHOREF
  2

  9
$PUCSORTHOVIEW
 70
     0
  9
$PUCSORGTOP
 10
0.0
 20
0.0
 30
0.0
  9
$PUCSORGBOTTOM
 10
0.0
 20
0.0
 30
0.0
  9
$PUCSORGLEFT
 10
0.0
 20
0.0
 30
0.0
  9
$PUCSORGRIGHT
 10
0.0
 20
0.0
 30
0.0
  9
$PUCSORGFRONT
 10
0.0
 20
0.0
 30
0.0
  9
$PUCSORGBACK
 10
0.0
 20
0.0
 30
0.0
  9
$USERI1
 70
     0
  9
$USERI2
 70
     0
  9
$USERI3
 70
     0
  9
$USERI4
 70
     0
  9
$USERI5
 70
     0
  9
$USERR1
 40
0.0
  9
$USERR2
 40
0.0
  9
$USERR3
 40
0.0
  9
$USERR4
 40
0.0
  9
$USERR5
 40
0.0
  9
$WORLDVIEW
 70
     1
  9
$SHADEDGE
 70
     3
  9
$SHADEDIF
 70
    70
  9
$TILEMODE
 70
     1
  9
$MAXACTVP
 70
    64
  9
$PINSBASE
 10
0.0
 20
0.0
 30
0.0
  9
$PLIMCHECK
 70
     0
  9
$PEXTMIN
 10
0.0
 20
0.0
 30
0.0
  9
$PEXTMAX
 10
29700.0
 20
21000.0
 30
0.0
  9
$PLIMMIN
 10
0.0
 20
0.0
  9
$PLIMMAX
 10
29700.0
 20
21000.0
  9
$UNITMODE
 70
     0
  9
$VISRETAIN
 70
     1
  9
$PLINEGEN
 70
     0
  9
$PSLTSCALE
 70
     1
  9
$TREEDEPTH
 70
  3020
  9
$CMLSTYLE
  2
Standard
  9
$CMLJUST
 70
     0
  9
$CMLSCALE
 40
1.0
  9
$PROXYGRAPHICS
 70
     1
  9
$MEASUREMENT
 70
     1
  9
$CELWEIGHT
370
    -1
  9
$ENDCAPS
280
     0
  9
$JOINSTYLE
280
     0
  9
$LWDISPLAY
290
     0
  9
$INSUNITS
 70
     4
  9
$HYPERLINKBASE
  1
www.muller.com.pl
  9
$STYLESHEET
  1

  9
$XEDIT
290
     1
  9
$CEPSNTYPE
380
     0
  9
$PSTYLEMODE
290
     1
  9
$FINGERPRINTGUID
  2
{12083F00-BEEA-4BAE-9643-1715329DE93D}
  9
$VERSIONGUID
  2
{270F891B-E49E-4AD8-AD7A-2E1C32FC9ADE}
  9
$EXTNAMES
290
     1
  9
$PSVPSCALE
 40
0.0
  9
$OLESTARTUP
290
     0
  0
ENDSEC
  0
SECTION
  2
CLASSES
  0
CLASS
  1
ACDBDICTIONARYWDFLT
  2
AcDbDictionaryWithDefault
  3
ObjectDBX Classes
 90
        0
280
     0
281
     0
  0
CLASS
  1
MATERIAL
  2
AcDbMaterial
  3
ObjectDBX Classes
 90
     1153
280
     0
281
     0
  0
CLASS
  1
VISUALSTYLE
  2
AcDbVisualStyle
  3
ObjectDBX Classes
 90
     4095
280
     0
281
     0
  0
CLASS
  1
SCALE
  2
AcDbScale
  3
ObjectDBX Classes
 90
     1153
280
     0
281
     0
  0
CLASS
  1
TABLESTYLE
  2
AcDbTableStyle
  3
ObjectDBX Classes
 90
     4095
280
     0
281
     0
  0
CLASS
  1
MLEADERSTYLE
  2
AcDbMLeaderStyle
  3
ACDB_MLEADERSTYLE_CLASS
 90
     4095
280
     0
281
     0
  0
CLASS
  1
CELLSTYLEMAP
  2
AcDbCellStyleMap
  3
ObjectDBX Classes
 90
     1152
280
     0
281
     0
  0
CLASS
  1
DICTIONARYVAR
  2
AcDbDictionaryVar
  3
ObjectDBX Classes
 90
        0
280
     0
281
     0
  0
CLASS
  1
ACDBPLACEHOLDER
  2
AcDbPlaceHolder
  3
ObjectDBX Classes
 90
        0
280
     0
281
     0
  0
CLASS
  1
LAYOUT
  2
AcDbLayout
  3
ObjectDBX Classes
 90
        0
280
     0
281
     0
  0
CLASS
  1
EXACXREFPANELOBJECT
  2
ExAcXREFPanelObject
  3
EXAC_ESW
 90
     1025
280
     0
281
     0
  0
CLASS
  1
NPOCOLLECTION
  2
AcDbImpNonPersistentObjectsCollection
  3
ObjectDBX Classes
 90
     1153
280
     0
281
     0
  0
ENDSEC
  0
SECTION
  2
TABLES
  0
TABLE
  2
VPORT
  5
8
102
{ACAD_XDICTIONARY
360
C62
102
}
330
0
100
AcDbSymbolTable
 70
     1
  0
VPORT
  5
57
330
8
100
AcDbSymbolTableRecord
100
AcDbViewportTableRecord
  2
*Active
 70
     0
 10
0.0
 20
0.0
 11
1.0
 21
1.0
 12
35365.43100605821
 22
7709.354852986843
 13
0.0
 23
0.0
 14
1.0
 24
1.0
 15
0.0
 25
0.0
 16
0.0
 26
0.0
 36
1.0
 17
0.0
 27
0.0
 37
0.0
 40
16599.53446043617
 41
2.430203045685279
 42
50.0
 43
0.0
 44
0.0
 50
0.0
 51
0.0
 71
     0
 72
   100
 73
     1
 74
     1
 75
     0
 76
     0
 77
     0
 78
     0
281
     0
 65
     1
110
0.0
120
0.0
130
0.0
111
1.0
121
0.0
131
0.0
112
0.0
122
1.0
132
0.0
 79
     0
146
0.0
  0
ENDTAB
  0
TABLE
  2
LTYPE
  5
5
330
0
100
AcDbSymbolTable
 70
    59
  0
LTYPE
  5
5B
330
5
100
AcDbSymbolTableRecord
100
AcDbLinetypeTableRecord
  2
ByBlock
 70
     0
  3

 72
    65
 73
     0
 40
0.0
  0
LTYPE
  5
5C
330
5
100
AcDbSymbolTableRecord
100
AcDbLinetypeTableRecord
  2
ByLayer
 70
     0
  3

 72
    65
 73
     0
 40
0.0
  0
LTYPE
  5
5D
330
5
100
AcDbSymbolTableRecord
100
AcDbLinetypeTableRecord
  2
Continuous
 70
     0
  3
Solid line
 72
    65
 73
     0
 40
0.0
  0
ENDTAB
  0
TABLE
  2
LAYER
  5
2
330
0
100
AcDbSymbolTable
 70
     8
  0
LAYER
  5
54
330
2
100
AcDbSymbolTableRecord
100
AcDbLayerTableRecord
  2
0
 70
     0
 62
     7
  6
Continuous
370
    -3
390
F
  0
LAYER
  5
BA
330
2
100
AcDbSymbolTableRecord
100
AcDbLayerTableRecord
  2
Dimension (ISO)
 70
     0
 62
   161
  6
Continuous
370
    18
390
F
  0
LAYER
  5
C5
330
2
100
AcDbSymbolTableRecord
100
AcDbLayerTableRecord
  2
Title (ISO)
 70
     0
 62
     7
  6
Continuous
370
    30
390
F
  0
LAYER
  5
C8
330
2
100
AcDbSymbolTableRecord
100
AcDbLayerTableRecord
  2
Visible (ISO)
 70
     0
 62
     7
  6
Continuous
370
    35
390
F
  0
LAYER
  5
5DF
330
2
100
AcDbSymbolTableRecord
100
AcDbLayerTableRecord
  2
Defpoints
 70
     0
 62
     7
  6
Continuous
290
     0
370
    -3
390
F
  0
ENDTAB
  0
TABLE
  2
STYLE
  5
3
330
0
100
AcDbSymbolTable
 70
     7
  0
STYLE
  5
55
330
3
100
AcDbSymbolTableRecord
100
AcDbTextStyleTableRecord
  2
Standard
 70
     0
 40
0.0
 41
1.0
 50
0.0
 71
     0
 42
0.2
  3
tahoma.ttf
  4

1001
ACAD
1000
Tahoma
1071
      256
  0
STYLE
  5
CD
330
3
100
AcDbSymbolTableRecord
100
AcDbTextStyleTableRecord
  2
Label Text (ISO)
 70
     0
 40
0.0
 41
1.0
 50
0.0
 71
     0
 42
0.2
  3
tahoma.ttf
  4

1001
ACAD
1000
Tahoma
1071
      256
  0
STYLE
  5
CE
330
3
100
AcDbSymbolTableRecord
100
AcDbTextStyleTableRecord
  2
Note Text (ISO)
 70
     0
 40
0.0
 41
1.0
 50
0.0
 71
     0
 42
0.2
  3
tahoma.ttf
  4

1001
ACAD
1000
Tahoma
1071
      256
  0
ENDTAB
  0
TABLE
  2
VIEW
  5
6
330
0
100
AcDbSymbolTable
 70
     0
  0
ENDTAB
  0
TABLE
  2
UCS
  5
7
330
0
100
AcDbSymbolTable
 70
     0
  0
ENDTAB
  0
TABLE
  2
APPID
  5
9
330
0
100
AcDbSymbolTable
 70
     4
  0
APPID
  5
56
330
9
100
AcDbSymbolTableRecord
100
AcDbRegAppTableRecord
  2
ACAD
 70
     0
  0
APPID
  5
5E
330
9
100
AcDbSymbolTableRecord
100
AcDbRegAppTableRecord
  2
AcadAnnotative
 70
     0
  0
APPID
  5
5D6
330
9
100
AcDbSymbolTableRecord
100
AcDbRegAppTableRecord
  2
AcadAnnoPO
 70
     0
  0
APPID
  5
C98
330
9
100
AcDbSymbolTableRecord
100
AcDbRegAppTableRecord
  2
ACAD_MLEADERVER
 70
     0
  0
ENDTAB
  0
TABLE
  2
DIMSTYLE
  5
A
330
0
100
AcDbSymbolTable
 70
    12
100
AcDbDimStyleTable
 71
     2
340
D5
340
58
  0
DIMSTYLE
105
58
330
A
100
AcDbSymbolTableRecord
100
AcDbDimStyleTableRecord
  2
Standard
 70
     0
340
55
  0
DIMSTYLE
105
D5
102
{ACAD_REACTORS
330
5DE
330
6C7
330
7A9
330
88E
330
970
330
A55
330
B67
102
}
330
A
100
AcDbSymbolTableRecord
100
AcDbDimStyleTableRecord
  2
Default (ISO)
 70
     0
 40
100.0
 41
2.5
 42
0.5
 43
5.999999999999999
 44
1.0
 45
0.00000001
 46
10.0
 73
     0
 77
     1
 78
     8
 79
     2
140
3.5
143
0.03937
146
0.7142857313156128
147
0.762
171
     3
172
     1
176
   256
177
   256
178
   256
271
     2
272
     2
274
     3
278
    44
340
CD
371
    -1
372
    -1
  0
ENDTAB
  0
TABLE
  2
BLOCK_RECORD
  5
1
330
0
100
AcDbSymbolTable
 70
    16
  0
BLOCK_RECORD
  5
6C
330
1
100
AcDbSymbolTableRecord
100
AcDbBlockTableRecord
  2
*Model_Space
340
6F
  0
BLOCK_RECORD
  5
68
330
1
100
AcDbSymbolTableRecord
100
AcDbBlockTableRecord
  2
*Paper_Space
340
6B
  0
BLOCK_RECORD
  5
70
330
1
100
AcDbSymbolTableRecord
100
AcDbBlockTableRecord
  2
*Paper_Space0
340
73
  0
BLOCK_RECORD
  5
5CE
330
1
100
AcDbSymbolTableRecord
100
AcDbBlockTableRecord
  2
Tabelki rysunkowe Rzut
340
0
102
{BLKREFS
331
5D9
102
}
  0
BLOCK_RECORD
  5
5E0
330
1
100
AcDbSymbolTableRecord
100
AcDbBlockTableRecord
  2
*D8
340
0
  0
BLOCK_RECORD
  5
6C8
330
1
100
AcDbSymbolTableRecord
100
AcDbBlockTableRecord
  2
*D9
340
0
  0
BLOCK_RECORD
  5
7AA
330
1
100
AcDbSymbolTableRecord
100
AcDbBlockTableRecord
  2
*D10
340
0
  0
BLOCK_RECORD
  5
88F
330
1
100
AcDbSymbolTableRecord
100
AcDbBlockTableRecord
  2
*D11
340
0
  0
BLOCK_RECORD
  5
971
330
1
100
AcDbSymbolTableRecord
100
AcDbBlockTableRecord
  2
*D12
340
0
  0
BLOCK_RECORD
  5
A56
330
1
100
AcDbSymbolTableRecord
100
AcDbBlockTableRecord
  2
*D13
340
0
  0
BLOCK_RECORD
  5
B68
330
1
100
AcDbSymbolTableRecord
100
AcDbBlockTableRecord
  2
*D14
340
0
  0
BLOCK_RECORD
  5
CB8
330
1
100
AcDbSymbolTableRecord
100
AcDbBlockTableRecord
  2
88502_Street-workout-parkour-2
340
0
310
2800000020000000200000000100080000000000000400000000000000000000000000000000000000000000000080000080000000808000800000008000800080800000C0C0C000C0DCC000F0CAA6000020400000206000002080000020A0000020C0000020E00000400000004020000040400000406000004080000040A0
310
000040C0000040E00000600000006020000060400000606000006080000060A0000060C0000060E00000800000008020000080400000806000008080000080A0000080C0000080E00000A0000000A0200000A0400000A0600000A0800000A0A00000A0C00000A0E00000C0000000C0200000C0400000C0600000C0800000C0
310
A00000C0C00000C0E00000E0000000E0200000E0400000E0600000E0800000E0A00000E0C00000E0E00040000000400020004000400040006000400080004000A0004000C0004000E00040200000402020004020400040206000402080004020A0004020C0004020E000404000004040200040404000404060004040800040
310
40A0004040C0004040E00040600000406020004060400040606000406080004060A0004060C0004060E00040800000408020004080400040806000408080004080A0004080C0004080E00040A0000040A0200040A0400040A0600040A0800040A0A00040A0C00040A0E00040C0000040C0200040C0400040C0600040C08000
310
40C0A00040C0C00040C0E00040E0000040E0200040E0400040E0600040E0800040E0A00040E0C00040E0E00080000000800020008000400080006000800080008000A0008000C0008000E00080200000802020008020400080206000802080008020A0008020C0008020E00080400000804020008040400080406000804080
310
008040A0008040C0008040E00080600000806020008060400080606000806080008060A0008060C0008060E00080800000808020008080400080806000808080008080A0008080C0008080E00080A0000080A0200080A0400080A0600080A0800080A0A00080A0C00080A0E00080C0000080C0200080C0400080C0600080C0
310
800080C0A00080C0C00080C0E00080E0000080E0200080E0400080E0600080E0800080E0A00080E0C00080E0E000C0000000C0002000C0004000C0006000C0008000C000A000C000C000C000E000C0200000C0202000C0204000C0206000C0208000C020A000C020C000C020E000C0400000C0402000C0404000C0406000C0
310
408000C040A000C040C000C040E000C0600000C0602000C0604000C0606000C0608000C060A000C060C000C060E000C0800000C0802000C0804000C0806000C0808000C080A000C080C000C080E000C0A00000C0A02000C0A04000C0A06000C0A08000C0A0A000C0A0C000C0A0E000C0C00000C0C02000C0C04000C0C06000
310
C0C08000C0C0A000F0FBFF00A4A0A000808080000000FF0000FF000000FFFF00FF000000FF00FF00FFFF0000FFFFFF00494949494949494949494949494949494949494949494949494949494949494949494949494949494949494949494949494949494949494949494949494949494949494949494949FFFFFFFFFFFFFF
310
FFFFFFFF4949494949494949494949494949494949494949FF49494949494949494949FFFF494949494949494949494949494949494949FF49494949494949494949494949FF4949494949494949494949494949494949FF49494949494949494949494949FF494949494949494949494949494949FFFFFF49494949FF4949
310
49FF49494949FFFFFFFFFFFFFFFF49494949494949FF49494949494949FF494949FF494949494949494949494949FF4949494949FF4949494949494949FF494949FF494949494949494949494949FFFF49494949FF4949494949494949FF494949FF49494949494949494949494949FF494949FF494949494949494949FF49
310
4949FF4949494949494949494949494949FF4949FF49494949FFFFFFFFFFFFFFFFFFFFFFFFFFFFFF494949494949494949FF4949FF49494949FF494949494949494949494949FFFF494949494949494949FF4949FF49494949FF494949494949494949494949FFFF494949494949494949FF4949FF49494949FF4949494949
310
49494949494949FFFF494949494949FF4949FF4949FF49494949FFFFFFFFFFFFFFFFFFFFFFFFFFFFFF49FF494949494949FFFF4949FF49494949FFFFFFFFFFFFFF494949494949FFFF49FF494949494949FFFF4949FF49494949FFFFFFFFFFFFFF494949494949FFFF49FF49494949FF4949FF4949FF49494949FFFFFFFFFF
310
FFFFFFFFFFFFFFFFFFFFFFFF494949494949FFFF4949FF49494949FFFFFFFFFFFFFFFFFFFFFFFFFFFFFFFFFF494949494949FFFF4949FFFF49494949494949494949FF49494949494949494949494949FF4949FF494949FF49494949494949494949FF49494949494949494949494949494949FF49494949FF494949494949
310
494949FF49494949494949494949494949494949FF4949494949FFFF494949494949494949494949494949494949494949494949FF49494949494949FFFFFF494949494949494949FFFFFFFFFFFFFFFF49494949FF494949494949494949FF494949494949494949FFFFFFFFFFFFFFFF49494949FF494949494949494949FF
310
4949494949494949494949494949494949494949FF49494949494949494949FF4949494949494949494949494949494949494949FF4949494949494949494949FFFF4949494949494949494949494949494949FF49494949494949494949494949FFFFFFFFFFFFFFFFFFFFFFFFFFFFFFFFFFFF494949494949494949494949
310
4949494949494949494949494949494949494949494949494949494949494949494949494949494949494949494949494949494949494949
102
{BLKREFS
331
E48
102
}
1001
ACAD
1000
DesignCenter Data
1002
{
1070
     1
1070
     4
1002
}
  0
ENDTAB
  0
ENDSEC
  0
SECTION
  2
BLOCKS
  0
BLOCK
  5
6D
330
6C
100
AcDbEntity
  8
0
100
AcDbBlockBegin
  2
*Model_Space
 70
     0
 10
0.0
 20
0.0
 30
0.0
  3
*Model_Space
  1

  0
ENDBLK
  5
6E
330
6C
100
AcDbEntity
  8
0
100
AcDbBlockEnd
  0
BLOCK
  5
69
330
68
100
AcDbEntity
 67
     1
  8
0
100
AcDbBlockBegin
  2
*Paper_Space
 70
     0
 10
0.0
 20
0.0
 30
0.0
  3
*Paper_Space
  1

  0
ENDBLK
  5
6A
330
68
100
AcDbEntity
 67
     1
  8
0
100
AcDbBlockEnd
  0
BLOCK
  5
71
330
70
100
AcDbEntity
 67
     1
  8
0
100
AcDbBlockBegin
  2
*Paper_Space0
 70
     0
 10
0.0
 20
0.0
 30
0.0
  3
*Paper_Space0
  1

  0
ENDBLK
  5
72
330
70
100
AcDbEntity
 67
     1
  8
0
100
AcDbBlockEnd
  0
BLOCK
  5
5CF
330
5CE
100
AcDbEntity
  8
0
100
AcDbBlockBegin
  2
Tabelki rysunkowe Rzut
 70
     2
 10
0.0
 20
0.0
 30
0.0
  3
Tabelki rysunkowe Rzut
  1

  0
TEXT
  5
5D1
330
5CE
100
AcDbEntity
  8
Title (ISO)
100
AcDbText
 10
166.7768162971836
 20
11.24130542460445
 30
0.0
 40
2.5
  1
Obowiązuje od:
  7
Note Text (ISO)
 11
166.7768162971836
 21
13.74130542460445
 31
0.0
100
AcDbText
 73
     3
  0
TEXT
  5
5D3
330
5CE
100
AcDbEntity
  8
Title (ISO)
100
AcDbText
 10
166.7768162971836
 20
18.24130542460445
 30
0.0
 40
2.5
  1
Nr kat.:
  7
Note Text (ISO)
 11
166.7768162971836
 21
20.74130542460446
 31
0.0
100
AcDbText
 73
     3
  0
TEXT
  5
5D4
330
5CE
100
AcDbEntity
  8
Title (ISO)
100
AcDbText
 10
166.7768162971836
 20
14.74130542460445
 30
0.0
 40
2.5
  1
Nazwa:
  7
Note Text (ISO)
 11
166.7768162971836
 21
17.24130542460445
 31
0.0
100
AcDbText
 73
     3
  0
ATTDEF
  5
5D5
102
{ACAD_XDICTIONARY
360
C4E
102
}
330
5CE
100
AcDbEntity
  8
Title (ISO)
100
AcDbText
 10
178.5283273792489
 20
18.12713485684115
 30
0.0
 40
2.5
  1
88502
  7
Note Text (ISO)
100
AcDbAttributeDefinition
  3
Numer katalogowy
  2
Numer_katalogowy_001
 70
     0
  0
ATTDEF
  5
5D7
102
{ACAD_XDICTIONARY
360
C51
102
}
330
5CE
100
AcDbEntity
  8
Title (ISO)
100
AcDbText
 10
190.4107988369825
 20
11.13720873189256
 30
0.0
 40
2.5
  1
2019-03-26
  7
Note Text (ISO)
100
AcDbAttributeDefinition
  3
DATA UTWORZENIA
  2
DATA_UTWORZENIA_001
 70
     0
  0
ATTDEF
  5
5D8
102
{ACAD_XDICTIONARY
360
C54
102
}
330
5CE
100
AcDbEntity
  8
Title (ISO)
100
AcDbText
 10
178.5182535041975
 20
14.5163222312757
 30
0.0
 40
2.5
  1
Street workout-parkour 2
  7
Note Text (ISO)
100
AcDbAttributeDefinition
  3
Nazwa
  2
Nazwa_001
 70
     0
  0
ENDBLK
  5
5D0
330
5CE
100
AcDbEntity
  8
0
100
AcDbBlockEnd
  0
BLOCK
  5
5E1
330
5E0
100
AcDbEntity
  8
0
100
AcDbBlockBegin
  2
*D8
 70
     1
 10
0.0
 20
0.0
 30
0.0
  3
*D8
  1

  0
LINE
  5
6BE
330
5E0
100
AcDbEntity
  8
Dimension (ISO)
100
AcDbLine
 10
35903.57137023423
 20
11643.43424159538
 30
0.0
 11
39731.63093381251
 21
11643.43424159538
 31
0.0
  0
LINE
  5
6BF
330
5E0
100
AcDbEntity
  8
Dimension (ISO)
100
AcDbLine
 10
32978.57137023423
 20
3018.434241595375
 30
0.0
 11
39731.63093381251
 21
3018.434241595373
 31
0.0
  0
LINE
  5
6C0
330
5E0
100
AcDbEntity
  8
Dimension (ISO)
100
AcDbLine
 10
39631.63093381251
 20
11393.43424159538
 30
0.0
 11
39631.63093381251
 21
3268.434241595373
 31
0.0
  0
SOLID
  5
6C1
330
5E0
100
AcDbEntity
  8
Dimension (ISO)
100
AcDbTrace
 10
39589.96426714584
 20
11393.43424159538
 30
0.0
 11
39673.29760047917
 21
11393.43424159538
 31
0.0
 12
39631.63093381251
 22
11643.43424159538
 32
0.0
 13
39631.63093381251
 23
11643.43424159538
 33
0.0
  0
SOLID
  5
6C2
330
5E0
100
AcDbEntity
  8
Dimension (ISO)
100
AcDbTrace
 10
39589.96426714584
 20
3268.434241595373
 30
0.0
 11
39673.29760047917
 21
3268.434241595373
 31
0.0
 12
39631.63093381251
 22
3018.434241595373
 32
0.0
 13
39631.63093381251
 23
3018.434241595373
 33
0.0
  0
MTEXT
  5
6C3
330
5E0
100
AcDbEntity
  8
Dimension (ISO)
100
AcDbMText
 10
39189.44705437728
 20
7330.934241595381
 30
0.0
 40
350.0
 41
0.0
 71
     2
 72
     1
  1
\A1;8625
  7
Label Text (ISO)
 11
0.0000000000000001
 21
1.0
 31
0.0
 73
     1
 44
1.0
1001
ACAD
1000
MTEXTBEGIN
1070
    73
1070
     1
1070
    44
1040
1.0
1070
    74
1070
     0
1000
MTEXTEND
  0
POINT
  5
6C4
330
5E0
100
AcDbEntity
  8
Defpoints
 62
     0
100
AcDbPoint
 10
35853.57137023423
 20
11643.43424159538
 30
0.0
  0
POINT
  5
6C5
330
5E0
100
AcDbEntity
  8
Defpoints
 62
     0
100
AcDbPoint
 10
32928.57137023422
 20
3018.434241595375
 30
0.0
  0
POINT
  5
6C6
330
5E0
100
AcDbEntity
  8
Defpoints
 62
     0
100
AcDbPoint
 10
39631.63093381251
 20
3018.434241595373
 30
0.0
  0
ENDBLK
  5
5E2
330
5E0
100
AcDbEntity
  8
0
100
AcDbBlockEnd
  0
BLOCK
  5
6C9
330
6C8
100
AcDbEntity
  8
0
100
AcDbBlockBegin
  2
*D9
 70
     1
 10
0.0
 20
0.0
 30
0.0
  3
*D9
  1

  0
LINE
  5
7A0
330
6C8
100
AcDbEntity
  8
Dimension (ISO)
100
AcDbLine
 10
37353.57137023423
 20
5768.43424159539
 30
0.0
 11
37353.57137023423
 21
2083.669917170936
 31
0.0
  0
LINE
  5
7A1
330
6C8
100
AcDbEntity
  8
Dimension (ISO)
100
AcDbLine
 10
28628.57137023421
 20
5768.434241595391
 30
0.0
 11
28628.57137023421
 21
2083.669917170936
 31
0.0
  0
LINE
  5
7A2
330
6C8
100
AcDbEntity
  8
Dimension (ISO)
100
AcDbLine
 10
37103.57137023423
 20
2183.669917170937
 30
0.0
 11
28878.57137023421
 21
2183.669917170937
 31
0.0
  0
SOLID
  5
7A3
330
6C8
100
AcDbEntity
  8
Dimension (ISO)
100
AcDbTrace
 10
37103.57137023423
 20
2225.336583837603
 30
0.0
 11
37103.57137023423
 21
2142.00325050427
 31
0.0
 12
37353.57137023423
 22
2183.669917170937
 32
0.0
 13
37353.57137023423
 23
2183.669917170937
 33
0.0
  0
SOLID
  5
7A4
330
6C8
100
AcDbEntity
  8
Dimension (ISO)
100
AcDbTrace
 10
28878.57137023421
 20
2225.336583837603
 30
0.0
 11
28878.57137023421
 21
2142.00325050427
 31
0.0
 12
28628.57137023421
 22
2183.669917170937
 32
0.0
 13
28628.57137023421
 23
2183.669917170937
 33
0.0
  0
MTEXT
  5
7A5
330
6C8
100
AcDbEntity
  8
Dimension (ISO)
100
AcDbMText
 10
32991.07137023423
 20
2625.853796606162
 30
0.0
 40
350.0
 41
0.0
 71
     2
 72
     1
  1
\A1;8725
  7
Label Text (ISO)
 73
     1
 44
1.0
1001
ACAD
1000
MTEXTBEGIN
1070
    73
1070
     1
1070
    44
1040
1.0
1070
    74
1070
     0
1000
MTEXTEND
  0
POINT
  5
7A6
330
6C8
100
AcDbEntity
  8
Defpoints
 62
     0
100
AcDbPoint
 10
37353.57137023423
 20
5818.43424159539
 30
0.0
  0
POINT
  5
7A7
330
6C8
100
AcDbEntity
  8
Defpoints
 62
     0
100
AcDbPoint
 10
28628.57137023421
 20
5818.434241595391
 30
0.0
  0
POINT
  5
7A8
330
6C8
100
AcDbEntity
  8
Defpoints
 62
     0
100
AcDbPoint
 10
28628.57137023421
 20
2183.669917170937
 30
0.0
  0
ENDBLK
  5
6CA
330
6C8
100
AcDbEntity
  8
0
100
AcDbBlockEnd
  0
BLOCK
  5
7AB
330
7AA
100
AcDbEntity
  8
0
100
AcDbBlockBegin
  2
*D10
 70
     1
 10
0.0
 20
0.0
 30
0.0
  3
*D10
  1

  0
LINE
  5
886
330
7AA
100
AcDbEntity
  8
Dimension (ISO)
100
AcDbLine
 10
32975.57137023426
 20
4518.434241595895
 30
0.0
 11
35994.05974604277
 21
4518.434241595894
 31
0.0
  0
LINE
  5
887
330
7AA
100
AcDbEntity
  8
Dimension (ISO)
100
AcDbLine
 10
35894.05974604277
 20
9893.43424159567
 30
0.0
 11
35894.05974604277
 21
4768.434241595894
 31
0.0
  0
SOLID
  5
888
330
7AA
100
AcDbEntity
  8
Dimension (ISO)
100
AcDbTrace
 10
35852.39307937611
 20
9893.43424159567
 30
0.0
 11
35935.72641270943
 21
9893.43424159567
 31
0.0
 12
35894.05974604277
 22
10143.43424159567
 32
0.0
 13
35894.05974604277
 23
10143.43424159567
 33
0.0
  0
SOLID
  5
889
330
7AA
100
AcDbEntity
  8
Dimension (ISO)
100
AcDbTrace
 10
35852.39307937611
 20
4768.434241595894
 30
0.0
 11
35935.72641270943
 21
4768.434241595894
 31
0.0
 12
35894.05974604277
 22
4518.434241595894
 32
0.0
 13
35894.05974604277
 23
4518.434241595894
 33
0.0
  0
MTEXT
  5
88A
330
7AA
100
AcDbEntity
  8
Dimension (ISO)
100
AcDbMText
 10
35453.28620911019
 20
7330.934241595781
 30
0.0
 40
350.0
 41
0.0
 71
     2
 72
     1
  1
\A1;5625
  7
Label Text (ISO)
 11
0.0000000000000001
 21
1.0
 31
0.0
 73
     1
 44
1.0
1001
ACAD
1000
MTEXTBEGIN
1070
    73
1070
     1
1070
    44
1040
1.0
1070
    74
1070
     0
1000
MTEXTEND
  0
POINT
  5
88B
330
7AA
100
AcDbEntity
  8
Defpoints
 62
     0
100
AcDbPoint
 10
35849.57137023424
 20
10143.43424159567
 30
0.0
  0
POINT
  5
88C
330
7AA
100
AcDbEntity
  8
Defpoints
 62
     0
100
AcDbPoint
 10
32925.57137023425
 20
4518.434241595895
 30
0.0
  0
POINT
  5
88D
330
7AA
100
AcDbEntity
  8
Defpoints
 62
     0
100
AcDbPoint
 10
35894.05974604277
 20
4518.434241595894
 30
0.0
  0
ENDBLK
  5
7AC
330
7AA
100
AcDbEntity
  8
0
100
AcDbBlockEnd
  0
BLOCK
  5
890
330
88F
100
AcDbEntity
  8
0
100
AcDbBlockBegin
  2
*D11
 70
     1
 10
0.0
 20
0.0
 30
0.0
  3
*D11
  1

  0
LINE
  5
967
330
88F
100
AcDbEntity
  8
Dimension (ISO)
100
AcDbLine
 10
37185.07137023422
 20
7311.702313391077
 30
0.0
 11
37185.07137023422
 21
10899.49225425005
 31
0.0
  0
LINE
  5
968
330
88F
100
AcDbEntity
  8
Dimension (ISO)
100
AcDbLine
 10
30128.57137023425
 20
8365.434241596039
 30
0.0
 11
30128.57137023425
 21
10899.49225425005
 31
0.0
  0
LINE
  5
969
330
88F
100
AcDbEntity
  8
Dimension (ISO)
100
AcDbLine
 10
36935.07137023422
 20
10799.49225425005
 30
0.0
 11
30378.57137023425
 21
10799.49225425005
 31
0.0
  0
SOLID
  5
96A
330
88F
100
AcDbEntity
  8
Dimension (ISO)
100
AcDbTrace
 10
36935.07137023422
 20
10841.15892091671
 30
0.0
 11
36935.07137023422
 21
10757.82558758338
 31
0.0
 12
37185.07137023422
 22
10799.49225425005
 32
0.0
 13
37185.07137023422
 23
10799.49225425005
 33
0.0
  0
SOLID
  5
96B
330
88F
100
AcDbEntity
  8
Dimension (ISO)
100
AcDbTrace
 10
30378.57137023425
 20
10841.15892091671
 30
0.0
 11
30378.57137023425
 21
10757.82558758338
 31
0.0
 12
30128.57137023425
 22
10799.49225425005
 32
0.0
 13
30128.57137023425
 23
10799.49225425005
 33
0.0
  0
MTEXT
  5
96C
330
88F
100
AcDbEntity
  8
Dimension (ISO)
100
AcDbMText
 10
33656.82137023423
 20
11240.03073409886
 30
0.0
 40
350.0
 41
0.0
 71
     2
 72
     1
  1
\A1;7056
  7
Label Text (ISO)
 73
     1
 44
1.0
1001
ACAD
1000
MTEXTBEGIN
1070
    73
1070
     1
1070
    44
1040
1.0
1070
    74
1070
     0
1000
MTEXTEND
  0
POINT
  5
96D
330
88F
100
AcDbEntity
  8
Defpoints
 62
     0
100
AcDbPoint
 10
37185.07137023422
 20
7261.702313391078
 30
0.0
  0
POINT
  5
96E
330
88F
100
AcDbEntity
  8
Defpoints
 62
     0
100
AcDbPoint
 10
30128.57137023425
 20
8315.434241596038
 30
0.0
  0
POINT
  5
96F
330
88F
100
AcDbEntity
  8
Defpoints
 62
     0
100
AcDbPoint
 10
30128.57137023425
 20
10799.49225425005
 30
0.0
  0
ENDBLK
  5
891
330
88F
100
AcDbEntity
  8
0
100
AcDbBlockEnd
  0
BLOCK
  5
972
330
971
100
AcDbEntity
  8
0
100
AcDbBlockBegin
  2
*D12
 70
     1
 10
0.0
 20
0.0
 30
0.0
  3
*D12
  1

  0
LINE
  5
A4D
330
971
100
AcDbEntity
  8
Dimension (ISO)
100
AcDbLine
 10
30083.57137023607
 20
15704.90796141908
 30
0.0
 11
29357.35883111538
 21
15704.90796141908
 31
0.0
  0
LINE
  5
A4E
330
971
100
AcDbEntity
  8
Dimension (ISO)
100
AcDbLine
 10
29457.35883111538
 20
13654.90796141909
 30
0.0
 11
29457.35883111538
 21
15454.90796141908
 31
0.0
  0
SOLID
  5
A4F
330
971
100
AcDbEntity
  8
Dimension (ISO)
100
AcDbTrace
 10
29415.69216444871
 20
13654.90796141909
 30
0.0
 11
29499.02549778204
 21
13654.90796141909
 31
0.0
 12
29457.35883111538
 22
13404.90796141909
 32
0.0
 13
29457.35883111538
 23
13404.90796141909
 33
0.0
  0
SOLID
  5
A50
330
971
100
AcDbEntity
  8
Dimension (ISO)
100
AcDbTrace
 10
29415.69216444871
 20
15454.90796141908
 30
0.0
 11
29499.02549778204
 21
15454.90796141908
 31
0.0
 12
29457.35883111538
 22
15704.90796141908
 32
0.0
 13
29457.35883111538
 23
15704.90796141908
 33
0.0
  0
MTEXT
  5
A51
330
971
100
AcDbEntity
  8
Dimension (ISO)
100
AcDbMText
 10
29016.58529418279
 20
14554.90796141909
 30
0.0
 40
350.0
 41
0.0
 71
     2
 72
     1
  1
\A1;2300
  7
Label Text (ISO)
 11
0.0000000000000001
 21
1.0
 31
0.0
 73
     1
 44
1.0
1001
ACAD
1000
MTEXTBEGIN
1070
    73
1070
     1
1070
    44
1040
1.0
1070
    74
1070
     0
1000
MTEXTEND
  0
POINT
  5
A52
330
971
100
AcDbEntity
  8
Defpoints
 62
     0
100
AcDbPoint
 10
29457.35883111537
 20
13404.90796141909
 30
0.0
  0
POINT
  5
A53
330
971
100
AcDbEntity
  8
Defpoints
 62
     0
100
AcDbPoint
 10
30133.57137023608
 20
15704.90796141908
 30
0.0
  0
POINT
  5
A54
330
971
100
AcDbEntity
  8
Defpoints
 62
     0
100
AcDbPoint
 10
29457.35883111538
 20
15704.90796141908
 30
0.0
  0
ENDBLK
  5
973
330
971
100
AcDbEntity
  8
0
100
AcDbBlockEnd
  0
BLOCK
  5
A57
330
A56
100
AcDbEntity
  8
0
100
AcDbBlockBegin
  2
*D13
 70
     1
 10
0.0
 20
0.0
 30
0.0
  3
*D13
  1

  0
LINE
  5
B5C
330
A56
100
AcDbEntity
  8
Dimension (ISO)
100
AcDbLine
 10
37235.07137023604
 20
13614.90796141908
 30
0.0
 11
38152.08818484014
 21
13614.90796141908
 31
0.0
  0
LINE
  5
B5D
330
A56
100
AcDbEntity
  8
Dimension (ISO)
100
AcDbLine
 10
37403.57137023605
 20
13404.90796141908
 30
0.0
 11
38152.08818484014
 21
13404.90796141908
 31
0.0
  0
LINE
  5
B5E
330
A56
100
AcDbEntity
  8
Dimension (ISO)
100
AcDbLine
 10
38052.08818484013
 20
13154.90796141908
 30
0.0
 11
38052.08818484013
 21
12904.90796141908
 31
0.0
  0
LINE
  5
B5F
330
A56
100
AcDbEntity
  8
Dimension (ISO)
100
AcDbLine
 10
38052.08818484013
 20
13864.90796141907
 30
0.0
 11
38052.08818484013
 21
15016.75898039711
 31
0.0
  0
LINE
  5
B60
330
A56
100
AcDbEntity
  8
Dimension (ISO)
100
AcDbLine
 10
38052.08818484013
 20
13404.90796141908
 30
0.0
 11
38052.08818484013
 21
13614.90796141908
 31
0.0
  0
SOLID
  5
B61
330
A56
100
AcDbEntity
  8
Dimension (ISO)
100
AcDbTrace
 10
38010.42151817347
 20
13154.90796141908
 30
0.0
 11
38093.7548515068
 21
13154.90796141908
 31
0.0
 12
38052.08818484013
 22
13404.90796141908
 32
0.0
 13
38052.08818484013
 23
13404.90796141908
 33
0.0
  0
SOLID
  5
B62
330
A56
100
AcDbEntity
  8
Dimension (ISO)
100
AcDbTrace
 10
38010.42151817347
 20
13864.90796141907
 30
0.0
 11
38093.7548515068
 21
13864.90796141907
 31
0.0
 12
38052.08818484013
 22
13614.90796141908
 32
0.0
 13
38052.08818484013
 23
13614.90796141908
 33
0.0
  0
MTEXT
  5
B63
330
A56
100
AcDbEntity
  8
Dimension (ISO)
100
AcDbMText
 10
37611.31464790755
 20
14568.93373095133
 30
0.0
 40
350.0
 41
0.0
 71
     2
 72
     1
  1
\A1;210
  7
Label Text (ISO)
 11
0.0000000000000001
 21
1.0
 31
0.0
 73
     1
 44
1.0
1001
ACAD
1000
MTEXTBEGIN
1070
    73
1070
     1
1070
    44
1040
1.0
1070
    74
1070
     0
1000
MTEXTEND
  0
POINT
  5
B64
330
A56
100
AcDbEntity
  8
Defpoints
 62
     0
100
AcDbPoint
 10
37185.07137023604
 20
13614.90796141908
 30
0.0
  0
POINT
  5
B65
330
A56
100
AcDbEntity
  8
Defpoints
 62
     0
100
AcDbPoint
 10
37353.57137023605
 20
13404.90796141908
 30
0.0
  0
POINT
  5
B66
330
A56
100
AcDbEntity
  8
Defpoints
 62
     0
100
AcDbPoint
 10
38052.08818484013
 20
13404.90796141908
 30
0.0
  0
ENDBLK
  5
A58
330
A56
100
AcDbEntity
  8
0
100
AcDbBlockEnd
  0
BLOCK
  5
B69
330
B68
100
AcDbEntity
  8
0
100
AcDbBlockBegin
  2
*D14
 70
     1
 10
0.0
 20
0.0
 30
0.0
  3
*D14
  1

  0
LINE
  5
C44
330
B68
100
AcDbEntity
  8
Dimension (ISO)
100
AcDbLine
 10
35143.57137023604
 20
15684.90796141908
 30
0.0
 11
36599.80640877727
 21
15684.90796141908
 31
0.0
  0
LINE
  5
C45
330
B68
100
AcDbEntity
  8
Dimension (ISO)
100
AcDbLine
 10
36499.80640877727
 20
15434.90796141908
 30
0.0
 11
36499.80640877727
 21
13654.90796141908
 31
0.0
  0
SOLID
  5
C46
330
B68
100
AcDbEntity
  8
Dimension (ISO)
100
AcDbTrace
 10
36458.1397421106
 20
15434.90796141908
 30
0.0
 11
36541.47307544393
 21
15434.90796141908
 31
0.0
 12
36499.80640877727
 22
15684.90796141908
 32
0.0
 13
36499.80640877727
 23
15684.90796141908
 33
0.0
  0
SOLID
  5
C47
330
B68
100
AcDbEntity
  8
Dimension (ISO)
100
AcDbTrace
 10
36458.1397421106
 20
13654.90796141908
 30
0.0
 11
36541.47307544393
 21
13654.90796141908
 31
0.0
 12
36499.80640877727
 22
13404.90796141908
 32
0.0
 13
36499.80640877727
 23
13404.90796141908
 33
0.0
  0
MTEXT
  5
C48
330
B68
100
AcDbEntity
  8
Dimension (ISO)
100
AcDbMText
 10
36057.62252934205
 20
14544.90796141908
 30
0.0
 40
350.0
 41
0.0
 71
     2
 72
     1
  1
\A1;2280
  7
Label Text (ISO)
 11
0.0000000000000001
 21
1.0
 31
0.0
 73
     1
 44
1.0
1001
ACAD
1000
MTEXTBEGIN
1070
    73
1070
     1
1070
    44
1040
1.0
1070
    74
1070
     0
1000
MTEXTEND
  0
POINT
  5
C49
330
B68
100
AcDbEntity
  8
Defpoints
 62
     0
100
AcDbPoint
 10
35093.57137023604
 20
15684.90796141908
 30
0.0
  0
POINT
  5
C4A
330
B68
100
AcDbEntity
  8
Defpoints
 62
     0
100
AcDbPoint
 10
36499.80640877727
 20
13404.90796141908
 30
0.0
  0
POINT
  5
C4B
330
B68
100
AcDbEntity
  8
Defpoints
 62
     0
100
AcDbPoint
 10
36499.80640877727
 20
13404.90796141908
 30
0.0
  0
ENDBLK
  5
B6A
330
B68
100
AcDbEntity
  8
0
100
AcDbBlockEnd
  0
BLOCK
  5
CB9
330
CB8
100
AcDbEntity
  8
0
100
AcDbBlockBegin
  2
88502_Street-workout-parkour-2
 70
     0
 10
0.0
 20
0.0
 30
0.0
  3
88502_Street-workout-parkour-2
  1

  0
LINE
  5
CBB
330
CB8
100
AcDbEntity
  8
Visible (ISO)
100
AcDbLine
 10
991.8499999999985
 20
991.8499999998903
 30
0.0
 11
991.8499999999985
 21
71.84999999989213
 31
0.0
  0
LINE
  5
CBC
330
CB8
100
AcDbEntity
  8
Visible (ISO)
100
AcDbLine
 10
958.1500000000014
 20
991.8499999998903
 30
0.0
 11
958.1500000000014
 21
71.84999999989213
 31
0.0
  0
LINE
  5
CBD
330
CB8
100
AcDbEntity
  8
Visible (ISO)
100
AcDbLine
 10
1002.5
 20
71.84999999990487
 30
0.0
 11
1012.5
 21
71.84999999990214
 31
0.0
  0
LINE
  5
CBE
330
CB8
100
AcDbEntity
  8
Visible (ISO)
100
AcDbLine
 10
1012.500000000007
 20
66.84999999990305
 30
0.0
 11
1012.500000000007
 21
71.84999999990214
 31
0.0
  0
LINE
  5
CBF
330
CB8
100
AcDbEntity
  8
Visible (ISO)
100
AcDbLine
 10
937.5
 20
71.84999999990214
 30
0.0
 11
947.4999999999999
 21
71.84999999990487
 31
0.0
  0
LINE
  5
CC0
330
CB8
100
AcDbEntity
  8
Visible (ISO)
100
AcDbLine
 10
937.5
 20
71.84999999990214
 30
0.0
 11
937.5
 21
66.84999999990305
 31
0.0
  0
LINE
  5
CC1
330
CB8
100
AcDbEntity
  8
Visible (ISO)
100
AcDbLine
 10
1002.5
 20
71.84999999990487
 30
0.0
 11
947.4999999999999
 21
71.84999999990487
 31
0.0
  0
LINE
  5
CC2
330
CB8
100
AcDbEntity
  8
Visible (ISO)
100
AcDbLine
 10
-3024.999999999979
 20
1079.349999999976
 30
0.0
 11
-3019.999999999975
 21
1079.349999999976
 31
0.0
  0
LINE
  5
CC3
330
CB8
100
AcDbEntity
  8
Visible (ISO)
100
AcDbLine
 10
-3019.999999999975
 20
1089.34999999998
 30
0.0
 11
-3019.999999999975
 21
1079.349999999976
 31
0.0
  0
LINE
  5
CC4
330
CB8
100
AcDbEntity
  8
Visible (ISO)
100
AcDbLine
 10
-3019.999999999975
 20
1154.349999999976
 30
0.0
 11
-3019.999999999975
 21
1144.34999999998
 31
0.0
  0
LINE
  5
CC5
330
CB8
100
AcDbEntity
  8
Visible (ISO)
100
AcDbLine
 10
-3019.999999999975
 20
1154.349999999978
 30
0.0
 11
-3024.999999999979
 21
1154.349999999978
 31
0.0
  0
LINE
  5
CC6
330
CB8
100
AcDbEntity
  8
Visible (ISO)
100
AcDbLine
 10
-3019.999999999975
 20
1089.34999999998
 30
0.0
 11
-3019.999999999975
 21
1144.34999999998
 31
0.0
  0
LINE
  5
CC7
330
CB8
100
AcDbEntity
  8
Visible (ISO)
100
AcDbLine
 10
920.0
 20
44.35000000001401
 30
0.0
 11
920.0
 21
54.35000000001128
 31
0.0
  0
LINE
  5
CC8
330
CB8
100
AcDbEntity
  8
Visible (ISO)
100
AcDbLine
 10
925.0
 20
54.35000000001128
 30
0.0
 11
920.0
 21
54.35000000001128
 31
0.0
  0
LINE
  5
CC9
330
CB8
100
AcDbEntity
  8
Visible (ISO)
100
AcDbLine
 10
920.0
 20
-20.64999999998963
 30
0.0
 11
920.0
 21
-10.6499999999869
 31
0.0
  0
LINE
  5
CCA
330
CB8
100
AcDbEntity
  8
Visible (ISO)
100
AcDbLine
 10
920.0
 20
-20.64999999998963
 30
0.0
 11
925.0
 21
-20.64999999998963
 31
0.0
  0
LINE
  5
CCB
330
CB8
100
AcDbEntity
  8
Visible (ISO)
100
AcDbLine
 10
920.0
 20
44.35000000001401
 30
0.0
 11
920.0
 21
-10.6499999999869
 31
0.0
  0
LINE
  5
CCC
330
CB8
100
AcDbEntity
  8
Visible (ISO)
100
AcDbLine
 10
-920.0
 20
-10.64999999998599
 30
0.0
 11
-920.0
 21
-20.64999999998872
 31
0.0
  0
LINE
  5
CCD
330
CB8
100
AcDbEntity
  8
Visible (ISO)
100
AcDbLine
 10
-924.9999999999964
 20
-20.64999999998872
 30
0.0
 11
-920.0
 21
-20.64999999998872
 31
0.0
  0
LINE
  5
CCE
330
CB8
100
AcDbEntity
  8
Visible (ISO)
100
AcDbLine
 10
-920.0
 20
54.35000000001128
 30
0.0
 11
-920.0
 21
44.35000000001491
 31
0.0
  0
LINE
  5
CCF
330
CB8
100
AcDbEntity
  8
Visible (ISO)
100
AcDbLine
 10
-920.0
 20
54.35000000001128
 30
0.0
 11
-924.9999999999964
 21
54.35000000001128
 31
0.0
  0
LINE
  5
CD0
330
CB8
100
AcDbEntity
  8
Visible (ISO)
100
AcDbLine
 10
-920.0
 20
-10.64999999998599
 30
0.0
 11
-920.0
 21
44.35000000001491
 31
0.0
  0
LINE
  5
CD1
330
CB8
100
AcDbEntity
  8
Visible (ISO)
100
AcDbLine
 10
-3047.499999999975
 20
-1228.149999999983
 30
0.0
 11
-3037.499999999971
 21
-1228.149999999986
 31
0.0
  0
LINE
  5
CD2
330
CB8
100
AcDbEntity
  8
Visible (ISO)
100
AcDbLine
 10
-3037.499999999975
 20
-1233.149999999986
 30
0.0
 11
-3037.499999999975
 21
-1228.149999999986
 31
0.0
  0
LINE
  5
CD3
330
CB8
100
AcDbEntity
  8
Visible (ISO)
100
AcDbLine
 10
-3112.499999999975
 20
-1228.149999999986
 30
0.0
 11
-3102.499999999975
 21
-1228.149999999983
 31
0.0
  0
LINE
  5
CD4
330
CB8
100
AcDbEntity
  8
Visible (ISO)
100
AcDbLine
 10
-3112.499999999975
 20
-1228.149999999986
 30
0.0
 11
-3112.499999999975
 21
-1233.149999999986
 31
0.0
  0
LINE
  5
CD5
330
CB8
100
AcDbEntity
  8
Visible (ISO)
100
AcDbLine
 10
-3047.499999999975
 20
-1228.149999999983
 30
0.0
 11
-3102.499999999975
 21
-1228.149999999983
 31
0.0
  0
LINE
  5
CD6
330
CB8
100
AcDbEntity
  8
Visible (ISO)
100
AcDbLine
 10
-3102.499999999975
 20
-38.14999999998327
 30
0.0
 11
-3112.499999999975
 21
-38.149999999986
 31
0.0
  0
LINE
  5
CD7
330
CB8
100
AcDbEntity
  8
Visible (ISO)
100
AcDbLine
 10
-3112.499999999975
 20
-33.149999999986
 30
0.0
 11
-3112.499999999975
 21
-38.149999999986
 31
0.0
  0
LINE
  5
CD8
330
CB8
100
AcDbEntity
  8
Visible (ISO)
100
AcDbLine
 10
-3037.499999999971
 20
-38.149999999986
 30
0.0
 11
-3047.499999999975
 21
-38.14999999998327
 31
0.0
  0
LINE
  5
CD9
330
CB8
100
AcDbEntity
  8
Visible (ISO)
100
AcDbLine
 10
-3037.499999999975
 20
-38.149999999986
 30
0.0
 11
-3037.499999999975
 21
-33.149999999986
 31
0.0
  0
LINE
  5
CDA
330
CB8
100
AcDbEntity
  8
Visible (ISO)
100
AcDbLine
 10
-3102.499999999975
 20
-38.14999999998327
 30
0.0
 11
-3047.499999999975
 21
-38.14999999998327
 31
0.0
  0
LINE
  5
CDB
330
CB8
100
AcDbEntity
  8
Visible (ISO)
100
AcDbLine
 10
1002.500000000007
 20
-1228.149999999986
 30
0.0
 11
1012.500000000007
 21
-1228.149999999988
 31
0.0
  0
LINE
  5
CDC
330
CB8
100
AcDbEntity
  8
Visible (ISO)
100
AcDbLine
 10
1012.500000000007
 20
-1233.149999999989
 30
0.0
 11
1012.500000000007
 21
-1228.149999999988
 31
0.0
  0
LINE
  5
CDD
330
CB8
100
AcDbEntity
  8
Visible (ISO)
100
AcDbLine
 10
937.5000000000072
 20
-1228.149999999988
 30
0.0
 11
947.5000000000072
 21
-1228.149999999986
 31
0.0
  0
LINE
  5
CDE
330
CB8
100
AcDbEntity
  8
Visible (ISO)
100
AcDbLine
 10
937.5
 20
-1228.149999999988
 30
0.0
 11
937.5
 21
-1233.149999999989
 31
0.0
  0
LINE
  5
CDF
330
CB8
100
AcDbEntity
  8
Visible (ISO)
100
AcDbLine
 10
1002.500000000007
 20
-1228.149999999986
 30
0.0
 11
947.5000000000072
 21
-1228.149999999986
 31
0.0
  0
LINE
  5
CE0
330
CB8
100
AcDbEntity
  8
Visible (ISO)
100
AcDbLine
 10
947.5000000000072
 20
-38.149999999986
 30
0.0
 11
937.5000000000072
 21
-38.14999999998872
 31
0.0
  0
LINE
  5
CE1
330
CB8
100
AcDbEntity
  8
Visible (ISO)
100
AcDbLine
 10
937.5
 20
-33.14999999998872
 30
0.0
 11
937.5
 21
-38.14999999998872
 31
0.0
  0
LINE
  5
CE2
330
CB8
100
AcDbEntity
  8
Visible (ISO)
100
AcDbLine
 10
1012.500000000007
 20
-38.14999999998872
 30
0.0
 11
1002.500000000007
 21
-38.149999999986
 31
0.0
  0
LINE
  5
CE3
330
CB8
100
AcDbEntity
  8
Visible (ISO)
100
AcDbLine
 10
1012.500000000007
 20
-38.14999999998872
 30
0.0
 11
1012.500000000007
 21
-33.14999999998872
 31
0.0
  0
LINE
  5
CE4
330
CB8
100
AcDbEntity
  8
Visible (ISO)
100
AcDbLine
 10
947.5000000000072
 20
-38.149999999986
 30
0.0
 11
1002.500000000007
 21
-38.149999999986
 31
0.0
  0
LINE
  5
CE5
330
CB8
100
AcDbEntity
  8
Visible (ISO)
100
AcDbLine
 10
-1779.999999999974
 20
-1255.649999999983
 30
0.0
 11
-1779.999999999974
 21
-1245.649999999986
 31
0.0
  0
LINE
  5
CE6
330
CB8
100
AcDbEntity
  8
Visible (ISO)
100
AcDbLine
 10
-1774.999999999974
 20
-1245.649999999986
 30
0.0
 11
-1779.999999999974
 21
-1245.649999999986
 31
0.0
  0
LINE
  5
CE7
330
CB8
100
AcDbEntity
  8
Visible (ISO)
100
AcDbLine
 10
-1779.999999999974
 20
-1320.649999999986
 30
0.0
 11
-1779.999999999974
 21
-1310.649999999983
 31
0.0
  0
LINE
  5
CE8
330
CB8
100
AcDbEntity
  8
Visible (ISO)
100
AcDbLine
 10
-1779.999999999974
 20
-1320.649999999987
 30
0.0
 11
-1774.999999999974
 21
-1320.649999999987
 31
0.0
  0
LINE
  5
CE9
330
CB8
100
AcDbEntity
  8
Visible (ISO)
100
AcDbLine
 10
-1779.999999999974
 20
-1255.649999999983
 30
0.0
 11
-1779.999999999974
 21
-1310.649999999983
 31
0.0
  0
LINE
  5
CEA
330
CB8
100
AcDbEntity
  8
Visible (ISO)
100
AcDbLine
 10
-3024.999999999979
 20
-1320.649999999987
 30
0.0
 11
-3019.999999999975
 21
-1320.649999999987
 31
0.0
  0
LINE
  5
CEB
330
CB8
100
AcDbEntity
  8
Visible (ISO)
100
AcDbLine
 10
-3019.999999999975
 20
-1310.649999999983
 30
0.0
 11
-3019.999999999975
 21
-1320.649999999986
 31
0.0
  0
LINE
  5
CEC
330
CB8
100
AcDbEntity
  8
Visible (ISO)
100
AcDbLine
 10
-3019.999999999975
 20
-1245.649999999986
 30
0.0
 11
-3019.999999999975
 21
-1255.649999999983
 31
0.0
  0
LINE
  5
CED
330
CB8
100
AcDbEntity
  8
Visible (ISO)
100
AcDbLine
 10
-3019.999999999975
 20
-1245.649999999986
 30
0.0
 11
-3024.999999999979
 21
-1245.649999999986
 31
0.0
  0
LINE
  5
CEE
330
CB8
100
AcDbEntity
  8
Visible (ISO)
100
AcDbLine
 10
-3019.999999999975
 20
-1310.649999999983
 30
0.0
 11
-3019.999999999975
 21
-1255.649999999983
 31
0.0
  0
LINE
  5
CEF
330
CB8
100
AcDbEntity
  8
Visible (ISO)
100
AcDbLine
 10
-1669.999999999971
 20
-1310.650000000072
 30
0.0
 11
-1669.999999999971
 21
-1320.650000000074
 31
0.0
  0
LINE
  5
CF0
330
CB8
100
AcDbEntity
  8
Visible (ISO)
100
AcDbLine
 10
-1674.999999999974
 20
-1320.650000000074
 30
0.0
 11
-1669.999999999971
 21
-1320.650000000074
 31
0.0
  0
LINE
  5
CF1
330
CB8
100
AcDbEntity
  8
Visible (ISO)
100
AcDbLine
 10
-1669.999999999971
 20
-1245.650000000075
 30
0.0
 11
-1669.999999999971
 21
-1255.650000000072
 31
0.0
  0
LINE
  5
CF2
330
CB8
100
AcDbEntity
  8
Visible (ISO)
100
AcDbLine
 10
-1669.999999999971
 20
-1245.650000000075
 30
0.0
 11
-1674.999999999974
 21
-1245.650000000075
 31
0.0
  0
LINE
  5
CF3
330
CB8
100
AcDbEntity
  8
Visible (ISO)
100
AcDbLine
 10
-1669.999999999971
 20
-1310.650000000072
 30
0.0
 11
-1669.999999999971
 21
-1255.650000000071
 31
0.0
  0
LINE
  5
CF4
330
CB8
100
AcDbEntity
  8
Visible (ISO)
100
AcDbLine
 10
-424.9999999999781
 20
-1245.650000000075
 30
0.0
 11
-429.9999999999709
 21
-1245.650000000075
 31
0.0
  0
LINE
  5
CF5
330
CB8
100
AcDbEntity
  8
Visible (ISO)
100
AcDbLine
 10
-429.9999999999709
 20
-1255.650000000072
 30
0.0
 11
-429.9999999999709
 21
-1245.650000000075
 31
0.0
  0
LINE
  5
CF6
330
CB8
100
AcDbEntity
  8
Visible (ISO)
100
AcDbLine
 10
-429.9999999999709
 20
-1320.650000000074
 30
0.0
 11
-429.9999999999709
 21
-1310.650000000072
 31
0.0
  0
LINE
  5
CF7
330
CB8
100
AcDbEntity
  8
Visible (ISO)
100
AcDbLine
 10
-429.9999999999709
 20
-1320.650000000075
 30
0.0
 11
-424.9999999999781
 21
-1320.650000000075
 31
0.0
  0
LINE
  5
CF8
330
CB8
100
AcDbEntity
  8
Visible (ISO)
100
AcDbLine
 10
-429.9999999999709
 20
-1255.650000000071
 30
0.0
 11
-429.9999999999709
 21
-1310.650000000072
 31
0.0
  0
LINE
  5
CF9
330
CB8
100
AcDbEntity
  8
Visible (ISO)
100
AcDbLine
 10
-1697.499999999971
 20
-2528.150000000161
 30
0.0
 11
-1687.499999999971
 21
-2528.150000000163
 31
0.0
  0
LINE
  5
CFA
330
CB8
100
AcDbEntity
  8
Visible (ISO)
100
AcDbLine
 10
-1687.499999999974
 20
-2533.150000000163
 30
0.0
 11
-1687.499999999974
 21
-2528.150000000163
 31
0.0
  0
LINE
  5
CFB
330
CB8
100
AcDbEntity
  8
Visible (ISO)
100
AcDbLine
 10
-1762.499999999974
 20
-2528.150000000163
 30
0.0
 11
-1752.499999999971
 21
-2528.150000000161
 31
0.0
  0
LINE
  5
CFC
330
CB8
100
AcDbEntity
  8
Visible (ISO)
100
AcDbLine
 10
-1762.499999999974
 20
-2528.150000000163
 30
0.0
 11
-1762.499999999974
 21
-2533.150000000163
 31
0.0
  0
LINE
  5
CFD
330
CB8
100
AcDbEntity
  8
Visible (ISO)
100
AcDbLine
 10
-1697.499999999971
 20
-2528.150000000161
 30
0.0
 11
-1752.499999999971
 21
-2528.150000000161
 31
0.0
  0
LINE
  5
CFE
330
CB8
100
AcDbEntity
  8
Visible (ISO)
100
AcDbLine
 10
-1752.499999999971
 20
-1338.150000000161
 30
0.0
 11
-1762.499999999974
 21
-1338.150000000164
 31
0.0
  0
LINE
  5
CFF
330
CB8
100
AcDbEntity
  8
Visible (ISO)
100
AcDbLine
 10
-1762.499999999974
 20
-1333.150000000164
 30
0.0
 11
-1762.499999999974
 21
-1338.150000000164
 31
0.0
  0
LINE
  5
D00
330
CB8
100
AcDbEntity
  8
Visible (ISO)
100
AcDbLine
 10
-1687.499999999971
 20
-1338.150000000164
 30
0.0
 11
-1697.499999999971
 21
-1338.150000000161
 31
0.0
  0
LINE
  5
D01
330
CB8
100
AcDbEntity
  8
Visible (ISO)
100
AcDbLine
 10
-1687.499999999974
 20
-1338.150000000164
 30
0.0
 11
-1687.499999999974
 21
-1333.150000000164
 31
0.0
  0
LINE
  5
D02
330
CB8
100
AcDbEntity
  8
Visible (ISO)
100
AcDbLine
 10
-1752.499999999971
 20
-1338.150000000161
 30
0.0
 11
-1697.499999999971
 21
-1338.150000000161
 31
0.0
  0
LINE
  5
D03
330
CB8
100
AcDbEntity
  8
Visible (ISO)
100
AcDbLine
 10
920.000000000029
 20
-1255.649999999984
 30
0.0
 11
920.000000000029
 21
-1245.649999999987
 31
0.0
  0
LINE
  5
D04
330
CB8
100
AcDbEntity
  8
Visible (ISO)
100
AcDbLine
 10
925.0000000000291
 20
-1245.649999999987
 30
0.0
 11
920.000000000029
 21
-1245.649999999987
 31
0.0
  0
LINE
  5
D05
330
CB8
100
AcDbEntity
  8
Visible (ISO)
100
AcDbLine
 10
920.000000000029
 20
-1320.649999999988
 30
0.0
 11
920.000000000029
 21
-1310.649999999985
 31
0.0
  0
LINE
  5
D06
330
CB8
100
AcDbEntity
  8
Visible (ISO)
100
AcDbLine
 10
920.000000000029
 20
-1320.649999999988
 30
0.0
 11
925.0000000000291
 21
-1320.649999999988
 31
0.0
  0
LINE
  5
D07
330
CB8
100
AcDbEntity
  8
Visible (ISO)
100
AcDbLine
 10
920.000000000029
 20
-1255.649999999984
 30
0.0
 11
920.000000000029
 21
-1310.649999999984
 31
0.0
  0
LINE
  5
D08
330
CB8
100
AcDbEntity
  8
Visible (ISO)
100
AcDbLine
 10
-324.9999999999709
 20
-1320.649999999989
 30
0.0
 11
-319.9999999999782
 21
-1320.649999999989
 31
0.0
  0
LINE
  5
D09
330
CB8
100
AcDbEntity
  8
Visible (ISO)
100
AcDbLine
 10
-319.9999999999782
 20
-1310.649999999986
 30
0.0
 11
-319.9999999999782
 21
-1320.649999999989
 31
0.0
  0
LINE
  5
D0A
330
CB8
100
AcDbEntity
  8
Visible (ISO)
100
AcDbLine
 10
-319.9999999999782
 20
-1245.649999999988
 30
0.0
 11
-319.9999999999782
 21
-1255.649999999985
 31
0.0
  0
LINE
  5
D0B
330
CB8
100
AcDbEntity
  8
Visible (ISO)
100
AcDbLine
 10
-319.9999999999782
 20
-1245.649999999988
 30
0.0
 11
-324.9999999999709
 21
-1245.649999999988
 31
0.0
  0
LINE
  5
D0C
330
CB8
100
AcDbEntity
  8
Visible (ISO)
100
AcDbLine
 10
-319.9999999999782
 20
-1310.649999999985
 30
0.0
 11
-319.9999999999782
 21
-1255.649999999985
 31
0.0
  0
LINE
  5
D0D
330
CB8
100
AcDbEntity
  8
Visible (ISO)
100
AcDbLine
 10
-347.4999999999709
 20
-2528.150000000162
 30
0.0
 11
-337.4999999999782
 21
-2528.150000000164
 31
0.0
  0
LINE
  5
D0E
330
CB8
100
AcDbEntity
  8
Visible (ISO)
100
AcDbLine
 10
-337.4999999999782
 20
-2533.150000000164
 30
0.0
 11
-337.4999999999782
 21
-2528.150000000164
 31
0.0
  0
LINE
  5
D0F
330
CB8
100
AcDbEntity
  8
Visible (ISO)
100
AcDbLine
 10
-412.4999999999781
 20
-2528.150000000164
 30
0.0
 11
-402.4999999999781
 21
-2528.150000000162
 31
0.0
  0
LINE
  5
D10
330
CB8
100
AcDbEntity
  8
Visible (ISO)
100
AcDbLine
 10
-412.4999999999781
 20
-2528.150000000164
 30
0.0
 11
-412.4999999999781
 21
-2533.150000000164
 31
0.0
  0
LINE
  5
D11
330
CB8
100
AcDbEntity
  8
Visible (ISO)
100
AcDbLine
 10
-347.4999999999709
 20
-2528.150000000162
 30
0.0
 11
-402.4999999999709
 21
-2528.150000000162
 31
0.0
  0
LINE
  5
D12
330
CB8
100
AcDbEntity
  8
Visible (ISO)
100
AcDbLine
 10
-402.4999999999781
 20
-1338.150000000162
 30
0.0
 11
-412.4999999999781
 21
-1338.150000000165
 31
0.0
  0
LINE
  5
D13
330
CB8
100
AcDbEntity
  8
Visible (ISO)
100
AcDbLine
 10
-412.4999999999781
 20
-1333.150000000165
 30
0.0
 11
-412.4999999999781
 21
-1338.150000000165
 31
0.0
  0
LINE
  5
D14
330
CB8
100
AcDbEntity
  8
Visible (ISO)
100
AcDbLine
 10
-337.4999999999782
 20
-1338.150000000165
 30
0.0
 11
-347.4999999999709
 21
-1338.150000000162
 31
0.0
  0
LINE
  5
D15
330
CB8
100
AcDbEntity
  8
Visible (ISO)
100
AcDbLine
 10
-337.4999999999782
 20
-1338.150000000165
 30
0.0
 11
-337.4999999999782
 21
-1333.150000000165
 31
0.0
  0
LINE
  5
D16
330
CB8
100
AcDbEntity
  8
Visible (ISO)
100
AcDbLine
 10
-402.4999999999709
 20
-1338.150000000162
 30
0.0
 11
-347.4999999999709
 21
-1338.150000000162
 31
0.0
  0
LINE
  5
D17
330
CB8
100
AcDbEntity
  8
Visible (ISO)
100
AcDbLine
 10
-3019.999999999982
 20
35.84999999995853
 30
0.0
 11
-2791.849999999981
 21
35.84999999995853
 31
0.0
  0
LINE
  5
D18
330
CB8
100
AcDbEntity
  8
Visible (ISO)
100
AcDbLine
 10
-2758.14999999998
 20
35.84999999995853
 30
0.0
 11
-2491.849999999977
 21
35.84999999995853
 31
0.0
  0
LINE
  5
D19
330
CB8
100
AcDbEntity
  8
Visible (ISO)
100
AcDbLine
 10
-2458.149999999976
 20
35.84999999995853
 30
0.0
 11
-2191.849999999977
 21
35.84999999995853
 31
0.0
  0
LINE
  5
D1A
330
CB8
100
AcDbEntity
  8
Visible (ISO)
100
AcDbLine
 10
-2158.149999999976
 20
35.84999999995762
 30
0.0
 11
-1891.849999999976
 21
35.84999999995762
 31
0.0
  0
LINE
  5
D1B
330
CB8
100
AcDbEntity
  8
Visible (ISO)
100
AcDbLine
 10
-1858.149999999976
 20
35.84999999995762
 30
0.0
 11
-1591.849999999977
 21
35.84999999995762
 31
0.0
  0
LINE
  5
D1C
330
CB8
100
AcDbEntity
  8
Visible (ISO)
100
AcDbLine
 10
-1558.149999999972
 20
35.84999999995762
 30
0.0
 11
-1291.849999999969
 21
35.84999999995671
 31
0.0
  0
LINE
  5
D1D
330
CB8
100
AcDbEntity
  8
Visible (ISO)
100
AcDbLine
 10
-1258.149999999972
 20
35.84999999995671
 30
0.0
 11
-1029.999999999949
 21
35.84999999995671
 31
0.0
  0
LINE
  5
D1E
330
CB8
100
AcDbEntity
  8
Visible (ISO)
100
AcDbLine
 10
-3019.999999999982
 20
-2.150000000041472
 30
0.0
 11
-1029.999999999949
 21
-2.150000000043291
 31
0.0
  0
LINE
  5
D1F
330
CB8
100
AcDbEntity
  8
Visible (ISO)
100
AcDbLine
 10
-1029.999999999956
 20
44.34999999997126
 30
0.0
 11
-1029.999999999956
 21
54.34999999996853
 31
0.0
  0
LINE
  5
D20
330
CB8
100
AcDbEntity
  8
Visible (ISO)
100
AcDbLine
 10
-1024.999999999963
 20
54.34999999996853
 30
0.0
 11
-1029.999999999956
 21
54.34999999996853
 31
0.0
  0
LINE
  5
D21
330
CB8
100
AcDbEntity
  8
Visible (ISO)
100
AcDbLine
 10
-1029.999999999956
 20
-20.65000000003238
 30
0.0
 11
-1029.999999999956
 21
-10.65000000002965
 31
0.0
  0
LINE
  5
D22
330
CB8
100
AcDbEntity
  8
Visible (ISO)
100
AcDbLine
 10
-1029.999999999956
 20
-20.65000000003238
 30
0.0
 11
-1024.999999999963
 21
-20.65000000003238
 31
0.0
  0
LINE
  5
D23
330
CB8
100
AcDbEntity
  8
Visible (ISO)
100
AcDbLine
 10
-1029.999999999956
 20
44.34999999997126
 30
0.0
 11
-1029.999999999956
 21
-10.65000000002874
 31
0.0
  0
LINE
  5
D24
330
CB8
100
AcDbEntity
  8
Visible (ISO)
100
AcDbLine
 10
-3024.999999999979
 20
-20.65000000003056
 30
0.0
 11
-3019.999999999975
 21
-20.65000000003056
 31
0.0
  0
LINE
  5
D25
330
CB8
100
AcDbEntity
  8
Visible (ISO)
100
AcDbLine
 10
-3019.999999999975
 20
-10.65000000002783
 30
0.0
 11
-3019.999999999975
 21
-20.65000000003056
 31
0.0
  0
LINE
  5
D26
330
CB8
100
AcDbEntity
  8
Visible (ISO)
100
AcDbLine
 10
-3019.999999999975
 20
54.34999999997035
 30
0.0
 11
-3019.999999999975
 21
44.34999999997308
 31
0.0
  0
LINE
  5
D27
330
CB8
100
AcDbEntity
  8
Visible (ISO)
100
AcDbLine
 10
-3019.999999999975
 20
54.34999999997035
 30
0.0
 11
-3024.999999999979
 21
54.34999999997035
 31
0.0
  0
LINE
  5
D28
330
CB8
100
AcDbEntity
  8
Visible (ISO)
100
AcDbLine
 10
-3019.999999999975
 20
-10.65000000002692
 30
0.0
 11
-3019.999999999975
 21
44.34999999997308
 31
0.0
  0
LINE
  5
D29
330
CB8
100
AcDbEntity
  8
Visible (ISO)
100
AcDbLine
 10
-2758.149999999973
 20
35.84999999995853
 30
0.0
 11
-2791.849999999973
 21
35.84999999995853
 31
0.0
  0
LINE
  5
D2A
330
CB8
100
AcDbEntity
  8
Visible (ISO)
100
AcDbLine
 10
-2791.849999999973
 20
1097.849999999982
 30
0.0
 11
-2758.149999999973
 21
1097.849999999982
 31
0.0
  0
LINE
  5
D2B
330
CB8
100
AcDbEntity
  8
Visible (ISO)
100
AcDbLine
 10
-2791.849999999973
 20
35.84999999995853
 30
0.0
 11
-2791.849999999973
 21
1097.849999999982
 31
0.0
  0
LINE
  5
D2C
330
CB8
100
AcDbEntity
  8
Visible (ISO)
100
AcDbLine
 10
-2758.149999999973
 20
35.84999999995853
 30
0.0
 11
-2758.149999999973
 21
1097.849999999982
 31
0.0
  0
LINE
  5
D2D
330
CB8
100
AcDbEntity
  8
Visible (ISO)
100
AcDbLine
 10
-2458.149999999973
 20
35.84999999995853
 30
0.0
 11
-2491.849999999977
 21
35.84999999995853
 31
0.0
  0
LINE
  5
D2E
330
CB8
100
AcDbEntity
  8
Visible (ISO)
100
AcDbLine
 10
-2491.849999999977
 20
1097.849999999982
 30
0.0
 11
-2458.149999999973
 21
1097.849999999982
 31
0.0
  0
LINE
  5
D2F
330
CB8
100
AcDbEntity
  8
Visible (ISO)
100
AcDbLine
 10
-2491.849999999977
 20
35.84999999995853
 30
0.0
 11
-2491.849999999977
 21
1097.849999999982
 31
0.0
  0
LINE
  5
D30
330
CB8
100
AcDbEntity
  8
Visible (ISO)
100
AcDbLine
 10
-2458.149999999973
 20
35.84999999995853
 30
0.0
 11
-2458.149999999973
 21
1097.849999999982
 31
0.0
  0
LINE
  5
D31
330
CB8
100
AcDbEntity
  8
Visible (ISO)
100
AcDbLine
 10
-2158.149999999972
 20
35.84999999995762
 30
0.0
 11
-2191.849999999977
 21
35.84999999995762
 31
0.0
  0
LINE
  5
D32
330
CB8
100
AcDbEntity
  8
Visible (ISO)
100
AcDbLine
 10
-2191.849999999977
 20
1097.84999999998
 30
0.0
 11
-2158.149999999972
 21
1097.84999999998
 31
0.0
  0
LINE
  5
D33
330
CB8
100
AcDbEntity
  8
Visible (ISO)
100
AcDbLine
 10
-2191.849999999977
 20
35.84999999995762
 30
0.0
 11
-2191.849999999977
 21
1097.84999999998
 31
0.0
  0
LINE
  5
D34
330
CB8
100
AcDbEntity
  8
Visible (ISO)
100
AcDbLine
 10
-2158.149999999972
 20
35.84999999995762
 30
0.0
 11
-2158.149999999972
 21
1097.84999999998
 31
0.0
  0
LINE
  5
D35
330
CB8
100
AcDbEntity
  8
Visible (ISO)
100
AcDbLine
 10
-1858.149999999976
 20
35.84999999995762
 30
0.0
 11
-1891.84999999998
 21
35.84999999995762
 31
0.0
  0
LINE
  5
D36
330
CB8
100
AcDbEntity
  8
Visible (ISO)
100
AcDbLine
 10
-1891.84999999998
 20
1097.84999999998
 30
0.0
 11
-1858.149999999976
 21
1097.84999999998
 31
0.0
  0
LINE
  5
D37
330
CB8
100
AcDbEntity
  8
Visible (ISO)
100
AcDbLine
 10
-1891.84999999998
 20
35.84999999995762
 30
0.0
 11
-1891.84999999998
 21
1097.84999999998
 31
0.0
  0
LINE
  5
D38
330
CB8
100
AcDbEntity
  8
Visible (ISO)
100
AcDbLine
 10
-1858.149999999976
 20
35.84999999995762
 30
0.0
 11
-1858.149999999976
 21
1097.84999999998
 31
0.0
  0
LINE
  5
D39
330
CB8
100
AcDbEntity
  8
Visible (ISO)
100
AcDbLine
 10
-1558.149999999976
 20
35.84999999995762
 30
0.0
 11
-1591.84999999998
 21
35.84999999995762
 31
0.0
  0
LINE
  5
D3A
330
CB8
100
AcDbEntity
  8
Visible (ISO)
100
AcDbLine
 10
-1591.84999999998
 20
1097.84999999998
 30
0.0
 11
-1558.149999999976
 21
1097.84999999998
 31
0.0
  0
LINE
  5
D3B
330
CB8
100
AcDbEntity
  8
Visible (ISO)
100
AcDbLine
 10
-1591.84999999998
 20
35.84999999995762
 30
0.0
 11
-1591.84999999998
 21
1097.84999999998
 31
0.0
  0
LINE
  5
D3C
330
CB8
100
AcDbEntity
  8
Visible (ISO)
100
AcDbLine
 10
-1558.149999999976
 20
35.84999999995762
 30
0.0
 11
-1558.149999999976
 21
1097.84999999998
 31
0.0
  0
LINE
  5
D3D
330
CB8
100
AcDbEntity
  8
Visible (ISO)
100
AcDbLine
 10
-1258.149999999976
 20
35.84999999995671
 30
0.0
 11
-1291.849999999977
 21
35.84999999995671
 31
0.0
  0
LINE
  5
D3E
330
CB8
100
AcDbEntity
  8
Visible (ISO)
100
AcDbLine
 10
-1291.849999999977
 20
1097.84999999998
 30
0.0
 11
-1258.149999999976
 21
1097.84999999998
 31
0.0
  0
LINE
  5
D3F
330
CB8
100
AcDbEntity
  8
Visible (ISO)
100
AcDbLine
 10
-1291.849999999977
 20
35.84999999995671
 30
0.0
 11
-1291.849999999977
 21
1097.84999999998
 31
0.0
  0
LINE
  5
D40
330
CB8
100
AcDbEntity
  8
Visible (ISO)
100
AcDbLine
 10
-1258.149999999976
 20
35.84999999995671
 30
0.0
 11
-1258.149999999976
 21
1097.84999999998
 31
0.0
  0
LINE
  5
D41
330
CB8
100
AcDbEntity
  8
Visible (ISO)
100
AcDbLine
 10
-3019.999999999971
 20
1133.699999999966
 30
0.0
 11
-1149.999999999982
 21
1133.699999999964
 31
0.0
  0
LINE
  5
D42
330
CB8
100
AcDbEntity
  8
Visible (ISO)
100
AcDbLine
 10
-3019.999999999971
 20
1099.999999999965
 30
0.0
 11
-1149.999999999982
 21
1099.999999999963
 31
0.0
  0
LINE
  5
D43
330
CB8
100
AcDbEntity
  8
Visible (ISO)
100
AcDbLine
 10
-920.0
 20
33.69999999999982
 30
0.0
 11
920.0
 21
33.69999999999982
 31
0.0
  0
LINE
  5
D44
330
CB8
100
AcDbEntity
  8
Visible (ISO)
100
AcDbLine
 10
-920.0
 20
0.0
 30
0.0
 11
920.0
 21
0.0
 31
0.0
  0
LINE
  5
D45
330
CB8
100
AcDbEntity
  8
Visible (ISO)
100
AcDbLine
 10
-3114.999999999971
 20
71.84999999997035
 30
0.0
 11
-3104.999999999975
 21
71.84999999997308
 31
0.0
  0
LINE
  5
D46
330
CB8
100
AcDbEntity
  8
Visible (ISO)
100
AcDbLine
 10
-3044.999999999975
 20
71.84999999997308
 30
0.0
 11
-3034.999999999978
 21
71.84999999997035
 31
0.0
  0
LINE
  5
D47
330
CB8
100
AcDbEntity
  8
Visible (ISO)
100
AcDbLine
 10
-3034.999999999975
 20
66.84999999997035
 30
0.0
 11
-3034.999999999975
 21
71.84999999997035
 31
0.0
  0
LINE
  5
D48
330
CB8
100
AcDbEntity
  8
Visible (ISO)
100
AcDbLine
 10
-3114.999999999971
 20
71.84999999997035
 30
0.0
 11
-3114.999999999971
 21
66.84999999997035
 31
0.0
  0
LINE
  5
D49
330
CB8
100
AcDbEntity
  8
Visible (ISO)
100
AcDbLine
 10
-3044.999999999975
 20
71.84999999997308
 30
0.0
 11
-3104.999999999975
 21
71.84999999997308
 31
0.0
  0
LINE
  5
D4A
330
CB8
100
AcDbEntity
  8
Visible (ISO)
100
AcDbLine
 10
-3034.999999999978
 20
1061.849999999971
 30
0.0
 11
-3044.999999999975
 21
1061.849999999975
 31
0.0
  0
LINE
  5
D4B
330
CB8
100
AcDbEntity
  8
Visible (ISO)
100
AcDbLine
 10
-3104.999999999975
 20
1061.849999999975
 30
0.0
 11
-3114.999999999971
 21
1061.849999999971
 31
0.0
  0
LINE
  5
D4C
330
CB8
100
AcDbEntity
  8
Visible (ISO)
100
AcDbLine
 10
-3114.999999999971
 20
1066.849999999971
 30
0.0
 11
-3114.999999999971
 21
1061.849999999971
 31
0.0
  0
LINE
  5
D4D
330
CB8
100
AcDbEntity
  8
Visible (ISO)
100
AcDbLine
 10
-3034.999999999978
 20
1061.849999999971
 30
0.0
 11
-3034.999999999978
 21
1066.849999999971
 31
0.0
  0
LINE
  5
D4E
330
CB8
100
AcDbEntity
  8
Visible (ISO)
100
AcDbLine
 10
-3104.999999999975
 20
1061.849999999973
 30
0.0
 11
-3044.999999999975
 21
1061.849999999973
 31
0.0
  0
LINE
  5
D4F
330
CB8
100
AcDbEntity
  8
Visible (ISO)
100
AcDbLine
 10
-3058.149999999976
 20
1061.849999999962
 30
0.0
 11
-3058.149999999976
 21
71.84999999996126
 31
0.0
  0
LINE
  5
D50
330
CB8
100
AcDbEntity
  8
Visible (ISO)
100
AcDbLine
 10
-3091.849999999973
 20
1061.849999999962
 30
0.0
 11
-3091.849999999973
 21
71.84999999996126
 31
0.0
  0
ARC
  5
D51
330
CB8
100
AcDbEntity
  8
Visible (ISO)
100
AcDbCircle
 10
-3121.999999999975
 20
1163.849999999986
 30
0.0
 40
3.000000000000004
100
AcDbArc
 50
90.0
 51
180.0
  0
ARC
  5
D52
330
CB8
100
AcDbEntity
  8
Visible (ISO)
100
AcDbCircle
 10
-3027.999999999975
 20
1163.849999999986
 30
0.0
 40
3.000000000000005
100
AcDbArc
 50
0.0
 51
90.0
  0
LINE
  5
D53
330
CB8
100
AcDbEntity
  8
Visible (ISO)
100
AcDbLine
 10
-3027.999999999975
 20
1166.849999999985
 30
0.0
 11
-3121.999999999975
 21
1166.849999999985
 31
0.0
  0
ARC
  5
D54
330
CB8
100
AcDbEntity
  8
Visible (ISO)
100
AcDbCircle
 10
-3121.999999999975
 20
1069.849999999987
 30
0.0
 40
2.999999999999987
100
AcDbArc
 50
180.0
 51
270.0
  0
ARC
  5
D55
330
CB8
100
AcDbEntity
  8
Visible (ISO)
100
AcDbCircle
 10
-3027.999999999975
 20
1069.849999999987
 30
0.0
 40
3.000000000000004
100
AcDbArc
 50
270.0
 51
0.0
  0
LINE
  5
D56
330
CB8
100
AcDbEntity
  8
Visible (ISO)
100
AcDbLine
 10
-3024.999999999975
 20
1069.849999999987
 30
0.0
 11
-3024.999999999975
 21
1163.849999999986
 31
0.0
  0
LINE
  5
D57
330
CB8
100
AcDbEntity
  8
Visible (ISO)
100
AcDbLine
 10
-3121.999999999975
 20
1066.849999999988
 30
0.0
 11
-3027.999999999975
 21
1066.849999999988
 31
0.0
  0
LINE
  5
D58
330
CB8
100
AcDbEntity
  8
Visible (ISO)
100
AcDbLine
 10
-3124.999999999975
 20
1163.849999999986
 30
0.0
 11
-3124.999999999975
 21
1069.849999999987
 31
0.0
  0
ARC
  5
D59
330
CB8
100
AcDbEntity
  8
Visible (ISO)
100
AcDbCircle
 10
-3121.999999999975
 20
63.8500000000231
 30
0.0
 40
3.000000000000005
100
AcDbArc
 50
90.0
 51
180.0
  0
ARC
  5
D5A
330
CB8
100
AcDbEntity
  8
Visible (ISO)
100
AcDbCircle
 10
-3027.999999999975
 20
63.8500000000231
 30
0.0
 40
3.000000000000005
100
AcDbArc
 50
0.0
 51
90.0
  0
LINE
  5
D5B
330
CB8
100
AcDbEntity
  8
Visible (ISO)
100
AcDbLine
 10
-3027.999999999975
 20
66.8500000000231
 30
0.0
 11
-3121.999999999975
 21
66.8500000000231
 31
0.0
  0
ARC
  5
D5C
330
CB8
100
AcDbEntity
  8
Visible (ISO)
100
AcDbCircle
 10
-3121.999999999975
 20
-30.1499999999769
 30
0.0
 40
2.999999999999987
100
AcDbArc
 50
180.0
 51
270.0
  0
ARC
  5
D5D
330
CB8
100
AcDbEntity
  8
Visible (ISO)
100
AcDbCircle
 10
-3027.999999999975
 20
-30.1499999999769
 30
0.0
 40
3.000000000000005
100
AcDbArc
 50
270.0
 51
0.0
  0
LINE
  5
D5E
330
CB8
100
AcDbEntity
  8
Visible (ISO)
100
AcDbLine
 10
-3024.999999999975
 20
-30.1499999999769
 30
0.0
 11
-3024.999999999975
 21
63.8500000000231
 31
0.0
  0
LINE
  5
D5F
330
CB8
100
AcDbEntity
  8
Visible (ISO)
100
AcDbLine
 10
-3121.999999999975
 20
-33.14999999997599
 30
0.0
 11
-3027.999999999975
 21
-33.14999999997599
 31
0.0
  0
LINE
  5
D60
330
CB8
100
AcDbEntity
  8
Visible (ISO)
100
AcDbLine
 10
-3124.999999999975
 20
63.8500000000231
 30
0.0
 11
-3124.999999999975
 21
-30.1499999999769
 31
0.0
  0
ARC
  5
D61
330
CB8
100
AcDbEntity
  8
Visible (ISO)
100
AcDbCircle
 10
-1021.999999999956
 20
63.85000000002037
 30
0.0
 40
3.000000000000005
100
AcDbArc
 50
90.0
 51
180.0
  0
ARC
  5
D62
330
CB8
100
AcDbEntity
  8
Visible (ISO)
100
AcDbCircle
 10
-927.9999999999599
 20
63.85000000002037
 30
0.0
 40
3.000000000000005
100
AcDbArc
 50
0.0
 51
90.0
  0
LINE
  5
D63
330
CB8
100
AcDbEntity
  8
Visible (ISO)
100
AcDbLine
 10
-927.9999999999599
 20
66.85000000002037
 30
0.0
 11
-1021.999999999956
 21
66.85000000002037
 31
0.0
  0
ARC
  5
D64
330
CB8
100
AcDbEntity
  8
Visible (ISO)
100
AcDbCircle
 10
-1021.999999999956
 20
-30.14999999997963
 30
0.0
 40
2.999999999999987
100
AcDbArc
 50
180.0
 51
270.0
  0
ARC
  5
D65
330
CB8
100
AcDbEntity
  8
Visible (ISO)
100
AcDbCircle
 10
-927.9999999999599
 20
-30.14999999997963
 30
0.0
 40
3.000000000000005
100
AcDbArc
 50
270.0
 51
0.0
  0
LINE
  5
D66
330
CB8
100
AcDbEntity
  8
Visible (ISO)
100
AcDbLine
 10
-924.99999999996
 20
-30.14999999997963
 30
0.0
 11
-924.99999999996
 21
63.85000000002037
 31
0.0
  0
LINE
  5
D67
330
CB8
100
AcDbEntity
  8
Visible (ISO)
100
AcDbLine
 10
-1021.999999999956
 20
-33.14999999997872
 30
0.0
 11
-927.9999999999599
 21
-33.14999999997872
 31
0.0
  0
LINE
  5
D68
330
CB8
100
AcDbEntity
  8
Visible (ISO)
100
AcDbLine
 10
-1024.999999999956
 20
63.85000000002037
 30
0.0
 11
-1024.999999999956
 21
-30.14999999997963
 31
0.0
  0
ARC
  5
D69
330
CB8
100
AcDbEntity
  8
Visible (ISO)
100
AcDbCircle
 10
928.0000000000072
 20
63.85000000001946
 30
0.0
 40
3.000000000000006
100
AcDbArc
 50
90.0
 51
180.0
  0
ARC
  5
D6A
330
CB8
100
AcDbEntity
  8
Visible (ISO)
100
AcDbCircle
 10
1022.0
 20
63.85000000001946
 30
0.0
 40
3.000000000000006
100
AcDbArc
 50
0.0
 51
90.0
  0
LINE
  5
D6B
330
CB8
100
AcDbEntity
  8
Visible (ISO)
100
AcDbLine
 10
1022.0
 20
66.85000000001946
 30
0.0
 11
928.0000000000072
 21
66.85000000001946
 31
0.0
  0
ARC
  5
D6C
330
CB8
100
AcDbEntity
  8
Visible (ISO)
100
AcDbCircle
 10
928.0000000000072
 20
-30.14999999998054
 30
0.0
 40
2.999999999999988
100
AcDbArc
 50
180.0
 51
270.0
  0
ARC
  5
D6D
330
CB8
100
AcDbEntity
  8
Visible (ISO)
100
AcDbCircle
 10
1022.0
 20
-30.14999999998054
 30
0.0
 40
3.000000000000006
100
AcDbArc
 50
270.0
 51
0.0
  0
LINE
  5
D6E
330
CB8
100
AcDbEntity
  8
Visible (ISO)
100
AcDbLine
 10
1025.0
 20
-30.14999999998054
 30
0.0
 11
1025.0
 21
63.85000000001946
 31
0.0
  0
LINE
  5
D6F
330
CB8
100
AcDbEntity
  8
Visible (ISO)
100
AcDbLine
 10
928.0000000000072
 20
-33.14999999998054
 30
0.0
 11
1022.0
 21
-33.14999999998054
 31
0.0
  0
LINE
  5
D70
330
CB8
100
AcDbEntity
  8
Visible (ISO)
100
AcDbLine
 10
925.0000000000072
 20
63.85000000001946
 30
0.0
 11
925.0000000000072
 21
-30.14999999998054
 31
0.0
  0
ARC
  5
D71
330
CB8
100
AcDbEntity
  8
Visible (ISO)
100
AcDbCircle
 10
-3121.999999999975
 20
-1236.149999999977
 30
0.0
 40
3.000000000000007
100
AcDbArc
 50
90.0
 51
180.0
  0
ARC
  5
D72
330
CB8
100
AcDbEntity
  8
Visible (ISO)
100
AcDbCircle
 10
-3027.999999999975
 20
-1236.149999999977
 30
0.0
 40
3.000000000000007
100
AcDbArc
 50
0.0
 51
90.0
  0
LINE
  5
D73
330
CB8
100
AcDbEntity
  8
Visible (ISO)
100
AcDbLine
 10
-3027.999999999975
 20
-1233.149999999976
 30
0.0
 11
-3121.999999999975
 21
-1233.149999999976
 31
0.0
  0
ARC
  5
D74
330
CB8
100
AcDbEntity
  8
Visible (ISO)
100
AcDbCircle
 10
-3121.999999999975
 20
-1330.149999999977
 30
0.0
 40
2.999999999999989
100
AcDbArc
 50
180.0
 51
270.0
  0
ARC
  5
D75
330
CB8
100
AcDbEntity
  8
Visible (ISO)
100
AcDbCircle
 10
-3027.999999999975
 20
-1330.149999999977
 30
0.0
 40
3.000000000000007
100
AcDbArc
 50
270.0
 51
0.0
  0
LINE
  5
D76
330
CB8
100
AcDbEntity
  8
Visible (ISO)
100
AcDbLine
 10
-3024.999999999975
 20
-1330.149999999977
 30
0.0
 11
-3024.999999999975
 21
-1236.149999999977
 31
0.0
  0
LINE
  5
D77
330
CB8
100
AcDbEntity
  8
Visible (ISO)
100
AcDbLine
 10
-3121.999999999975
 20
-1333.149999999977
 30
0.0
 11
-3027.999999999975
 21
-1333.149999999977
 31
0.0
  0
LINE
  5
D78
330
CB8
100
AcDbEntity
  8
Visible (ISO)
100
AcDbLine
 10
-3124.999999999975
 20
-1236.149999999977
 30
0.0
 11
-3124.999999999975
 21
-1330.149999999977
 31
0.0
  0
ARC
  5
D79
330
CB8
100
AcDbEntity
  8
Visible (ISO)
100
AcDbCircle
 10
-1677.999999999974
 20
-1330.149999999978
 30
0.0
 40
3.000000000000006
100
AcDbArc
 50
270.0
 51
0.0
  0
ARC
  5
D7A
330
CB8
100
AcDbEntity
  8
Visible (ISO)
100
AcDbCircle
 10
-1771.999999999974
 20
-1330.149999999978
 30
0.0
 40
3.000000000000006
100
AcDbArc
 50
180.0
 51
270.0
  0
LINE
  5
D7B
330
CB8
100
AcDbEntity
  8
Visible (ISO)
100
AcDbLine
 10
-1771.999999999974
 20
-1333.149999999978
 30
0.0
 11
-1677.999999999974
 21
-1333.149999999978
 31
0.0
  0
ARC
  5
D7C
330
CB8
100
AcDbEntity
  8
Visible (ISO)
100
AcDbCircle
 10
-1677.999999999974
 20
-1236.149999999978
 30
0.0
 40
2.999999999999988
100
AcDbArc
 50
0.0
 51
90.0
  0
ARC
  5
D7D
330
CB8
100
AcDbEntity
  8
Visible (ISO)
100
AcDbCircle
 10
-1771.999999999974
 20
-1236.149999999978
 30
0.0
 40
3.000000000000006
100
AcDbArc
 50
90.0
 51
180.0
  0
LINE
  5
D7E
330
CB8
100
AcDbEntity
  8
Visible (ISO)
100
AcDbLine
 10
-1774.999999999978
 20
-1236.149999999978
 30
0.0
 11
-1774.999999999978
 21
-1330.149999999978
 31
0.0
  0
LINE
  5
D7F
330
CB8
100
AcDbEntity
  8
Visible (ISO)
100
AcDbLine
 10
-1677.999999999974
 20
-1233.149999999977
 30
0.0
 11
-1771.999999999974
 21
-1233.149999999977
 31
0.0
  0
LINE
  5
D80
330
CB8
100
AcDbEntity
  8
Visible (ISO)
100
AcDbLine
 10
-1674.999999999974
 20
-1330.149999999978
 30
0.0
 11
-1674.999999999974
 21
-1236.149999999978
 31
0.0
  0
ARC
  5
D81
330
CB8
100
AcDbEntity
  8
Visible (ISO)
100
AcDbCircle
 10
928.000000000029
 20
-1330.149999999979
 30
0.0
 40
3.000000000000007
100
AcDbArc
 50
180.0
 51
270.0
  0
ARC
  5
D82
330
CB8
100
AcDbEntity
  8
Visible (ISO)
100
AcDbCircle
 10
928.000000000029
 20
-1236.149999999978
 30
0.0
 40
3.000000000000007
100
AcDbArc
 50
90.0
 51
180.0
  0
LINE
  5
D83
330
CB8
100
AcDbEntity
  8
Visible (ISO)
100
AcDbLine
 10
925.0000000000291
 20
-1236.149999999978
 30
0.0
 11
925.0000000000291
 21
-1330.149999999979
 31
0.0
  0
ARC
  5
D84
330
CB8
100
AcDbEntity
  8
Visible (ISO)
100
AcDbCircle
 10
1022.000000000022
 20
-1330.149999999979
 30
0.0
 40
2.999999999999989
100
AcDbArc
 50
270.0
 51
0.0
  0
ARC
  5
D85
330
CB8
100
AcDbEntity
  8
Visible (ISO)
100
AcDbCircle
 10
1022.000000000022
 20
-1236.149999999978
 30
0.0
 40
3.000000000000007
100
AcDbArc
 50
0.0
 51
90.0
  0
LINE
  5
D86
330
CB8
100
AcDbEntity
  8
Visible (ISO)
100
AcDbLine
 10
1022.000000000022
 20
-1233.149999999978
 30
0.0
 11
928.000000000029
 21
-1233.149999999978
 31
0.0
  0
LINE
  5
D87
330
CB8
100
AcDbEntity
  8
Visible (ISO)
100
AcDbLine
 10
1025.000000000022
 20
-1330.149999999978
 30
0.0
 11
1025.000000000022
 21
-1236.149999999978
 31
0.0
  0
LINE
  5
D88
330
CB8
100
AcDbEntity
  8
Visible (ISO)
100
AcDbLine
 10
928.000000000029
 20
-1333.149999999978
 30
0.0
 11
1022.000000000022
 21
-1333.149999999978
 31
0.0
  0
ARC
  5
D89
330
CB8
100
AcDbEntity
  8
Visible (ISO)
100
AcDbCircle
 10
-327.9999999999782
 20
-1330.149999999979
 30
0.0
 40
3.000000000000006
100
AcDbArc
 50
270.0
 51
0.0
  0
ARC
  5
D8A
330
CB8
100
AcDbEntity
  8
Visible (ISO)
100
AcDbCircle
 10
-421.9999999999782
 20
-1330.149999999979
 30
0.0
 40
3.000000000000006
100
AcDbArc
 50
180.0
 51
270.0
  0
LINE
  5
D8B
330
CB8
100
AcDbEntity
  8
Visible (ISO)
100
AcDbLine
 10
-421.9999999999782
 20
-1333.149999999978
 30
0.0
 11
-327.9999999999782
 21
-1333.149999999978
 31
0.0
  0
ARC
  5
D8C
330
CB8
100
AcDbEntity
  8
Visible (ISO)
100
AcDbCircle
 10
-327.9999999999782
 20
-1236.149999999978
 30
0.0
 40
2.999999999999988
100
AcDbArc
 50
0.0
 51
90.0
  0
ARC
  5
D8D
330
CB8
100
AcDbEntity
  8
Visible (ISO)
100
AcDbCircle
 10
-421.9999999999782
 20
-1236.149999999978
 30
0.0
 40
3.000000000000006
100
AcDbArc
 50
90.0
 51
180.0
  0
LINE
  5
D8E
330
CB8
100
AcDbEntity
  8
Visible (ISO)
100
AcDbLine
 10
-424.9999999999781
 20
-1236.149999999978
 30
0.0
 11
-424.9999999999781
 21
-1330.149999999979
 31
0.0
  0
LINE
  5
D8F
330
CB8
100
AcDbEntity
  8
Visible (ISO)
100
AcDbLine
 10
-327.9999999999782
 20
-1233.149999999978
 30
0.0
 11
-421.9999999999782
 21
-1233.149999999978
 31
0.0
  0
LINE
  5
D90
330
CB8
100
AcDbEntity
  8
Visible (ISO)
100
AcDbLine
 10
-324.9999999999782
 20
-1330.149999999978
 30
0.0
 11
-324.9999999999782
 21
-1236.149999999978
 31
0.0
  0
ARC
  5
D91
330
CB8
100
AcDbEntity
  8
Visible (ISO)
100
AcDbCircle
 10
-421.9999999999782
 20
-2536.150000000157
 30
0.0
 40
3.000000000000007
100
AcDbArc
 50
90.0
 51
180.0
  0
ARC
  5
D92
330
CB8
100
AcDbEntity
  8
Visible (ISO)
100
AcDbCircle
 10
-327.9999999999782
 20
-2536.150000000157
 30
0.0
 40
3.000000000000007
100
AcDbArc
 50
0.0
 51
90.0
  0
LINE
  5
D93
330
CB8
100
AcDbEntity
  8
Visible (ISO)
100
AcDbLine
 10
-327.9999999999782
 20
-2533.150000000156
 30
0.0
 11
-421.9999999999782
 21
-2533.150000000156
 31
0.0
  0
ARC
  5
D94
330
CB8
100
AcDbEntity
  8
Visible (ISO)
100
AcDbCircle
 10
-421.9999999999782
 20
-2630.150000000157
 30
0.0
 40
2.999999999999989
100
AcDbArc
 50
180.0
 51
270.0
  0
ARC
  5
D95
330
CB8
100
AcDbEntity
  8
Visible (ISO)
100
AcDbCircle
 10
-327.9999999999782
 20
-2630.150000000157
 30
0.0
 40
3.000000000000007
100
AcDbArc
 50
270.0
 51
0.0
  0
LINE
  5
D96
330
CB8
100
AcDbEntity
  8
Visible (ISO)
100
AcDbLine
 10
-324.9999999999782
 20
-2630.150000000157
 30
0.0
 11
-324.9999999999782
 21
-2536.150000000157
 31
0.0
  0
LINE
  5
D97
330
CB8
100
AcDbEntity
  8
Visible (ISO)
100
AcDbLine
 10
-421.9999999999782
 20
-2633.150000000157
 30
0.0
 11
-327.9999999999782
 21
-2633.150000000157
 31
0.0
  0
LINE
  5
D98
330
CB8
100
AcDbEntity
  8
Visible (ISO)
100
AcDbLine
 10
-424.9999999999781
 20
-2536.150000000157
 30
0.0
 11
-424.9999999999781
 21
-2630.150000000157
 31
0.0
  0
ARC
  5
D99
330
CB8
100
AcDbEntity
  8
Visible (ISO)
100
AcDbCircle
 10
-1771.999999999971
 20
-2536.150000000157
 30
0.0
 40
3.000000000000007
100
AcDbArc
 50
90.0
 51
180.0
  0
ARC
  5
D9A
330
CB8
100
AcDbEntity
  8
Visible (ISO)
100
AcDbCircle
 10
-1677.999999999971
 20
-2536.150000000157
 30
0.0
 40
3.000000000000007
100
AcDbArc
 50
0.0
 51
90.0
  0
LINE
  5
D9B
330
CB8
100
AcDbEntity
  8
Visible (ISO)
100
AcDbLine
 10
-1677.999999999971
 20
-2533.150000000156
 30
0.0
 11
-1771.999999999971
 21
-2533.150000000156
 31
0.0
  0
ARC
  5
D9C
330
CB8
100
AcDbEntity
  8
Visible (ISO)
100
AcDbCircle
 10
-1771.999999999971
 20
-2630.150000000157
 30
0.0
 40
2.999999999999989
100
AcDbArc
 50
180.0
 51
270.0
  0
ARC
  5
D9D
330
CB8
100
AcDbEntity
  8
Visible (ISO)
100
AcDbCircle
 10
-1677.999999999971
 20
-2630.150000000157
 30
0.0
 40
3.000000000000007
100
AcDbArc
 50
270.0
 51
0.0
  0
LINE
  5
D9E
330
CB8
100
AcDbEntity
  8
Visible (ISO)
100
AcDbLine
 10
-1674.999999999971
 20
-2630.150000000157
 30
0.0
 11
-1674.999999999971
 21
-2536.150000000157
 31
0.0
  0
LINE
  5
D9F
330
CB8
100
AcDbEntity
  8
Visible (ISO)
100
AcDbLine
 10
-1771.999999999971
 20
-2633.150000000157
 30
0.0
 11
-1677.999999999971
 21
-2633.150000000157
 31
0.0
  0
LINE
  5
DA0
330
CB8
100
AcDbEntity
  8
Visible (ISO)
100
AcDbLine
 10
-1774.999999999974
 20
-2536.150000000157
 30
0.0
 11
-1774.999999999974
 21
-2630.150000000157
 31
0.0
  0
ARC
  5
DA1
330
CB8
100
AcDbEntity
  8
Visible (ISO)
100
AcDbCircle
 10
-153.9999999999854
 20
1237.850000000006
 30
0.0
 40
4.000000000000087
100
AcDbArc
 50
0.0
 51
90.0
  0
ARC
  5
DA2
330
CB8
100
AcDbEntity
  8
Visible (ISO)
100
AcDbCircle
 10
-153.9999999999854
 20
995.8500000000086
 30
0.0
 40
3.999999999999945
100
AcDbArc
 50
270.0
 51
0.0
  0
ARC
  5
DA3
330
CB8
100
AcDbEntity
  8
Visible (ISO)
100
AcDbCircle
 10
-1145.999999999978
 20
1237.850000000008
 30
0.0
 40
3.999999999999661
100
AcDbArc
 50
90.0
 51
180.0
  0
ARC
  5
DA4
330
CB8
100
AcDbEntity
  8
Visible (ISO)
100
AcDbCircle
 10
-1145.999999999978
 20
995.8500000000103
 30
0.0
 40
4.000000000000265
100
AcDbArc
 50
180.0
 51
270.0
  0
LINE
  5
DA5
330
CB8
100
AcDbEntity
  8
Visible (ISO)
100
AcDbLine
 10
-149.9999999999927
 20
1237.850000000006
 30
0.0
 11
-149.9999999999927
 21
995.8500000000086
 31
0.0
  0
LINE
  5
DA6
330
CB8
100
AcDbEntity
  8
Visible (ISO)
100
AcDbLine
 10
-1145.999999999978
 20
1241.850000000007
 30
0.0
 11
-153.9999999999854
 21
1241.850000000007
 31
0.0
  0
LINE
  5
DA7
330
CB8
100
AcDbEntity
  8
Visible (ISO)
100
AcDbLine
 10
-1149.999999999978
 20
995.8500000000103
 30
0.0
 11
-1149.999999999978
 21
1237.850000000008
 31
0.0
  0
LINE
  5
DA8
330
CB8
100
AcDbEntity
  8
Visible (ISO)
100
AcDbLine
 10
-153.9999999999854
 20
991.8500000000094
 30
0.0
 11
-1145.999999999978
 21
991.8500000000094
 31
0.0
  0
LINE
  5
DA9
330
CB8
100
AcDbEntity
  8
Visible (ISO)
100
AcDbLine
 10
-1134.999999999974
 20
1226.850000000009
 30
0.0
 11
-164.9999999999927
 21
1226.850000000009
 31
0.0
  0
LINE
  5
DAA
330
CB8
100
AcDbEntity
  8
Visible (ISO)
100
AcDbLine
 10
-1134.999999999974
 20
1006.850000000013
 30
0.0
 11
-1134.999999999974
 21
1226.850000000009
 31
0.0
  0
LINE
  5
DAB
330
CB8
100
AcDbEntity
  8
Visible (ISO)
100
AcDbLine
 10
-164.9999999999927
 20
1226.850000000009
 30
0.0
 11
-164.9999999999927
 21
1006.850000000013
 31
0.0
  0
LINE
  5
DAC
330
CB8
100
AcDbEntity
  8
Visible (ISO)
100
AcDbLine
 10
-164.9999999999927
 20
1006.850000000013
 30
0.0
 11
-1134.999999999974
 21
1006.850000000013
 31
0.0
  0
ARC
  5
DAD
330
CB8
100
AcDbEntity
  8
Visible (ISO)
100
AcDbCircle
 10
846.0000000000073
 20
1237.849999999613
 30
0.0
 40
4.000000000000075
100
AcDbArc
 50
0.0
 51
90.0
  0
ARC
  5
DAE
330
CB8
100
AcDbEntity
  8
Visible (ISO)
100
AcDbCircle
 10
846.0000000000073
 20
995.8499999996174
 30
0.0
 40
3.999999999999934
100
AcDbArc
 50
270.0
 51
0.0
  0
ARC
  5
DAF
330
CB8
100
AcDbEntity
  8
Visible (ISO)
100
AcDbCircle
 10
-145.9999999999854
 20
1237.849999999613
 30
0.0
 40
3.999999999999649
100
AcDbArc
 50
90.0
 51
180.0
  0
ARC
  5
DB0
330
CB8
100
AcDbEntity
  8
Visible (ISO)
100
AcDbCircle
 10
-145.9999999999854
 20
995.8499999996174
 30
0.0
 40
4.000000000000253
100
AcDbArc
 50
180.0
 51
270.0
  0
LINE
  5
DB1
330
CB8
100
AcDbEntity
  8
Visible (ISO)
100
AcDbLine
 10
-145.9999999999854
 20
1241.849999999613
 30
0.0
 11
846.0000000000073
 21
1241.849999999615
 31
0.0
  0
LINE
  5
DB2
330
CB8
100
AcDbEntity
  8
Visible (ISO)
100
AcDbLine
 10
846.0000000000073
 20
991.8499999996184
 30
0.0
 11
-145.9999999999854
 21
991.8499999996166
 31
0.0
  0
LINE
  5
DB3
330
CB8
100
AcDbEntity
  8
Visible (ISO)
100
AcDbLine
 10
-134.9999999999854
 20
1226.849999999616
 30
0.0
 11
835.0
 21
1226.849999999616
 31
0.0
  0
LINE
  5
DB4
330
CB8
100
AcDbEntity
  8
Visible (ISO)
100
AcDbLine
 10
-134.9999999999854
 20
1006.84999999962
 30
0.0
 11
-134.9999999999854
 21
1099.99999999962
 31
0.0
  0
LINE
  5
DB5
330
CB8
100
AcDbEntity
  8
Visible (ISO)
100
AcDbLine
 10
-134.9999999999854
 20
1133.69999999962
 30
0.0
 11
-134.9999999999854
 21
1226.849999999616
 31
0.0
  0
LINE
  5
DB6
330
CB8
100
AcDbEntity
  8
Visible (ISO)
100
AcDbLine
 10
835.0
 20
1226.849999999616
 30
0.0
 11
835.0
 21
1133.69999999962
 31
0.0
  0
LINE
  5
DB7
330
CB8
100
AcDbEntity
  8
Visible (ISO)
100
AcDbLine
 10
835.0
 20
1099.99999999962
 30
0.0
 11
835.0
 21
1006.84999999962
 31
0.0
  0
LINE
  5
DB8
330
CB8
100
AcDbEntity
  8
Visible (ISO)
100
AcDbLine
 10
835.0
 20
1006.84999999962
 30
0.0
 11
-134.9999999999854
 21
1006.84999999962
 31
0.0
  0
ARC
  5
DB9
330
CB8
100
AcDbEntity
  8
Visible (ISO)
100
AcDbCircle
 10
1604.0
 20
987.8499999994819
 30
0.0
 40
4.000000000000085
100
AcDbArc
 50
90.0
 51
180.0
  0
ARC
  5
DBA
330
CB8
100
AcDbEntity
  8
Visible (ISO)
100
AcDbCircle
 10
1846.0
 20
987.8499999994838
 30
0.0
 40
3.999999999999942
100
AcDbArc
 50
0.0
 51
90.0
  0
ARC
  5
DBB
330
CB8
100
AcDbEntity
  8
Visible (ISO)
100
AcDbCircle
 10
1604.0
 20
-4.150000000504405
 30
0.0
 40
3.999999999999659
100
AcDbArc
 50
180.0
 51
270.0
  0
ARC
  5
DBC
330
CB8
100
AcDbEntity
  8
Visible (ISO)
100
AcDbCircle
 10
1846.0
 20
-4.150000000504405
 30
0.0
 40
4.000000000000262
100
AcDbArc
 50
270.0
 51
0.0
  0
LINE
  5
DBD
330
CB8
100
AcDbEntity
  8
Visible (ISO)
100
AcDbLine
 10
1600.0
 20
-4.150000000504405
 30
0.0
 11
1600.0
 21
987.8499999994819
 31
0.0
  0
LINE
  5
DBE
330
CB8
100
AcDbEntity
  8
Visible (ISO)
100
AcDbLine
 10
1846.0
 20
-8.150000000504405
 30
0.0
 11
1604.0
 21
-8.150000000504405
 31
0.0
  0
LINE
  5
DBF
330
CB8
100
AcDbEntity
  8
Visible (ISO)
100
AcDbLine
 10
1850.0
 20
987.8499999994838
 30
0.0
 11
1850.0
 21
-4.150000000504405
 31
0.0
  0
LINE
  5
DC0
330
CB8
100
AcDbEntity
  8
Visible (ISO)
100
AcDbLine
 10
1615.0
 20
6.849999999498322
 30
0.0
 11
1615.0
 21
976.8499999994865
 31
0.0
  0
LINE
  5
DC1
330
CB8
100
AcDbEntity
  8
Visible (ISO)
100
AcDbLine
 10
1835.0
 20
6.849999999498322
 30
0.0
 11
1615.0
 21
6.849999999498322
 31
0.0
  0
LINE
  5
DC2
330
CB8
100
AcDbEntity
  8
Visible (ISO)
100
AcDbLine
 10
1615.0
 20
976.8499999994865
 30
0.0
 11
1835.0
 21
976.8499999994865
 31
0.0
  0
LINE
  5
DC3
330
CB8
100
AcDbEntity
  8
Visible (ISO)
100
AcDbLine
 10
1835.0
 20
976.8499999994865
 30
0.0
 11
1835.0
 21
6.849999999498322
 31
0.0
  0
ARC
  5
DC4
330
CB8
100
AcDbEntity
  8
Visible (ISO)
100
AcDbCircle
 10
-1145.999999999971
 20
2237.849999999604
 30
0.0
 40
4.000000000000083
100
AcDbArc
 50
90.0
 51
180.0
  0
ARC
  5
DC5
330
CB8
100
AcDbEntity
  8
Visible (ISO)
100
AcDbCircle
 10
-903.9999999999817
 20
2237.849999999605
 30
0.0
 40
3.999999999999941
100
AcDbArc
 50
0.0
 51
90.0
  0
ARC
  5
DC6
330
CB8
100
AcDbEntity
  8
Visible (ISO)
100
AcDbCircle
 10
-1145.999999999978
 20
1245.849999999618
 30
0.0
 40
3.999999999999657
100
AcDbArc
 50
180.0
 51
270.0
  0
ARC
  5
DC7
330
CB8
100
AcDbEntity
  8
Visible (ISO)
100
AcDbCircle
 10
-903.9999999999817
 20
1245.849999999618
 30
0.0
 40
4.000000000000262
100
AcDbArc
 50
270.0
 51
0.0
  0
LINE
  5
DC8
330
CB8
100
AcDbEntity
  8
Visible (ISO)
100
AcDbLine
 10
-1145.999999999971
 20
2241.849999999606
 30
0.0
 11
-903.9999999999817
 21
2241.849999999606
 31
0.0
  0
LINE
  5
DC9
330
CB8
100
AcDbEntity
  8
Visible (ISO)
100
AcDbLine
 10
-1149.999999999978
 20
1245.849999999618
 30
0.0
 11
-1149.999999999978
 21
2237.849999999604
 31
0.0
  0
LINE
  5
DCA
330
CB8
100
AcDbEntity
  8
Visible (ISO)
100
AcDbLine
 10
-899.9999999999781
 20
2237.849999999605
 30
0.0
 11
-899.9999999999781
 21
1245.849999999618
 31
0.0
  0
LINE
  5
DCB
330
CB8
100
AcDbEntity
  8
Visible (ISO)
100
AcDbLine
 10
-1134.999999999974
 20
1256.84999999962
 30
0.0
 11
-1134.999999999974
 21
2226.849999999609
 31
0.0
  0
LINE
  5
DCC
330
CB8
100
AcDbEntity
  8
Visible (ISO)
100
AcDbLine
 10
-914.9999999999781
 20
1256.84999999962
 30
0.0
 11
-1134.999999999974
 21
1256.84999999962
 31
0.0
  0
LINE
  5
DCD
330
CB8
100
AcDbEntity
  8
Visible (ISO)
100
AcDbLine
 10
-1134.999999999974
 20
2226.849999999609
 30
0.0
 11
-914.9999999999781
 21
2226.849999999609
 31
0.0
  0
LINE
  5
DCE
330
CB8
100
AcDbEntity
  8
Visible (ISO)
100
AcDbLine
 10
-914.9999999999781
 20
2226.849999999609
 30
0.0
 11
-914.9999999999781
 21
1256.84999999962
 31
0.0
  0
ARC
  5
DCF
330
CB8
100
AcDbEntity
  8
Visible (ISO)
100
AcDbCircle
 10
854.0000000000073
 20
995.8500000000103
 30
0.0
 40
4.000000000000089
100
AcDbArc
 50
180.0
 51
270.0
  0
ARC
  5
DD0
330
CB8
100
AcDbEntity
  8
Visible (ISO)
100
AcDbCircle
 10
854.0000000000073
 20
1237.850000000008
 30
0.0
 40
3.999999999999947
100
AcDbArc
 50
90.0
 51
180.0
  0
ARC
  5
DD1
330
CB8
100
AcDbEntity
  8
Visible (ISO)
100
AcDbCircle
 10
1846.0
 20
995.8500000000103
 30
0.0
 40
3.999999999999662
100
AcDbArc
 50
270.0
 51
0.0
  0
ARC
  5
DD2
330
CB8
100
AcDbEntity
  8
Visible (ISO)
100
AcDbCircle
 10
1846.0
 20
1237.850000000008
 30
0.0
 40
4.000000000000266
100
AcDbArc
 50
0.0
 51
90.0
  0
LINE
  5
DD3
330
CB8
100
AcDbEntity
  8
Visible (ISO)
100
AcDbLine
 10
850.0000000000072
 20
995.8500000000103
 30
0.0
 11
850.0000000000072
 21
1237.850000000008
 31
0.0
  0
LINE
  5
DD4
330
CB8
100
AcDbEntity
  8
Visible (ISO)
100
AcDbLine
 10
1846.0
 20
991.8500000000113
 30
0.0
 11
854.0000000000073
 21
991.8500000000113
 31
0.0
  0
LINE
  5
DD5
330
CB8
100
AcDbEntity
  8
Visible (ISO)
100
AcDbLine
 10
1849.999999999993
 20
1237.850000000008
 30
0.0
 11
1849.999999999993
 21
995.8500000000103
 31
0.0
  0
LINE
  5
DD6
330
CB8
100
AcDbEntity
  8
Visible (ISO)
100
AcDbLine
 10
854.0000000000073
 20
1241.850000000007
 30
0.0
 11
1846.0
 21
1241.850000000009
 31
0.0
  0
LINE
  5
DD7
330
CB8
100
AcDbEntity
  8
Visible (ISO)
100
AcDbLine
 10
1834.999999999993
 20
1006.850000000013
 30
0.0
 11
865.0000000000073
 21
1006.850000000013
 31
0.0
  0
LINE
  5
DD8
330
CB8
100
AcDbEntity
  8
Visible (ISO)
100
AcDbLine
 10
1834.999999999993
 20
1226.850000000009
 30
0.0
 11
1834.999999999993
 21
1006.850000000013
 31
0.0
  0
LINE
  5
DD9
330
CB8
100
AcDbEntity
  8
Visible (ISO)
100
AcDbLine
 10
865.0000000000073
 20
1006.850000000013
 30
0.0
 11
865.0000000000073
 21
1226.850000000009
 31
0.0
  0
LINE
  5
DDA
330
CB8
100
AcDbEntity
  8
Visible (ISO)
100
AcDbLine
 10
865.0000000000073
 20
1226.850000000009
 30
0.0
 11
1834.999999999993
 21
1226.850000000009
 31
0.0
  0
ARC
  5
DDB
330
CB8
100
AcDbEntity
  8
Visible (ISO)
100
AcDbCircle
 10
2596.000000000015
 20
2987.849999999615
 30
0.0
 40
4.000000000000109
100
AcDbArc
 50
0.0
 51
90.0
  0
ARC
  5
DDC
330
CB8
100
AcDbEntity
  8
Visible (ISO)
100
AcDbCircle
 10
2596.000000000015
 20
2745.849999999617
 30
0.0
 40
3.999999999999967
100
AcDbArc
 50
270.0
 51
0.0
  0
ARC
  5
DDD
330
CB8
100
AcDbEntity
  8
Visible (ISO)
100
AcDbCircle
 10
1604.000000000022
 20
2987.849999999615
 30
0.0
 40
3.999999999999683
100
AcDbArc
 50
90.0
 51
180.0
  0
ARC
  5
DDE
330
CB8
100
AcDbEntity
  8
Visible (ISO)
100
AcDbCircle
 10
1604.000000000022
 20
2745.849999999617
 30
0.0
 40
4.000000000000286
100
AcDbArc
 50
180.0
 51
270.0
  0
LINE
  5
DDF
330
CB8
100
AcDbEntity
  8
Visible (ISO)
100
AcDbLine
 10
2600.000000000015
 20
2987.849999999615
 30
0.0
 11
2600.000000000015
 21
2745.849999999617
 31
0.0
  0
LINE
  5
DE0
330
CB8
100
AcDbEntity
  8
Visible (ISO)
100
AcDbLine
 10
1604.000000000022
 20
2991.849999999615
 30
0.0
 11
2596.000000000015
 21
2991.849999999615
 31
0.0
  0
LINE
  5
DE1
330
CB8
100
AcDbEntity
  8
Visible (ISO)
100
AcDbLine
 10
1600.000000000014
 20
2745.849999999617
 30
0.0
 11
1600.000000000014
 21
2987.849999999615
 31
0.0
  0
LINE
  5
DE2
330
CB8
100
AcDbEntity
  8
Visible (ISO)
100
AcDbLine
 10
2596.000000000015
 20
2741.849999999617
 30
0.0
 11
1604.000000000022
 21
2741.849999999617
 31
0.0
  0
LINE
  5
DE3
330
CB8
100
AcDbEntity
  8
Visible (ISO)
100
AcDbLine
 10
1615.000000000014
 20
2976.849999999619
 30
0.0
 11
2585.000000000015
 21
2976.849999999619
 31
0.0
  0
LINE
  5
DE4
330
CB8
100
AcDbEntity
  8
Visible (ISO)
100
AcDbLine
 10
1615.000000000014
 20
2756.849999999618
 30
0.0
 11
1615.000000000014
 21
2976.849999999619
 31
0.0
  0
LINE
  5
DE5
330
CB8
100
AcDbEntity
  8
Visible (ISO)
100
AcDbLine
 10
2585.000000000015
 20
2976.849999999619
 30
0.0
 11
2585.000000000015
 21
2756.849999999618
 31
0.0
  0
LINE
  5
DE6
330
CB8
100
AcDbEntity
  8
Visible (ISO)
100
AcDbLine
 10
2585.000000000015
 20
2756.849999999618
 30
0.0
 11
1615.000000000014
 21
2756.849999999618
 31
0.0
  0
ARC
  5
DE7
330
CB8
100
AcDbEntity
  8
Visible (ISO)
100
AcDbCircle
 10
1596.000000000015
 20
2987.849999999617
 30
0.0
 40
4.000000000000127
100
AcDbArc
 50
0.0
 51
90.0
  0
ARC
  5
DE8
330
CB8
100
AcDbEntity
  8
Visible (ISO)
100
AcDbCircle
 10
1596.000000000015
 20
2745.849999999619
 30
0.0
 40
3.999999999999985
100
AcDbArc
 50
270.0
 51
0.0
  0
ARC
  5
DE9
330
CB8
100
AcDbEntity
  8
Visible (ISO)
100
AcDbCircle
 10
604.0000000000218
 20
2987.849999999617
 30
0.0
 40
3.999999999999701
100
AcDbArc
 50
90.0
 51
180.0
  0
ARC
  5
DEA
330
CB8
100
AcDbEntity
  8
Visible (ISO)
100
AcDbCircle
 10
604.0000000000218
 20
2745.849999999619
 30
0.0
 40
4.000000000000305
100
AcDbArc
 50
180.0
 51
270.0
  0
LINE
  5
DEB
330
CB8
100
AcDbEntity
  8
Visible (ISO)
100
AcDbLine
 10
1600.000000000007
 20
2987.849999999617
 30
0.0
 11
1600.000000000007
 21
2745.849999999619
 31
0.0
  0
LINE
  5
DEC
330
CB8
100
AcDbEntity
  8
Visible (ISO)
100
AcDbLine
 10
604.0000000000218
 20
2991.849999999617
 30
0.0
 11
1596.000000000015
 21
2991.849999999617
 31
0.0
  0
LINE
  5
DED
330
CB8
100
AcDbEntity
  8
Visible (ISO)
100
AcDbLine
 10
600.0000000000218
 20
2745.849999999619
 30
0.0
 11
600.0000000000218
 21
2987.849999999617
 31
0.0
  0
LINE
  5
DEE
330
CB8
100
AcDbEntity
  8
Visible (ISO)
100
AcDbLine
 10
1596.000000000015
 20
2741.849999999619
 30
0.0
 11
604.0000000000218
 21
2741.849999999619
 31
0.0
  0
LINE
  5
DEF
330
CB8
100
AcDbEntity
  8
Visible (ISO)
100
AcDbLine
 10
615.0000000000218
 20
2976.84999999962
 30
0.0
 11
1585.000000000007
 21
2976.84999999962
 31
0.0
  0
LINE
  5
DF0
330
CB8
100
AcDbEntity
  8
Visible (ISO)
100
AcDbLine
 10
615.0000000000218
 20
2756.84999999962
 30
0.0
 11
615.0000000000218
 21
2976.84999999962
 31
0.0
  0
LINE
  5
DF1
330
CB8
100
AcDbEntity
  8
Visible (ISO)
100
AcDbLine
 10
1585.000000000007
 20
2976.84999999962
 30
0.0
 11
1585.000000000007
 21
2756.84999999962
 31
0.0
  0
LINE
  5
DF2
330
CB8
100
AcDbEntity
  8
Visible (ISO)
100
AcDbLine
 10
1585.000000000007
 20
2756.84999999962
 30
0.0
 11
615.0000000000218
 21
2756.84999999962
 31
0.0
  0
LINE
  5
DF3
330
CB8
100
AcDbEntity
  8
Visible (ISO)
100
AcDbLine
 10
-1134.999999999974
 20
1226.850000000009
 30
0.0
 11
-1134.999999999974
 21
1006.850000000011
 31
0.0
  0
LINE
  5
DF4
330
CB8
100
AcDbEntity
  8
Visible (ISO)
100
AcDbLine
 10
-1134.999999999974
 20
1006.850000000011
 30
0.0
 11
-164.9999999999927
 21
1006.850000000011
 31
0.0
  0
LINE
  5
DF5
330
CB8
100
AcDbEntity
  8
Visible (ISO)
100
AcDbLine
 10
-164.9999999999927
 20
1226.850000000007
 30
0.0
 11
-1134.999999999974
 21
1226.850000000009
 31
0.0
  0
LINE
  5
DF6
330
CB8
100
AcDbEntity
  8
Visible (ISO)
100
AcDbLine
 10
-164.9999999999927
 20
1006.850000000011
 30
0.0
 11
-164.9999999999927
 21
1226.850000000007
 31
0.0
  0
LINE
  5
DF7
330
CB8
100
AcDbEntity
  8
Visible (ISO)
100
AcDbLine
 10
-134.9999999999854
 20
1226.849999999618
 30
0.0
 11
-134.9999999999854
 21
1133.69999999962
 31
0.0
  0
LINE
  5
DF8
330
CB8
100
AcDbEntity
  8
Visible (ISO)
100
AcDbLine
 10
-134.9999999999854
 20
1099.99999999962
 30
0.0
 11
-134.9999999999854
 21
1006.84999999962
 31
0.0
  0
LINE
  5
DF9
330
CB8
100
AcDbEntity
  8
Visible (ISO)
100
AcDbLine
 10
-134.9999999999854
 20
1006.84999999962
 30
0.0
 11
835.0
 21
1006.84999999962
 31
0.0
  0
LINE
  5
DFA
330
CB8
100
AcDbEntity
  8
Visible (ISO)
100
AcDbLine
 10
835.0
 20
1226.849999999618
 30
0.0
 11
-134.9999999999854
 21
1226.849999999618
 31
0.0
  0
LINE
  5
DFB
330
CB8
100
AcDbEntity
  8
Visible (ISO)
100
AcDbLine
 10
835.0
 20
1006.84999999962
 30
0.0
 11
835.0
 21
1099.99999999962
 31
0.0
  0
LINE
  5
DFC
330
CB8
100
AcDbEntity
  8
Visible (ISO)
100
AcDbLine
 10
835.0
 20
1133.69999999962
 30
0.0
 11
835.0
 21
1226.849999999618
 31
0.0
  0
LINE
  5
DFD
330
CB8
100
AcDbEntity
  8
Visible (ISO)
100
AcDbLine
 10
1615.0
 20
6.849999999496503
 30
0.0
 11
1835.0
 21
6.849999999496503
 31
0.0
  0
LINE
  5
DFE
330
CB8
100
AcDbEntity
  8
Visible (ISO)
100
AcDbLine
 10
1835.0
 20
6.849999999496503
 30
0.0
 11
1835.0
 21
976.8499999994883
 31
0.0
  0
LINE
  5
DFF
330
CB8
100
AcDbEntity
  8
Visible (ISO)
100
AcDbLine
 10
1615.0
 20
976.8499999994883
 30
0.0
 11
1615.0
 21
6.849999999496503
 31
0.0
  0
LINE
  5
E00
330
CB8
100
AcDbEntity
  8
Visible (ISO)
100
AcDbLine
 10
1835.0
 20
976.8499999994883
 30
0.0
 11
1615.0
 21
976.8499999994883
 31
0.0
  0
LINE
  5
E01
330
CB8
100
AcDbEntity
  8
Visible (ISO)
100
AcDbLine
 10
-1134.999999999974
 20
1256.849999999618
 30
0.0
 11
-914.9999999999781
 21
1256.849999999618
 31
0.0
  0
LINE
  5
E02
330
CB8
100
AcDbEntity
  8
Visible (ISO)
100
AcDbLine
 10
-914.9999999999781
 20
1256.849999999618
 30
0.0
 11
-914.9999999999781
 21
2226.849999999611
 31
0.0
  0
LINE
  5
E03
330
CB8
100
AcDbEntity
  8
Visible (ISO)
100
AcDbLine
 10
-1134.999999999974
 20
2226.849999999611
 30
0.0
 11
-1134.999999999974
 21
1256.849999999618
 31
0.0
  0
LINE
  5
E04
330
CB8
100
AcDbEntity
  8
Visible (ISO)
100
AcDbLine
 10
-914.9999999999781
 20
2226.849999999611
 30
0.0
 11
-1134.999999999974
 21
2226.849999999611
 31
0.0
  0
LINE
  5
E05
330
CB8
100
AcDbEntity
  8
Visible (ISO)
100
AcDbLine
 10
1835.0
 20
1006.850000000013
 30
0.0
 11
1835.0
 21
1226.850000000011
 31
0.0
  0
LINE
  5
E06
330
CB8
100
AcDbEntity
  8
Visible (ISO)
100
AcDbLine
 10
1835.0
 20
1226.850000000011
 30
0.0
 11
865.0
 21
1226.850000000011
 31
0.0
  0
LINE
  5
E07
330
CB8
100
AcDbEntity
  8
Visible (ISO)
100
AcDbLine
 10
865.0
 20
1006.850000000013
 30
0.0
 11
1835.0
 21
1006.850000000013
 31
0.0
  0
LINE
  5
E08
330
CB8
100
AcDbEntity
  8
Visible (ISO)
100
AcDbLine
 10
865.0
 20
1226.850000000011
 30
0.0
 11
865.0
 21
1006.850000000013
 31
0.0
  0
LINE
  5
E09
330
CB8
100
AcDbEntity
  8
Visible (ISO)
100
AcDbLine
 10
1615.000000000014
 20
2976.84999999962
 30
0.0
 11
1615.000000000014
 21
2756.849999999618
 31
0.0
  0
LINE
  5
E0A
330
CB8
100
AcDbEntity
  8
Visible (ISO)
100
AcDbLine
 10
1615.000000000014
 20
2756.849999999618
 30
0.0
 11
2585.000000000015
 21
2756.849999999618
 31
0.0
  0
LINE
  5
E0B
330
CB8
100
AcDbEntity
  8
Visible (ISO)
100
AcDbLine
 10
2585.000000000015
 20
2976.84999999962
 30
0.0
 11
1615.000000000014
 21
2976.84999999962
 31
0.0
  0
LINE
  5
E0C
330
CB8
100
AcDbEntity
  8
Visible (ISO)
100
AcDbLine
 10
2585.000000000015
 20
2756.849999999618
 30
0.0
 11
2585.000000000015
 21
2976.84999999962
 31
0.0
  0
LINE
  5
E0D
330
CB8
100
AcDbEntity
  8
Visible (ISO)
100
AcDbLine
 10
615.0000000000146
 20
2976.84999999962
 30
0.0
 11
615.0000000000146
 21
2756.849999999618
 31
0.0
  0
LINE
  5
E0E
330
CB8
100
AcDbEntity
  8
Visible (ISO)
100
AcDbLine
 10
615.0000000000146
 20
2756.849999999618
 30
0.0
 11
1585.000000000014
 21
2756.849999999618
 31
0.0
  0
LINE
  5
E0F
330
CB8
100
AcDbEntity
  8
Visible (ISO)
100
AcDbLine
 10
1585.000000000014
 20
2976.84999999962
 30
0.0
 11
615.0000000000146
 21
2976.84999999962
 31
0.0
  0
LINE
  5
E10
330
CB8
100
AcDbEntity
  8
Visible (ISO)
100
AcDbLine
 10
1585.000000000014
 20
2756.849999999618
 30
0.0
 11
1585.000000000014
 21
2976.84999999962
 31
0.0
  0
LINE
  5
E11
330
CB8
100
AcDbEntity
  8
Visible (ISO)
100
AcDbLine
 10
850.0
 20
1099.999999999891
 30
0.0
 11
-149.9999999999854
 21
1099.999999999891
 31
0.0
  0
LINE
  5
E12
330
CB8
100
AcDbEntity
  8
Visible (ISO)
100
AcDbLine
 10
850.0
 20
1133.69999999989
 30
0.0
 11
-149.9999999999854
 21
1133.69999999989
 31
0.0
  0
LINE
  5
E13
330
CB8
100
AcDbEntity
  8
Visible (ISO)
100
AcDbLine
 10
-3058.149999999973
 20
-38.14999999999782
 30
0.0
 11
-3058.149999999973
 21
-1228.149999999997
 31
0.0
  0
LINE
  5
E14
330
CB8
100
AcDbEntity
  8
Visible (ISO)
100
AcDbLine
 10
-3091.849999999977
 20
-38.14999999999782
 30
0.0
 11
-3091.849999999977
 21
-1228.149999999997
 31
0.0
  0
LINE
  5
E15
330
CB8
100
AcDbEntity
  8
Visible (ISO)
100
AcDbLine
 10
991.8499999999985
 20
-38.14999999999964
 30
0.0
 11
991.8499999999985
 21
-1228.149999999999
 31
0.0
  0
LINE
  5
E16
330
CB8
100
AcDbEntity
  8
Visible (ISO)
100
AcDbLine
 10
958.1500000000014
 20
-38.14999999999964
 30
0.0
 11
958.1500000000014
 21
-1228.149999999999
 31
0.0
  0
LINE
  5
E17
330
CB8
100
AcDbEntity
  8
Visible (ISO)
100
AcDbLine
 10
-1708.149999999969
 20
-1338.150000000175
 30
0.0
 11
-1708.149999999969
 21
-2528.150000000174
 31
0.0
  0
LINE
  5
E18
330
CB8
100
AcDbEntity
  8
Visible (ISO)
100
AcDbLine
 10
-1741.849999999973
 20
-1338.150000000174
 30
0.0
 11
-1741.849999999973
 21
-2528.150000000174
 31
0.0
  0
LINE
  5
E19
330
CB8
100
AcDbEntity
  8
Visible (ISO)
100
AcDbLine
 10
-358.1499999999796
 20
-1338.150000000177
 30
0.0
 11
-358.1499999999796
 21
-2528.150000000176
 31
0.0
  0
LINE
  5
E1A
330
CB8
100
AcDbEntity
  8
Visible (ISO)
100
AcDbLine
 10
-391.8499999999767
 20
-1338.150000000177
 30
0.0
 11
-391.8499999999767
 21
-2528.150000000176
 31
0.0
  0
LINE
  5
E1B
330
CB8
100
AcDbEntity
  8
Visible (ISO)
100
AcDbLine
 10
-3019.999999999975
 20
-1266.299999999997
 30
0.0
 11
-1779.999999999971
 21
-1266.299999999997
 31
0.0
  0
LINE
  5
E1C
330
CB8
100
AcDbEntity
  8
Visible (ISO)
100
AcDbLine
 10
-3019.999999999975
 20
-1299.999999999997
 30
0.0
 11
-1779.999999999971
 21
-1299.999999999997
 31
0.0
  0
LINE
  5
E1D
330
CB8
100
AcDbEntity
  8
Visible (ISO)
100
AcDbLine
 10
-429.9999999999782
 20
-1300.000000000086
 30
0.0
 11
-1669.999999999975
 21
-1300.000000000086
 31
0.0
  0
LINE
  5
E1E
330
CB8
100
AcDbEntity
  8
Visible (ISO)
100
AcDbLine
 10
-429.9999999999782
 20
-1266.300000000086
 30
0.0
 11
-1669.999999999975
 21
-1266.300000000086
 31
0.0
  0
LINE
  5
E1F
330
CB8
100
AcDbEntity
  8
Visible (ISO)
100
AcDbLine
 10
-319.9999999999709
 20
-1266.299999999998
 30
0.0
 11
920.0000000000217
 21
-1266.299999999997
 31
0.0
  0
LINE
  5
E20
330
CB8
100
AcDbEntity
  8
Visible (ISO)
100
AcDbLine
 10
-319.9999999999709
 20
-1299.999999999999
 30
0.0
 11
920.0000000000217
 21
-1299.999999999998
 31
0.0
  0
CIRCLE
  5
E21
330
CB8
100
AcDbEntity
  8
Visible (ISO)
100
AcDbCircle
 10
3404.999999999993
 20
-310.8344251266881
 30
0.0
 40
4.188000000000005
  0
CIRCLE
  5
E22
330
CB8
100
AcDbEntity
  8
Visible (ISO)
100
AcDbCircle
 10
3349.999999999993
 20
-365.8344251266881
 30
0.0
 40
4.188000000000005
  0
CIRCLE
  5
E23
330
CB8
100
AcDbEntity
  8
Visible (ISO)
100
AcDbCircle
 10
3294.999999999993
 20
-310.8344251266881
 30
0.0
 40
4.188000000000005
  0
CIRCLE
  5
E24
330
CB8
100
AcDbEntity
  8
Visible (ISO)
100
AcDbCircle
 10
3349.999999999993
 20
-255.834425126689
 30
0.0
 40
4.188000000000005
  0
CIRCLE
  5
E25
330
CB8
100
AcDbEntity
  8
Visible (ISO)
100
AcDbCircle
 10
3349.999999999993
 20
-310.8344251266881
 30
0.0
 40
81.50000000000011
  0
CIRCLE
  5
E26
330
CB8
100
AcDbEntity
  8
Visible (ISO)
100
AcDbCircle
 10
3904.999999999993
 20
110.1180717950265
 30
0.0
 40
4.187999999999999
  0
CIRCLE
  5
E27
330
CB8
100
AcDbEntity
  8
Visible (ISO)
100
AcDbCircle
 10
3849.999999999993
 20
55.11807179502648
 30
0.0
 40
4.187999999999999
  0
CIRCLE
  5
E28
330
CB8
100
AcDbEntity
  8
Visible (ISO)
100
AcDbCircle
 10
3794.999999999993
 20
110.1180717950265
 30
0.0
 40
4.187999999999999
  0
CIRCLE
  5
E29
330
CB8
100
AcDbEntity
  8
Visible (ISO)
100
AcDbCircle
 10
3849.999999999993
 20
165.1180717950265
 30
0.0
 40
4.187999999999999
  0
CIRCLE
  5
E2A
330
CB8
100
AcDbEntity
  8
Visible (ISO)
100
AcDbCircle
 10
3849.999999999993
 20
110.1180717950265
 30
0.0
 40
81.5
  0
CIRCLE
  5
E2B
330
CB8
100
AcDbEntity
  8
Visible (ISO)
100
AcDbCircle
 10
3404.847449964262
 20
1534.096368103981
 30
0.0
 40
4.187999999999986
  0
CIRCLE
  5
E2C
330
CB8
100
AcDbEntity
  8
Visible (ISO)
100
AcDbCircle
 10
3345.906440129009
 20
1483.342478010701
 30
0.0
 40
4.187999999999986
  0
CIRCLE
  5
E2D
330
CB8
100
AcDbEntity
  8
Visible (ISO)
100
AcDbCircle
 10
3295.152550035731
 20
1542.283487845954
 30
0.0
 40
4.187999999999986
  0
CIRCLE
  5
E2E
330
CB8
100
AcDbEntity
  8
Visible (ISO)
100
AcDbCircle
 10
3354.093559870984
 20
1593.037377939234
 30
0.0
 40
4.187999999999986
  0
CIRCLE
  5
E2F
330
CB8
100
AcDbEntity
  8
Visible (ISO)
100
AcDbCircle
 10
3349.999999999993
 20
1538.189927974969
 30
0.0
 40
81.49999999999975
  0
CIRCLE
  5
E30
330
CB8
100
AcDbEntity
  8
Visible (ISO)
100
AcDbCircle
 10
3865.992223242204
 20
1135.3690520993
 30
0.0
 40
4.188000000000008
  0
CIRCLE
  5
E31
330
CB8
100
AcDbEntity
  8
Visible (ISO)
100
AcDbCircle
 10
3902.623652436625
 20
1066.753176420459
 30
0.0
 40
4.188000000000008
  0
CIRCLE
  5
E32
330
CB8
100
AcDbEntity
  8
Visible (ISO)
100
AcDbCircle
 10
3834.00777675779
 20
1030.121747226039
 30
0.0
 40
4.188000000000008
  0
CIRCLE
  5
E33
330
CB8
100
AcDbEntity
  8
Visible (ISO)
100
AcDbCircle
 10
3797.376347563368
 20
1098.73762290488
 30
0.0
 40
4.188000000000008
  0
CIRCLE
  5
E34
330
CB8
100
AcDbEntity
  8
Visible (ISO)
100
AcDbCircle
 10
3849.999999999993
 20
1082.74539966267
 30
0.0
 40
81.50000000000014
  0
CIRCLE
  5
E35
330
CB8
100
AcDbEntity
  8
Visible (ISO)
100
AcDbCircle
 10
3404.995684931048
 20
603.214295843195
 30
0.0
 40
4.187999999999993
  0
CIRCLE
  5
E36
330
CB8
100
AcDbEntity
  8
Visible (ISO)
100
AcDbCircle
 10
3349.311059534652
 20
548.9075513774933
 30
0.0
 40
4.187999999999993
  0
CIRCLE
  5
E37
330
CB8
100
AcDbEntity
  8
Visible (ISO)
100
AcDbCircle
 10
3295.004315068946
 20
604.59217677389
 30
0.0
 40
4.187999999999993
  0
CIRCLE
  5
E38
330
CB8
100
AcDbEntity
  8
Visible (ISO)
100
AcDbCircle
 10
3350.688940465341
 20
658.8989212395908
 30
0.0
 40
4.187999999999993
  0
CIRCLE
  5
E39
330
CB8
100
AcDbEntity
  8
Visible (ISO)
100
AcDbCircle
 10
3349.999999999993
 20
603.9032363085425
 30
0.0
 40
81.49999999999989
  0
LINE
  5
E3A
330
CB8
100
AcDbEntity
  8
Visible (ISO)
100
AcDbLine
 10
-325.0
 20
-4133.150000000678
 30
0.0
 11
-1774.999999999978
 21
-4133.15000000066
 31
0.0
  0
ARC
  5
E3B
330
CB8
100
AcDbEntity
  8
Visible (ISO)
100
AcDbCircle
 10
-324.9999999999782
 20
-2633.15000000068
 30
0.0
 40
1499.999999999997
100
AcDbArc
 50
270.0
 51
352.3377443392621
  0
LINE
  5
E3C
330
CB8
100
AcDbEntity
  8
Visible (ISO)
100
AcDbLine
 10
2600.000000000008
 20
-2833.150000000662
 30
0.0
 11
1161.606874731871
 21
-2833.15000000066
 31
0.0
  0
ARC
  5
E3D
330
CB8
100
AcDbEntity
  8
Visible (ISO)
100
AcDbCircle
 10
2600.000000000008
 20
-1333.150000000661
 30
0.0
 40
1500.000000000001
100
AcDbArc
 50
270.0
 51
0.0
  0
LINE
  5
E3E
330
CB8
100
AcDbEntity
  8
Visible (ISO)
100
AcDbLine
 10
4100.000000000007
 20
2991.849999999335
 30
0.0
 11
4100.000000000007
 21
-1333.150000000661
 31
0.0
  0
ARC
  5
E3F
330
CB8
100
AcDbEntity
  8
Visible (ISO)
100
AcDbCircle
 10
2600.000000000008
 20
2991.849999999337
 30
0.0
 40
1500.0
100
AcDbArc
 50
0.0
 51
90.0
  0
LINE
  5
E40
330
CB8
100
AcDbEntity
  8
Visible (ISO)
100
AcDbLine
 10
-1149.999999999978
 20
4491.849999999336
 30
0.0
 11
2600.000000000008
 21
4491.849999999336
 31
0.0
  0
ARC
  5
E41
330
CB8
100
AcDbEntity
  8
Visible (ISO)
100
AcDbCircle
 10
-1149.999999999982
 20
2991.849999999337
 30
0.0
 40
1499.999999999999
100
AcDbArc
 50
90.0
 51
180.0
  0
LINE
  5
E42
330
CB8
100
AcDbEntity
  8
Visible (ISO)
100
AcDbLine
 10
-2649.999999999979
 20
2666.84999999935
 30
0.0
 11
-2649.999999999979
 21
2991.849999999337
 31
0.0
  0
LINE
  5
E43
330
CB8
100
AcDbEntity
  8
Visible (ISO)
100
AcDbLine
 10
-3125.000000000015
 20
2666.849999999348
 30
0.0
 11
-2649.999999999979
 21
2666.84999999935
 31
0.0
  0
ARC
  5
E44
330
CB8
100
AcDbEntity
  8
Visible (ISO)
100
AcDbCircle
 10
-3125.000000000015
 20
1166.849999999347
 30
0.0
 40
1500.000000000001
100
AcDbArc
 50
90.0
 51
180.0
  0
LINE
  5
E45
330
CB8
100
AcDbEntity
  8
Visible (ISO)
100
AcDbLine
 10
-4625.000000000015
 20
-1333.15000000066
 30
0.0
 11
-4625.000000000015
 21
1166.849999999347
 31
0.0
  0
ARC
  5
E46
330
CB8
100
AcDbEntity
  8
Visible (ISO)
100
AcDbCircle
 10
-3125.000000000015
 20
-1333.15000000066
 30
0.0
 40
1500.000000000001
100
AcDbArc
 50
180.0
 51
264.7427218618203
  0
ARC
  5
E47
330
CB8
100
AcDbEntity
  8
Visible (ISO)
100
AcDbCircle
 10
-1774.999999999978
 20
-2633.150000000661
 30
0.0
 40
1500.0
100
AcDbArc
 50
187.4191265113535
 51
270.0
  0
ENDBLK
  5
CBA
330
CB8
100
AcDbEntity
  8
0
100
AcDbBlockEnd
  0
ENDSEC
  0
SECTION
  2
ENTITIES
  0
LINE
  5
172
330
6C
100
AcDbEntity
  8
Visible (ISO)
100
AcDbLine
 10
30233.57137023606
 20
15513.90796141908
 30
0.0
 11
31478.57137023607
 21
15513.90796141908
 31
0.0
  0
LINE
  5
173
330
6C
100
AcDbEntity
  8
Visible (ISO)
100
AcDbLine
 10
31578.57137023607
 20
15513.90796141908
 30
0.0
 11
32223.57137023609
 21
15513.90796141908
 31
0.0
  0
LINE
  5
174
330
6C
100
AcDbEntity
  8
Visible (ISO)
100
AcDbLine
 10
30233.57137023606
 20
15475.90796141908
 30
0.0
 11
31478.57137023607
 21
15475.90796141908
 31
0.0
  0
LINE
  5
175
330
6C
100
AcDbEntity
  8
Visible (ISO)
100
AcDbLine
 10
31578.57137023607
 20
15475.90796141908
 30
0.0
 11
32223.57137023609
 21
15475.90796141908
 31
0.0
  0
LINE
  5
176
330
6C
100
AcDbEntity
  8
Visible (ISO)
100
AcDbLine
 10
32223.57137023609
 20
15447.40796141908
 30
0.0
 11
32223.57137023609
 21
15457.40796141908
 31
0.0
  0
LINE
  5
177
330
6C
100
AcDbEntity
  8
Visible (ISO)
100
AcDbLine
 10
32223.57137023609
 20
15447.40796141908
 30
0.0
 11
32228.57137023608
 21
15447.40796141908
 31
0.0
  0
LINE
  5
178
330
6C
100
AcDbEntity
  8
Visible (ISO)
100
AcDbLine
 10
32228.57137023608
 20
15542.40796141908
 30
0.0
 11
32223.57137023609
 21
15542.40796141908
 31
0.0
  0
LINE
  5
179
330
6C
100
AcDbEntity
  8
Visible (ISO)
100
AcDbLine
 10
32223.57137023609
 20
15532.40796141908
 30
0.0
 11
32223.57137023609
 21
15542.40796141908
 31
0.0
  0
LINE
  5
17A
330
6C
100
AcDbEntity
  8
Visible (ISO)
100
AcDbLine
 10
32223.57137023609
 20
15532.40796141908
 30
0.0
 11
32223.57137023609
 21
15457.40796141908
 31
0.0
  0
LINE
  5
17B
330
6C
100
AcDbEntity
  8
Visible (ISO)
100
AcDbLine
 10
30233.57137023607
 20
15542.40796141908
 30
0.0
 11
30233.57137023607
 21
15532.40796141908
 31
0.0
  0
LINE
  5
17C
330
6C
100
AcDbEntity
  8
Visible (ISO)
100
AcDbLine
 10
30233.57137023607
 20
15542.40796141908
 30
0.0
 11
30228.57137023607
 21
15542.40796141908
 31
0.0
  0
LINE
  5
17D
330
6C
100
AcDbEntity
  8
Visible (ISO)
100
AcDbLine
 10
30228.57137023607
 20
15447.40796141908
 30
0.0
 11
30233.57137023607
 21
15447.40796141908
 31
0.0
  0
LINE
  5
17E
330
6C
100
AcDbEntity
  8
Visible (ISO)
100
AcDbLine
 10
30233.57137023607
 20
15457.40796141908
 30
0.0
 11
30233.57137023607
 21
15447.40796141908
 31
0.0
  0
LINE
  5
17F
330
6C
100
AcDbEntity
  8
Visible (ISO)
100
AcDbLine
 10
30233.57137023607
 20
15457.40796141908
 30
0.0
 11
30233.57137023607
 21
15532.40796141908
 31
0.0
  0
LINE
  5
180
330
6C
100
AcDbEntity
  8
Visible (ISO)
100
AcDbLine
 10
32328.57137023605
 20
15592.40796141908
 30
0.0
 11
32333.57137023605
 21
15592.40796141908
 31
0.0
  0
LINE
  5
181
330
6C
100
AcDbEntity
  8
Visible (ISO)
100
AcDbLine
 10
32333.57137023605
 20
15602.40796141908
 30
0.0
 11
32333.57137023605
 21
15592.40796141908
 31
0.0
  0
LINE
  5
182
330
6C
100
AcDbEntity
  8
Visible (ISO)
100
AcDbLine
 10
32333.57137023605
 20
15687.40796141908
 30
0.0
 11
32333.57137023605
 21
15677.40796141908
 31
0.0
  0
LINE
  5
183
330
6C
100
AcDbEntity
  8
Visible (ISO)
100
AcDbLine
 10
32333.57137023605
 20
15687.40796141908
 30
0.0
 11
32328.57137023605
 21
15687.40796141908
 31
0.0
  0
LINE
  5
184
330
6C
100
AcDbEntity
  8
Visible (ISO)
100
AcDbLine
 10
32333.57137023605
 20
15602.40796141908
 30
0.0
 11
32333.57137023605
 21
15677.40796141908
 31
0.0
  0
LINE
  5
185
330
6C
100
AcDbEntity
  8
Visible (ISO)
100
AcDbLine
 10
31473.57137023607
 20
15592.40796141908
 30
0.0
 11
31473.57137023607
 21
15602.40796141908
 31
0.0
  0
LINE
  5
186
330
6C
100
AcDbEntity
  8
Visible (ISO)
100
AcDbLine
 10
31473.57137023607
 20
15592.40796141908
 30
0.0
 11
31478.57137023607
 21
15592.40796141908
 31
0.0
  0
LINE
  5
187
330
6C
100
AcDbEntity
  8
Visible (ISO)
100
AcDbLine
 10
31478.57137023607
 20
15687.40796141908
 30
0.0
 11
31473.57137023607
 21
15687.40796141908
 31
0.0
  0
LINE
  5
188
330
6C
100
AcDbEntity
  8
Visible (ISO)
100
AcDbLine
 10
31473.57137023607
 20
15677.40796141908
 30
0.0
 11
31473.57137023607
 21
15687.40796141908
 31
0.0
  0
LINE
  5
189
330
6C
100
AcDbEntity
  8
Visible (ISO)
100
AcDbLine
 10
31473.57137023607
 20
15677.40796141908
 30
0.0
 11
31473.57137023607
 21
15602.40796141908
 31
0.0
  0
LINE
  5
18A
330
6C
100
AcDbEntity
  8
Visible (ISO)
100
AcDbLine
 10
30233.57137023607
 20
15687.40796141908
 30
0.0
 11
30233.57137023607
 21
15677.40796141908
 31
0.0
  0
LINE
  5
18B
330
6C
100
AcDbEntity
  8
Visible (ISO)
100
AcDbLine
 10
30233.57137023607
 20
15687.40796141908
 30
0.0
 11
30228.57137023607
 21
15687.40796141908
 31
0.0
  0
LINE
  5
18C
330
6C
100
AcDbEntity
  8
Visible (ISO)
100
AcDbLine
 10
30228.57137023607
 20
15592.40796141908
 30
0.0
 11
30233.57137023607
 21
15592.40796141908
 31
0.0
  0
LINE
  5
18D
330
6C
100
AcDbEntity
  8
Visible (ISO)
100
AcDbLine
 10
30233.57137023607
 20
15602.40796141908
 30
0.0
 11
30233.57137023607
 21
15592.40796141908
 31
0.0
  0
LINE
  5
18E
330
6C
100
AcDbEntity
  8
Visible (ISO)
100
AcDbLine
 10
30233.57137023607
 20
15602.40796141908
 30
0.0
 11
30233.57137023607
 21
15677.40796141908
 31
0.0
  0
LINE
  5
18F
330
6C
100
AcDbEntity
  8
Visible (ISO)
100
AcDbLine
 10
31578.57137023607
 20
15292.40796141908
 30
0.0
 11
31583.57137023608
 21
15292.40796141908
 31
0.0
  0
LINE
  5
190
330
6C
100
AcDbEntity
  8
Visible (ISO)
100
AcDbLine
 10
31583.57137023608
 20
15302.40796141907
 30
0.0
 11
31583.57137023608
 21
15292.40796141908
 31
0.0
  0
LINE
  5
191
330
6C
100
AcDbEntity
  8
Visible (ISO)
100
AcDbLine
 10
31583.57137023608
 20
15387.40796141908
 30
0.0
 11
31583.57137023608
 21
15377.40796141908
 31
0.0
  0
LINE
  5
192
330
6C
100
AcDbEntity
  8
Visible (ISO)
100
AcDbLine
 10
31583.57137023608
 20
15387.40796141908
 30
0.0
 11
31578.57137023607
 21
15387.40796141908
 31
0.0
  0
LINE
  5
193
330
6C
100
AcDbEntity
  8
Visible (ISO)
100
AcDbLine
 10
31583.57137023608
 20
15302.40796141907
 30
0.0
 11
31583.57137023608
 21
15377.40796141908
 31
0.0
  0
LINE
  5
194
330
6C
100
AcDbEntity
  8
Visible (ISO)
100
AcDbLine
 10
32828.57137023607
 20
15387.40796141908
 30
0.0
 11
32823.57137023607
 21
15387.40796141908
 31
0.0
  0
LINE
  5
195
330
6C
100
AcDbEntity
  8
Visible (ISO)
100
AcDbLine
 10
32823.57137023607
 20
15377.40796141908
 30
0.0
 11
32823.57137023607
 21
15387.40796141908
 31
0.0
  0
LINE
  5
196
330
6C
100
AcDbEntity
  8
Visible (ISO)
100
AcDbLine
 10
32823.57137023607
 20
15292.40796141908
 30
0.0
 11
32823.57137023607
 21
15302.40796141907
 31
0.0
  0
LINE
  5
197
330
6C
100
AcDbEntity
  8
Visible (ISO)
100
AcDbLine
 10
32823.57137023607
 20
15292.40796141908
 30
0.0
 11
32828.57137023607
 21
15292.40796141908
 31
0.0
  0
LINE
  5
198
330
6C
100
AcDbEntity
  8
Visible (ISO)
100
AcDbLine
 10
32823.57137023607
 20
15377.40796141908
 30
0.0
 11
32823.57137023607
 21
15302.40796141907
 31
0.0
  0
LINE
  5
199
330
6C
100
AcDbEntity
  8
Visible (ISO)
100
AcDbLine
 10
34173.57137023607
 20
15592.40796141908
 30
0.0
 11
34173.57137023607
 21
15602.40796141908
 31
0.0
  0
LINE
  5
19A
330
6C
100
AcDbEntity
  8
Visible (ISO)
100
AcDbLine
 10
34173.57137023607
 20
15592.40796141908
 30
0.0
 11
34178.57137023608
 21
15592.40796141908
 31
0.0
  0
LINE
  5
19B
330
6C
100
AcDbEntity
  8
Visible (ISO)
100
AcDbLine
 10
34178.57137023608
 20
15687.40796141908
 30
0.0
 11
34173.57137023607
 21
15687.40796141908
 31
0.0
  0
LINE
  5
19C
330
6C
100
AcDbEntity
  8
Visible (ISO)
100
AcDbLine
 10
34173.57137023607
 20
15677.40796141908
 30
0.0
 11
34173.57137023607
 21
15687.40796141908
 31
0.0
  0
LINE
  5
19D
330
6C
100
AcDbEntity
  8
Visible (ISO)
100
AcDbLine
 10
34173.57137023607
 20
15677.40796141908
 30
0.0
 11
34173.57137023607
 21
15602.40796141908
 31
0.0
  0
LINE
  5
19E
330
6C
100
AcDbEntity
  8
Visible (ISO)
100
AcDbLine
 10
32933.57137023607
 20
15687.40796141908
 30
0.0
 11
32933.57137023607
 21
15677.40796141908
 31
0.0
  0
LINE
  5
19F
330
6C
100
AcDbEntity
  8
Visible (ISO)
100
AcDbLine
 10
32933.57137023607
 20
15687.40796141908
 30
0.0
 11
32928.57137023608
 21
15687.40796141908
 31
0.0
  0
LINE
  5
1A0
330
6C
100
AcDbEntity
  8
Visible (ISO)
100
AcDbLine
 10
32928.57137023608
 20
15592.40796141908
 30
0.0
 11
32933.57137023607
 21
15592.40796141908
 31
0.0
  0
LINE
  5
1A1
330
6C
100
AcDbEntity
  8
Visible (ISO)
100
AcDbLine
 10
32933.57137023607
 20
15602.40796141908
 30
0.0
 11
32933.57137023607
 21
15592.40796141908
 31
0.0
  0
LINE
  5
1A2
330
6C
100
AcDbEntity
  8
Visible (ISO)
100
AcDbLine
 10
32933.57137023607
 20
15602.40796141908
 30
0.0
 11
32933.57137023607
 21
15677.40796141908
 31
0.0
  0
LINE
  5
1A3
330
6C
100
AcDbEntity
  8
Visible (ISO)
100
AcDbLine
 10
32228.57137023609
 20
15704.90796141908
 30
0.0
 11
32228.57137023609
 21
15356.75796141908
 31
0.0
  0
LINE
  5
1A4
330
6C
100
AcDbEntity
  8
Visible (ISO)
100
AcDbLine
 10
32228.57137023609
 20
15323.05796141908
 30
0.0
 11
32228.57137023609
 21
13404.90796141908
 31
0.0
  0
LINE
  5
1A7
330
6C
100
AcDbEntity
  8
Visible (ISO)
100
AcDbLine
 10
32328.57137023608
 20
13404.90796141908
 30
0.0
 11
32328.57137023608
 21
15323.05796141908
 31
0.0
  0
LINE
  5
1A8
330
6C
100
AcDbEntity
  8
Visible (ISO)
100
AcDbLine
 10
32328.57137023608
 20
15356.75796141908
 30
0.0
 11
32328.57137023608
 21
15704.90796141908
 31
0.0
  0
LINE
  5
1A9
330
6C
100
AcDbEntity
  8
Visible (ISO)
100
AcDbLine
 10
32323.57137023609
 20
15704.90796141908
 30
0.0
 11
32233.57137023608
 21
15704.90796141908
 31
0.0
  0
LINE
  5
222
330
6C
100
AcDbEntity
  8
Visible (ISO)
100
AcDbLine
 10
32333.57137023605
 20
15656.75796141908
 30
0.0
 11
32828.57137023607
 21
15656.75796141908
 31
0.0
  0
LINE
  5
223
330
6C
100
AcDbEntity
  8
Visible (ISO)
100
AcDbLine
 10
32333.57137023605
 20
15623.05796141908
 30
0.0
 11
32828.57137023607
 21
15623.05796141908
 31
0.0
  0
LINE
  5
224
330
6C
100
AcDbEntity
  8
Visible (ISO)
100
AcDbLine
 10
32328.57137023608
 20
15704.90796141909
 30
0.0
 11
32325.57137023609
 21
15704.90796141909
 31
0.0
  0
LINE
  5
225
330
6C
100
AcDbEntity
  8
Visible (ISO)
100
AcDbLine
 10
32231.57137023609
 20
15704.90796141909
 30
0.0
 11
32228.57137023609
 21
15704.90796141909
 31
0.0
  0
ARC
  5
226
330
6C
100
AcDbEntity
  8
Visible (ISO)
100
AcDbCircle
 10
32231.57137023609
 20
15706.90796141908
 30
0.0
 40
3.000000000000001
100
AcDbArc
 50
90.0
 51
180.0
  0
LINE
  5
227
330
6C
100
AcDbEntity
  8
Visible (ISO)
100
AcDbLine
 10
32228.57137023609
 20
15706.90796141908
 30
0.0
 11
32228.57137023609
 21
15704.90796141909
 31
0.0
  0
ARC
  5
228
330
6C
100
AcDbEntity
  8
Visible (ISO)
100
AcDbCircle
 10
32325.57137023609
 20
15706.90796141908
 30
0.0
 40
3.000000000000007
100
AcDbArc
 50
0.0
 51
90.0
  0
LINE
  5
229
330
6C
100
AcDbEntity
  8
Visible (ISO)
100
AcDbLine
 10
32328.57137023608
 20
15704.90796141909
 30
0.0
 11
32328.57137023608
 21
15706.90796141908
 31
0.0
  0
LINE
  5
22A
330
6C
100
AcDbEntity
  8
Visible (ISO)
100
AcDbLine
 10
32325.57137023609
 20
15709.90796141908
 30
0.0
 11
32231.57137023609
 21
15709.90796141908
 31
0.0
  0
LINE
  5
22B
330
6C
100
AcDbEntity
  8
Visible (ISO)
100
AcDbLine
 10
32325.57137023609
 20
15704.90796141909
 30
0.0
 11
32231.57137023609
 21
15704.90796141909
 31
0.0
  0
LINE
  5
22C
330
6C
100
AcDbEntity
  8
Visible (ISO)
100
AcDbLine
 10
30228.57137023607
 20
15704.90796141908
 30
0.0
 11
30225.57137023607
 21
15704.90796141908
 31
0.0
  0
LINE
  5
22D
330
6C
100
AcDbEntity
  8
Visible (ISO)
100
AcDbLine
 10
30131.57137023607
 20
15704.90796141908
 30
0.0
 11
30128.57137023607
 21
15704.90796141908
 31
0.0
  0
ARC
  5
22E
330
6C
100
AcDbEntity
  8
Visible (ISO)
100
AcDbCircle
 10
30131.57137023607
 20
15706.90796141908
 30
0.0
 40
3.000000000000001
100
AcDbArc
 50
90.0
 51
180.0
  0
LINE
  5
22F
330
6C
100
AcDbEntity
  8
Visible (ISO)
100
AcDbLine
 10
30128.57137023607
 20
15706.90796141908
 30
0.0
 11
30128.57137023607
 21
15704.90796141908
 31
0.0
  0
ARC
  5
230
330
6C
100
AcDbEntity
  8
Visible (ISO)
100
AcDbCircle
 10
30225.57137023607
 20
15706.90796141908
 30
0.0
 40
3.000000000000007
100
AcDbArc
 50
0.0
 51
90.0
  0
LINE
  5
231
330
6C
100
AcDbEntity
  8
Visible (ISO)
100
AcDbLine
 10
30228.57137023607
 20
15704.90796141908
 30
0.0
 11
30228.57137023607
 21
15706.90796141908
 31
0.0
  0
LINE
  5
232
330
6C
100
AcDbEntity
  8
Visible (ISO)
100
AcDbLine
 10
30225.57137023607
 20
15709.90796141908
 30
0.0
 11
30131.57137023607
 21
15709.90796141908
 31
0.0
  0
LINE
  5
233
330
6C
100
AcDbEntity
  8
Visible (ISO)
100
AcDbLine
 10
30225.57137023607
 20
15704.90796141908
 30
0.0
 11
30131.57137023607
 21
15704.90796141908
 31
0.0
  0
LINE
  5
234
330
6C
100
AcDbEntity
  8
Visible (ISO)
100
AcDbLine
 10
31578.57137023607
 20
15704.90796141908
 30
0.0
 11
31575.57137023607
 21
15704.90796141908
 31
0.0
  0
LINE
  5
235
330
6C
100
AcDbEntity
  8
Visible (ISO)
100
AcDbLine
 10
31481.57137023607
 20
15704.90796141908
 30
0.0
 11
31478.57137023607
 21
15704.90796141908
 31
0.0
  0
ARC
  5
236
330
6C
100
AcDbEntity
  8
Visible (ISO)
100
AcDbCircle
 10
31575.57137023607
 20
15706.90796141908
 30
0.0
 40
2.99999999999998
100
AcDbArc
 50
0.0
 51
90.0
  0
LINE
  5
237
330
6C
100
AcDbEntity
  8
Visible (ISO)
100
AcDbLine
 10
31578.57137023607
 20
15704.90796141908
 30
0.0
 11
31578.57137023607
 21
15706.90796141908
 31
0.0
  0
ARC
  5
238
330
6C
100
AcDbEntity
  8
Visible (ISO)
100
AcDbCircle
 10
31481.57137023607
 20
15706.90796141908
 30
0.0
 40
3.000000000000006
100
AcDbArc
 50
90.0
 51
180.0
  0
LINE
  5
239
330
6C
100
AcDbEntity
  8
Visible (ISO)
100
AcDbLine
 10
31478.57137023607
 20
15706.90796141908
 30
0.0
 11
31478.57137023607
 21
15704.90796141908
 31
0.0
  0
LINE
  5
23A
330
6C
100
AcDbEntity
  8
Visible (ISO)
100
AcDbLine
 10
31575.57137023607
 20
15709.90796141908
 30
0.0
 11
31481.57137023607
 21
15709.90796141908
 31
0.0
  0
LINE
  5
23B
330
6C
100
AcDbEntity
  8
Visible (ISO)
100
AcDbLine
 10
31575.57137023607
 20
15704.90796141908
 30
0.0
 11
31481.57137023607
 21
15704.90796141908
 31
0.0
  0
LINE
  5
23C
330
6C
100
AcDbEntity
  8
Visible (ISO)
100
AcDbLine
 10
34181.57137023607
 20
15704.90796141908
 30
0.0
 11
34178.57137023608
 21
15704.90796141908
 31
0.0
  0
LINE
  5
23D
330
6C
100
AcDbEntity
  8
Visible (ISO)
100
AcDbLine
 10
34278.57137023607
 20
15704.90796141908
 30
0.0
 11
34275.57137023607
 21
15704.90796141908
 31
0.0
  0
ARC
  5
23E
330
6C
100
AcDbEntity
  8
Visible (ISO)
100
AcDbCircle
 10
34181.57137023607
 20
15706.90796141908
 30
0.0
 40
2.999999999999984
100
AcDbArc
 50
90.0
 51
180.0
  0
LINE
  5
23F
330
6C
100
AcDbEntity
  8
Visible (ISO)
100
AcDbLine
 10
34178.57137023608
 20
15706.90796141908
 30
0.0
 11
34178.57137023608
 21
15704.90796141908
 31
0.0
  0
ARC
  5
240
330
6C
100
AcDbEntity
  8
Visible (ISO)
100
AcDbCircle
 10
34275.57137023607
 20
15706.90796141908
 30
0.0
 40
2.99999999999998
100
AcDbArc
 50
0.0
 51
90.0
  0
LINE
  5
241
330
6C
100
AcDbEntity
  8
Visible (ISO)
100
AcDbLine
 10
34278.57137023607
 20
15704.90796141908
 30
0.0
 11
34278.57137023607
 21
15706.90796141908
 31
0.0
  0
LINE
  5
242
330
6C
100
AcDbEntity
  8
Visible (ISO)
100
AcDbLine
 10
34275.57137023607
 20
15709.90796141908
 30
0.0
 11
34181.57137023607
 21
15709.90796141908
 31
0.0
  0
LINE
  5
243
330
6C
100
AcDbEntity
  8
Visible (ISO)
100
AcDbLine
 10
34275.57137023607
 20
15704.90796141908
 30
0.0
 11
34181.57137023607
 21
15704.90796141908
 31
0.0
  0
LINE
  5
244
330
6C
100
AcDbEntity
  8
Visible (ISO)
100
AcDbLine
 10
32928.57137023607
 20
15704.90796141908
 30
0.0
 11
32925.57137023607
 21
15704.90796141908
 31
0.0
  0
LINE
  5
245
330
6C
100
AcDbEntity
  8
Visible (ISO)
100
AcDbLine
 10
32831.57137023607
 20
15704.90796141908
 30
0.0
 11
32828.57137023607
 21
15704.90796141908
 31
0.0
  0
ARC
  5
246
330
6C
100
AcDbEntity
  8
Visible (ISO)
100
AcDbCircle
 10
32925.57137023607
 20
15706.90796141908
 30
0.0
 40
2.99999999999998
100
AcDbArc
 50
0.0
 51
90.0
  0
LINE
  5
247
330
6C
100
AcDbEntity
  8
Visible (ISO)
100
AcDbLine
 10
32928.57137023607
 20
15704.90796141908
 30
0.0
 11
32928.57137023607
 21
15706.90796141908
 31
0.0
  0
ARC
  5
248
330
6C
100
AcDbEntity
  8
Visible (ISO)
100
AcDbCircle
 10
32831.57137023607
 20
15706.90796141908
 30
0.0
 40
3.000000000000006
100
AcDbArc
 50
90.0
 51
180.0
  0
LINE
  5
249
330
6C
100
AcDbEntity
  8
Visible (ISO)
100
AcDbLine
 10
32828.57137023607
 20
15706.90796141908
 30
0.0
 11
32828.57137023607
 21
15704.90796141908
 31
0.0
  0
LINE
  5
24A
330
6C
100
AcDbEntity
  8
Visible (ISO)
100
AcDbLine
 10
32925.57137023607
 20
15709.90796141908
 30
0.0
 11
32831.57137023607
 21
15709.90796141908
 31
0.0
  0
LINE
  5
24B
330
6C
100
AcDbEntity
  8
Visible (ISO)
100
AcDbLine
 10
32925.57137023607
 20
15704.90796141908
 30
0.0
 11
32831.57137023607
 21
15704.90796141908
 31
0.0
  0
LINE
  5
24C
330
6C
100
AcDbEntity
  8
Visible (ISO)
100
AcDbLine
 10
32928.57137023607
 20
15104.90796141908
 30
0.0
 11
32925.57137023607
 21
15104.90796141908
 31
0.0
  0
LINE
  5
24D
330
6C
100
AcDbEntity
  8
Visible (ISO)
100
AcDbLine
 10
32831.57137023607
 20
15104.90796141908
 30
0.0
 11
32828.57137023607
 21
15104.90796141908
 31
0.0
  0
ARC
  5
24E
330
6C
100
AcDbEntity
  8
Visible (ISO)
100
AcDbCircle
 10
32831.57137023607
 20
15106.90796141908
 30
0.0
 40
3.000000000000001
100
AcDbArc
 50
90.0
 51
180.0
  0
LINE
  5
24F
330
6C
100
AcDbEntity
  8
Visible (ISO)
100
AcDbLine
 10
32828.57137023607
 20
15106.90796141908
 30
0.0
 11
32828.57137023607
 21
15104.90796141908
 31
0.0
  0
ARC
  5
250
330
6C
100
AcDbEntity
  8
Visible (ISO)
100
AcDbCircle
 10
32925.57137023607
 20
15106.90796141908
 30
0.0
 40
3.000000000000007
100
AcDbArc
 50
0.0
 51
90.0
  0
LINE
  5
251
330
6C
100
AcDbEntity
  8
Visible (ISO)
100
AcDbLine
 10
32928.57137023607
 20
15104.90796141908
 30
0.0
 11
32928.57137023607
 21
15106.90796141908
 31
0.0
  0
LINE
  5
252
330
6C
100
AcDbEntity
  8
Visible (ISO)
100
AcDbLine
 10
32925.57137023607
 20
15109.90796141908
 30
0.0
 11
32831.57137023607
 21
15109.90796141908
 31
0.0
  0
LINE
  5
253
330
6C
100
AcDbEntity
  8
Visible (ISO)
100
AcDbLine
 10
32925.57137023607
 20
15104.90796141908
 30
0.0
 11
32831.57137023607
 21
15104.90796141908
 31
0.0
  0
LINE
  5
254
330
6C
100
AcDbEntity
  8
Visible (ISO)
100
AcDbLine
 10
31578.57137023607
 20
15104.90796141908
 30
0.0
 11
31575.57137023607
 21
15104.90796141908
 31
0.0
  0
LINE
  5
255
330
6C
100
AcDbEntity
  8
Visible (ISO)
100
AcDbLine
 10
31481.57137023607
 20
15104.90796141908
 30
0.0
 11
31478.57137023607
 21
15104.90796141908
 31
0.0
  0
ARC
  5
256
330
6C
100
AcDbEntity
  8
Visible (ISO)
100
AcDbCircle
 10
31481.57137023607
 20
15106.90796141908
 30
0.0
 40
3.000000000000001
100
AcDbArc
 50
90.0
 51
180.0
  0
LINE
  5
257
330
6C
100
AcDbEntity
  8
Visible (ISO)
100
AcDbLine
 10
31478.57137023607
 20
15106.90796141908
 30
0.0
 11
31478.57137023607
 21
15104.90796141908
 31
0.0
  0
ARC
  5
258
330
6C
100
AcDbEntity
  8
Visible (ISO)
100
AcDbCircle
 10
31575.57137023607
 20
15106.90796141908
 30
0.0
 40
3.000000000000007
100
AcDbArc
 50
0.0
 51
90.0
  0
LINE
  5
259
330
6C
100
AcDbEntity
  8
Visible (ISO)
100
AcDbLine
 10
31578.57137023607
 20
15104.90796141908
 30
0.0
 11
31578.57137023607
 21
15106.90796141908
 31
0.0
  0
LINE
  5
25A
330
6C
100
AcDbEntity
  8
Visible (ISO)
100
AcDbLine
 10
31575.57137023607
 20
15109.90796141908
 30
0.0
 11
31481.57137023607
 21
15109.90796141908
 31
0.0
  0
LINE
  5
25B
330
6C
100
AcDbEntity
  8
Visible (ISO)
100
AcDbLine
 10
31575.57137023607
 20
15104.90796141908
 30
0.0
 11
31481.57137023607
 21
15104.90796141908
 31
0.0
  0
LINE
  5
25C
330
6C
100
AcDbEntity
  8
Visible (ISO)
100
AcDbLine
 10
32111.57137023606
 20
13404.90796141908
 30
0.0
 11
32103.57137023607
 21
13412.90796141908
 31
0.0
  0
LINE
  5
25D
330
6C
100
AcDbEntity
  8
Visible (ISO)
100
AcDbLine
 10
32111.57137023606
 20
13412.90796141908
 30
0.0
 11
32111.57137023606
 21
13404.90796141908
 31
0.0
  0
LINE
  5
25E
330
6C
100
AcDbEntity
  8
Visible (ISO)
100
AcDbLine
 10
32103.57137023607
 20
13412.90796141908
 30
0.0
 11
32111.57137023606
 21
13412.90796141908
 31
0.0
  0
LINE
  5
25F
330
6C
100
AcDbEntity
  8
Visible (ISO)
100
AcDbLine
 10
32111.57137023606
 20
13836.90796141908
 30
0.0
 11
32103.57137023606
 21
13836.90796141908
 31
0.0
  0
LINE
  5
260
330
6C
100
AcDbEntity
  8
Visible (ISO)
100
AcDbLine
 10
32111.57137023606
 20
13844.90796141908
 30
0.0
 11
32111.57137023606
 21
13836.90796141908
 31
0.0
  0
LINE
  5
261
330
6C
100
AcDbEntity
  8
Visible (ISO)
100
AcDbLine
 10
32103.57137023606
 20
13836.90796141908
 30
0.0
 11
32111.57137023606
 21
13844.90796141908
 31
0.0
  0
LINE
  5
262
330
6C
100
AcDbEntity
  8
Visible (ISO)
100
AcDbLine
 10
33095.57137023606
 20
13412.90796141908
 30
0.0
 11
33103.57137023605
 21
13412.90796141908
 31
0.0
  0
LINE
  5
263
330
6C
100
AcDbEntity
  8
Visible (ISO)
100
AcDbLine
 10
33095.57137023606
 20
13404.90796141908
 30
0.0
 11
33095.57137023606
 21
13412.90796141908
 31
0.0
  0
LINE
  5
264
330
6C
100
AcDbEntity
  8
Visible (ISO)
100
AcDbLine
 10
33103.57137023605
 20
13412.90796141908
 30
0.0
 11
33095.57137023606
 21
13404.90796141908
 31
0.0
  0
LINE
  5
265
330
6C
100
AcDbEntity
  8
Visible (ISO)
100
AcDbLine
 10
33095.57137023606
 20
13412.90796141908
 30
0.0
 11
32928.57137023607
 21
13412.90796141908
 31
0.0
  0
LINE
  5
266
330
6C
100
AcDbEntity
  8
Visible (ISO)
100
AcDbLine
 10
32828.57137023606
 20
13412.90796141908
 30
0.0
 11
32328.57137023608
 21
13412.90796141908
 31
0.0
  0
LINE
  5
267
330
6C
100
AcDbEntity
  8
Visible (ISO)
100
AcDbLine
 10
32228.57137023609
 20
13412.90796141908
 30
0.0
 11
32111.57137023606
 21
13412.90796141908
 31
0.0
  0
LINE
  5
268
330
6C
100
AcDbEntity
  8
Visible (ISO)
100
AcDbLine
 10
33095.57137023606
 20
13844.90796141908
 30
0.0
 11
33103.57137023605
 21
13836.90796141908
 31
0.0
  0
LINE
  5
269
330
6C
100
AcDbEntity
  8
Visible (ISO)
100
AcDbLine
 10
33095.57137023606
 20
13836.90796141908
 30
0.0
 11
33095.57137023606
 21
13844.90796141908
 31
0.0
  0
LINE
  5
26A
330
6C
100
AcDbEntity
  8
Visible (ISO)
100
AcDbLine
 10
33103.57137023605
 20
13836.90796141908
 30
0.0
 11
33095.57137023606
 21
13836.90796141908
 31
0.0
  0
LINE
  5
26B
330
6C
100
AcDbEntity
  8
Visible (ISO)
100
AcDbLine
 10
33095.57137023606
 20
13844.90796141908
 30
0.0
 11
32928.57137023607
 21
13844.90796141908
 31
0.0
  0
LINE
  5
26C
330
6C
100
AcDbEntity
  8
Visible (ISO)
100
AcDbLine
 10
32828.57137023606
 20
13844.90796141908
 30
0.0
 11
32328.57137023608
 21
13844.90796141908
 31
0.0
  0
LINE
  5
26D
330
6C
100
AcDbEntity
  8
Visible (ISO)
100
AcDbLine
 10
32228.57137023609
 20
13844.90796141908
 30
0.0
 11
32111.57137023606
 21
13844.90796141908
 31
0.0
  0
LINE
  5
26E
330
6C
100
AcDbEntity
  8
Visible (ISO)
100
AcDbLine
 10
32111.57137023606
 20
13836.90796141908
 30
0.0
 11
32228.57137023609
 21
13836.90796141908
 31
0.0
  0
LINE
  5
26F
330
6C
100
AcDbEntity
  8
Visible (ISO)
100
AcDbLine
 10
32328.57137023608
 20
13836.90796141908
 30
0.0
 11
32828.57137023606
 21
13836.90796141908
 31
0.0
  0
LINE
  5
270
330
6C
100
AcDbEntity
  8
Visible (ISO)
100
AcDbLine
 10
32928.57137023607
 20
13836.90796141908
 30
0.0
 11
33095.57137023606
 21
13836.90796141908
 31
0.0
  0
LINE
  5
271
330
6C
100
AcDbEntity
  8
Visible (ISO)
100
AcDbLine
 10
33095.57137023606
 20
13836.90796141908
 30
0.0
 11
33095.57137023606
 21
13412.90796141908
 31
0.0
  0
LINE
  5
272
330
6C
100
AcDbEntity
  8
Visible (ISO)
100
AcDbLine
 10
33103.57137023605
 20
13412.90796141908
 30
0.0
 11
33103.57137023605
 21
13836.90796141908
 31
0.0
  0
LINE
  5
273
330
6C
100
AcDbEntity
  8
Visible (ISO)
100
AcDbLine
 10
32111.57137023606
 20
13412.90796141908
 30
0.0
 11
32111.57137023606
 21
13836.90796141908
 31
0.0
  0
LINE
  5
274
330
6C
100
AcDbEntity
  8
Visible (ISO)
100
AcDbLine
 10
32103.57137023606
 20
13836.90796141908
 30
0.0
 11
32103.57137023606
 21
13412.90796141908
 31
0.0
  0
LINE
  5
275
330
6C
100
AcDbEntity
  8
Visible (ISO)
100
AcDbLine
 10
34111.57137023605
 20
13404.90796141908
 30
0.0
 11
34103.57137023605
 21
13412.90796141908
 31
0.0
  0
LINE
  5
276
330
6C
100
AcDbEntity
  8
Visible (ISO)
100
AcDbLine
 10
34111.57137023605
 20
13412.90796141908
 30
0.0
 11
34111.57137023605
 21
13404.90796141908
 31
0.0
  0
LINE
  5
277
330
6C
100
AcDbEntity
  8
Visible (ISO)
100
AcDbLine
 10
34103.57137023605
 20
13412.90796141908
 30
0.0
 11
34111.57137023605
 21
13412.90796141908
 31
0.0
  0
LINE
  5
278
330
6C
100
AcDbEntity
  8
Visible (ISO)
100
AcDbLine
 10
34853.57137023604
 20
13412.90796141908
 30
0.0
 11
34278.57137023607
 21
13412.90796141908
 31
0.0
  0
LINE
  5
279
330
6C
100
AcDbEntity
  8
Visible (ISO)
100
AcDbLine
 10
34178.57137023608
 20
13412.90796141908
 30
0.0
 11
34111.57137023605
 21
13412.90796141908
 31
0.0
  0
LINE
  5
27A
330
6C
100
AcDbEntity
  8
Visible (ISO)
100
AcDbLine
 10
34111.57137023605
 20
13836.90796141908
 30
0.0
 11
34103.57137023605
 21
13836.90796141908
 31
0.0
  0
LINE
  5
27B
330
6C
100
AcDbEntity
  8
Visible (ISO)
100
AcDbLine
 10
34111.57137023605
 20
13844.90796141908
 30
0.0
 11
34111.57137023605
 21
13836.90796141908
 31
0.0
  0
LINE
  5
27C
330
6C
100
AcDbEntity
  8
Visible (ISO)
100
AcDbLine
 10
34103.57137023605
 20
13836.90796141908
 30
0.0
 11
34111.57137023605
 21
13844.90796141908
 31
0.0
  0
LINE
  5
27D
330
6C
100
AcDbEntity
  8
Visible (ISO)
100
AcDbLine
 10
34861.57137023604
 20
13844.90796141908
 30
0.0
 11
34278.57137023607
 21
13844.90796141908
 31
0.0
  0
LINE
  5
27E
330
6C
100
AcDbEntity
  8
Visible (ISO)
100
AcDbLine
 10
34178.57137023608
 20
13844.90796141908
 30
0.0
 11
34111.57137023605
 21
13844.90796141908
 31
0.0
  0
LINE
  5
27F
330
6C
100
AcDbEntity
  8
Visible (ISO)
100
AcDbLine
 10
34111.57137023605
 20
13836.90796141908
 30
0.0
 11
34178.57137023608
 21
13836.90796141908
 31
0.0
  0
LINE
  5
280
330
6C
100
AcDbEntity
  8
Visible (ISO)
100
AcDbLine
 10
34278.57137023607
 20
13836.90796141908
 30
0.0
 11
34853.57137023604
 21
13836.90796141908
 31
0.0
  0
LINE
  5
281
330
6C
100
AcDbEntity
  8
Visible (ISO)
100
AcDbLine
 10
34111.57137023605
 20
13412.90796141908
 30
0.0
 11
34111.57137023605
 21
13836.90796141908
 31
0.0
  0
LINE
  5
282
330
6C
100
AcDbEntity
  8
Visible (ISO)
100
AcDbLine
 10
34103.57137023605
 20
13836.90796141908
 30
0.0
 11
34103.57137023605
 21
13412.90796141908
 31
0.0
  0
LINE
  5
283
330
6C
100
AcDbEntity
  8
Visible (ISO)
100
AcDbLine
 10
32111.57137023606
 20
13844.90796141908
 30
0.0
 11
32103.57137023607
 21
13852.90796141908
 31
0.0
  0
LINE
  5
284
330
6C
100
AcDbEntity
  8
Visible (ISO)
100
AcDbLine
 10
32111.57137023606
 20
13852.90796141908
 30
0.0
 11
32111.57137023606
 21
13844.90796141908
 31
0.0
  0
LINE
  5
285
330
6C
100
AcDbEntity
  8
Visible (ISO)
100
AcDbLine
 10
32103.57137023607
 20
13852.90796141908
 30
0.0
 11
32111.57137023606
 21
13852.90796141908
 31
0.0
  0
LINE
  5
286
330
6C
100
AcDbEntity
  8
Visible (ISO)
100
AcDbLine
 10
32111.57137023606
 20
14276.90796141908
 30
0.0
 11
32103.57137023606
 21
14276.90796141908
 31
0.0
  0
LINE
  5
287
330
6C
100
AcDbEntity
  8
Visible (ISO)
100
AcDbLine
 10
32111.57137023606
 20
14284.90796141908
 30
0.0
 11
32111.57137023606
 21
14276.90796141908
 31
0.0
  0
LINE
  5
288
330
6C
100
AcDbEntity
  8
Visible (ISO)
100
AcDbLine
 10
32103.57137023606
 20
14276.90796141908
 30
0.0
 11
32111.57137023606
 21
14284.90796141908
 31
0.0
  0
LINE
  5
289
330
6C
100
AcDbEntity
  8
Visible (ISO)
100
AcDbLine
 10
33095.57137023606
 20
13852.90796141908
 30
0.0
 11
33103.57137023605
 21
13852.90796141908
 31
0.0
  0
LINE
  5
28A
330
6C
100
AcDbEntity
  8
Visible (ISO)
100
AcDbLine
 10
33095.57137023606
 20
13844.90796141908
 30
0.0
 11
33095.57137023606
 21
13852.90796141908
 31
0.0
  0
LINE
  5
28B
330
6C
100
AcDbEntity
  8
Visible (ISO)
100
AcDbLine
 10
33103.57137023605
 20
13852.90796141908
 30
0.0
 11
33095.57137023606
 21
13844.90796141908
 31
0.0
  0
LINE
  5
28C
330
6C
100
AcDbEntity
  8
Visible (ISO)
100
AcDbLine
 10
33095.57137023606
 20
13852.90796141908
 30
0.0
 11
32928.57137023607
 21
13852.90796141908
 31
0.0
  0
LINE
  5
28D
330
6C
100
AcDbEntity
  8
Visible (ISO)
100
AcDbLine
 10
32828.57137023606
 20
13852.90796141908
 30
0.0
 11
32328.57137023608
 21
13852.90796141908
 31
0.0
  0
LINE
  5
28E
330
6C
100
AcDbEntity
  8
Visible (ISO)
100
AcDbLine
 10
32228.57137023609
 20
13852.90796141908
 30
0.0
 11
32111.57137023606
 21
13852.90796141908
 31
0.0
  0
LINE
  5
28F
330
6C
100
AcDbEntity
  8
Visible (ISO)
100
AcDbLine
 10
32111.57137023606
 20
13844.90796141908
 30
0.0
 11
32228.57137023609
 21
13844.90796141908
 31
0.0
  0
LINE
  5
290
330
6C
100
AcDbEntity
  8
Visible (ISO)
100
AcDbLine
 10
32328.57137023608
 20
13844.90796141908
 30
0.0
 11
32828.57137023606
 21
13844.90796141908
 31
0.0
  0
LINE
  5
291
330
6C
100
AcDbEntity
  8
Visible (ISO)
100
AcDbLine
 10
32928.57137023607
 20
13844.90796141908
 30
0.0
 11
33095.57137023606
 21
13844.90796141908
 31
0.0
  0
LINE
  5
292
330
6C
100
AcDbEntity
  8
Visible (ISO)
100
AcDbLine
 10
33095.57137023606
 20
14284.90796141908
 30
0.0
 11
33103.57137023606
 21
14276.90796141908
 31
0.0
  0
LINE
  5
293
330
6C
100
AcDbEntity
  8
Visible (ISO)
100
AcDbLine
 10
33095.57137023606
 20
14276.90796141908
 30
0.0
 11
33095.57137023606
 21
14284.90796141908
 31
0.0
  0
LINE
  5
294
330
6C
100
AcDbEntity
  8
Visible (ISO)
100
AcDbLine
 10
33103.57137023606
 20
14276.90796141908
 30
0.0
 11
33095.57137023606
 21
14276.90796141908
 31
0.0
  0
LINE
  5
295
330
6C
100
AcDbEntity
  8
Visible (ISO)
100
AcDbLine
 10
33095.57137023606
 20
14284.90796141908
 30
0.0
 11
32928.57137023607
 21
14284.90796141908
 31
0.0
  0
LINE
  5
296
330
6C
100
AcDbEntity
  8
Visible (ISO)
100
AcDbLine
 10
32828.57137023606
 20
14284.90796141908
 30
0.0
 11
32328.57137023608
 21
14284.90796141908
 31
0.0
  0
LINE
  5
297
330
6C
100
AcDbEntity
  8
Visible (ISO)
100
AcDbLine
 10
32228.57137023609
 20
14284.90796141908
 30
0.0
 11
32111.57137023606
 21
14284.90796141908
 31
0.0
  0
LINE
  5
298
330
6C
100
AcDbEntity
  8
Visible (ISO)
100
AcDbLine
 10
32111.57137023606
 20
14276.90796141908
 30
0.0
 11
32228.57137023609
 21
14276.90796141908
 31
0.0
  0
LINE
  5
299
330
6C
100
AcDbEntity
  8
Visible (ISO)
100
AcDbLine
 10
32328.57137023608
 20
14276.90796141908
 30
0.0
 11
32828.57137023606
 21
14276.90796141908
 31
0.0
  0
LINE
  5
29A
330
6C
100
AcDbEntity
  8
Visible (ISO)
100
AcDbLine
 10
32928.57137023607
 20
14276.90796141908
 30
0.0
 11
33095.57137023606
 21
14276.90796141908
 31
0.0
  0
LINE
  5
29B
330
6C
100
AcDbEntity
  8
Visible (ISO)
100
AcDbLine
 10
33095.57137023606
 20
14276.90796141908
 30
0.0
 11
33095.57137023606
 21
13852.90796141908
 31
0.0
  0
LINE
  5
29C
330
6C
100
AcDbEntity
  8
Visible (ISO)
100
AcDbLine
 10
33103.57137023605
 20
13852.90796141908
 30
0.0
 11
33103.57137023605
 21
14276.90796141908
 31
0.0
  0
LINE
  5
29D
330
6C
100
AcDbEntity
  8
Visible (ISO)
100
AcDbLine
 10
32111.57137023606
 20
13852.90796141908
 30
0.0
 11
32111.57137023606
 21
14276.90796141908
 31
0.0
  0
LINE
  5
29E
330
6C
100
AcDbEntity
  8
Visible (ISO)
100
AcDbLine
 10
32103.57137023606
 20
14276.90796141908
 30
0.0
 11
32103.57137023606
 21
13852.90796141908
 31
0.0
  0
LINE
  5
29F
330
6C
100
AcDbEntity
  8
Visible (ISO)
100
AcDbLine
 10
35103.36932920718
 20
13852.90796141908
 30
0.0
 11
35103.57137023604
 21
13852.90796141908
 31
0.0
  0
LINE
  5
2A0
330
6C
100
AcDbEntity
  8
Visible (ISO)
100
AcDbLine
 10
35095.57137023604
 20
13844.90796141908
 30
0.0
 11
35095.57137023604
 21
13845.11000244795
 31
0.0
  0
LINE
  5
2A1
330
6C
100
AcDbEntity
  8
Visible (ISO)
100
AcDbLine
 10
35103.57137023604
 20
13852.90796141908
 30
0.0
 11
35103.31302762282
 21
13852.64961880586
 31
0.0
  0
LINE
  5
2A2
330
6C
100
AcDbEntity
  8
Visible (ISO)
100
AcDbLine
 10
35095.82971284927
 20
13845.16630403231
 30
0.0
 11
35095.57137023604
 21
13844.90796141908
 31
0.0
  0
LINE
  5
2A3
330
6C
100
AcDbEntity
  8
Visible (ISO)
100
AcDbLine
 10
35095.57137023604
 20
14284.90796141908
 30
0.0
 11
35103.57137023604
 21
14276.90796141908
 31
0.0
  0
LINE
  5
2A4
330
6C
100
AcDbEntity
  8
Visible (ISO)
100
AcDbLine
 10
35095.57137023604
 20
14276.90796141908
 30
0.0
 11
35095.57137023604
 21
14284.90796141908
 31
0.0
  0
LINE
  5
2A5
330
6C
100
AcDbEntity
  8
Visible (ISO)
100
AcDbLine
 10
35103.57137023604
 20
14276.90796141908
 30
0.0
 11
35095.57137023604
 21
14276.90796141908
 31
0.0
  0
LINE
  5
2A6
330
6C
100
AcDbEntity
  8
Visible (ISO)
100
AcDbLine
 10
34111.57137023605
 20
13844.90796141908
 30
0.0
 11
34103.57137023605
 21
13852.90796141908
 31
0.0
  0
LINE
  5
2A7
330
6C
100
AcDbEntity
  8
Visible (ISO)
100
AcDbLine
 10
34111.57137023605
 20
13852.90796141908
 30
0.0
 11
34111.57137023605
 21
13844.90796141908
 31
0.0
  0
LINE
  5
2A8
330
6C
100
AcDbEntity
  8
Visible (ISO)
100
AcDbLine
 10
34103.57137023605
 20
13852.90796141908
 30
0.0
 11
34111.57137023605
 21
13852.90796141908
 31
0.0
  0
LINE
  5
2A9
330
6C
100
AcDbEntity
  8
Visible (ISO)
100
AcDbLine
 10
34111.57137023605
 20
13844.90796141908
 30
0.0
 11
34178.57137023608
 21
13844.90796141908
 31
0.0
  0
LINE
  5
2AA
330
6C
100
AcDbEntity
  8
Visible (ISO)
100
AcDbLine
 10
34278.57137023607
 20
13844.90796141908
 30
0.0
 11
34861.57137023604
 21
13844.90796141908
 31
0.0
  0
LINE
  5
2AB
330
6C
100
AcDbEntity
  8
Visible (ISO)
100
AcDbLine
 10
34853.77341126491
 20
13852.90796141908
 30
0.0
 11
34278.57137023607
 21
13852.90796141908
 31
0.0
  0
LINE
  5
2AC
330
6C
100
AcDbEntity
  8
Visible (ISO)
100
AcDbLine
 10
34178.57137023608
 20
13852.90796141908
 30
0.0
 11
34111.57137023605
 21
13852.90796141908
 31
0.0
  0
LINE
  5
2AD
330
6C
100
AcDbEntity
  8
Visible (ISO)
100
AcDbLine
 10
34111.57137023605
 20
14276.90796141908
 30
0.0
 11
34103.57137023605
 21
14276.90796141908
 31
0.0
  0
LINE
  5
2AE
330
6C
100
AcDbEntity
  8
Visible (ISO)
100
AcDbLine
 10
34111.57137023605
 20
14284.90796141908
 30
0.0
 11
34111.57137023605
 21
14276.90796141908
 31
0.0
  0
LINE
  5
2AF
330
6C
100
AcDbEntity
  8
Visible (ISO)
100
AcDbLine
 10
34103.57137023605
 20
14276.90796141908
 30
0.0
 11
34111.57137023605
 21
14284.90796141908
 31
0.0
  0
LINE
  5
2B0
330
6C
100
AcDbEntity
  8
Visible (ISO)
100
AcDbLine
 10
35095.57137023604
 20
14284.90796141908
 30
0.0
 11
34278.57137023607
 21
14284.90796141908
 31
0.0
  0
LINE
  5
2B1
330
6C
100
AcDbEntity
  8
Visible (ISO)
100
AcDbLine
 10
34178.57137023608
 20
14284.90796141908
 30
0.0
 11
34111.57137023605
 21
14284.90796141908
 31
0.0
  0
LINE
  5
2B2
330
6C
100
AcDbEntity
  8
Visible (ISO)
100
AcDbLine
 10
34111.57137023605
 20
14276.90796141908
 30
0.0
 11
34178.57137023608
 21
14276.90796141908
 31
0.0
  0
LINE
  5
2B3
330
6C
100
AcDbEntity
  8
Visible (ISO)
100
AcDbLine
 10
34278.57137023607
 20
14276.90796141908
 30
0.0
 11
35095.57137023604
 21
14276.90796141908
 31
0.0
  0
LINE
  5
2B4
330
6C
100
AcDbEntity
  8
Visible (ISO)
100
AcDbLine
 10
34111.57137023605
 20
13852.90796141908
 30
0.0
 11
34111.57137023605
 21
14276.90796141908
 31
0.0
  0
LINE
  5
2B5
330
6C
100
AcDbEntity
  8
Visible (ISO)
100
AcDbLine
 10
34103.57137023605
 20
14276.90796141908
 30
0.0
 11
34103.57137023605
 21
13852.90796141908
 31
0.0
  0
LINE
  5
2B6
330
6C
100
AcDbEntity
  8
Visible (ISO)
100
AcDbLine
 10
35095.57137023604
 20
14276.90796141908
 30
0.0
 11
35095.57137023604
 21
13924.70592039021
 31
0.0
  0
LINE
  5
2B7
330
6C
100
AcDbEntity
  8
Visible (ISO)
100
AcDbLine
 10
35103.57137023604
 20
13852.90796141908
 30
0.0
 11
35103.57137023604
 21
13854.90796141908
 31
0.0
  0
LINE
  5
2B8
330
6C
100
AcDbEntity
  8
Visible (ISO)
100
AcDbLine
 10
35103.57137023604
 20
13914.90796141908
 30
0.0
 11
35103.57137023604
 21
14276.90796141908
 31
0.0
  0
LINE
  5
2B9
330
6C
100
AcDbEntity
  8
Visible (ISO)
100
AcDbLine
 10
32111.57137023606
 20
14284.90796141908
 30
0.0
 11
32103.57137023606
 21
14292.90796141908
 31
0.0
  0
LINE
  5
2BA
330
6C
100
AcDbEntity
  8
Visible (ISO)
100
AcDbLine
 10
32111.57137023606
 20
14292.90796141908
 30
0.0
 11
32111.57137023606
 21
14284.90796141908
 31
0.0
  0
LINE
  5
2BB
330
6C
100
AcDbEntity
  8
Visible (ISO)
100
AcDbLine
 10
32103.57137023606
 20
14292.90796141908
 30
0.0
 11
32111.57137023606
 21
14292.90796141908
 31
0.0
  0
LINE
  5
2BC
330
6C
100
AcDbEntity
  8
Visible (ISO)
100
AcDbLine
 10
32111.57137023606
 20
14716.90796141908
 30
0.0
 11
32103.57137023606
 21
14716.90796141908
 31
0.0
  0
LINE
  5
2BD
330
6C
100
AcDbEntity
  8
Visible (ISO)
100
AcDbLine
 10
32111.57137023606
 20
14724.90796141908
 30
0.0
 11
32111.57137023606
 21
14716.90796141908
 31
0.0
  0
LINE
  5
2BE
330
6C
100
AcDbEntity
  8
Visible (ISO)
100
AcDbLine
 10
32103.57137023606
 20
14716.90796141908
 30
0.0
 11
32111.57137023606
 21
14724.90796141908
 31
0.0
  0
LINE
  5
2BF
330
6C
100
AcDbEntity
  8
Visible (ISO)
100
AcDbLine
 10
33095.57137023606
 20
14292.90796141908
 30
0.0
 11
33103.57137023605
 21
14292.90796141908
 31
0.0
  0
LINE
  5
2C0
330
6C
100
AcDbEntity
  8
Visible (ISO)
100
AcDbLine
 10
33095.57137023606
 20
14284.90796141908
 30
0.0
 11
33095.57137023606
 21
14292.90796141908
 31
0.0
  0
LINE
  5
2C1
330
6C
100
AcDbEntity
  8
Visible (ISO)
100
AcDbLine
 10
33103.57137023605
 20
14292.90796141908
 30
0.0
 11
33095.57137023606
 21
14284.90796141908
 31
0.0
  0
LINE
  5
2C2
330
6C
100
AcDbEntity
  8
Visible (ISO)
100
AcDbLine
 10
33095.57137023606
 20
14292.90796141908
 30
0.0
 11
32928.57137023607
 21
14292.90796141908
 31
0.0
  0
LINE
  5
2C3
330
6C
100
AcDbEntity
  8
Visible (ISO)
100
AcDbLine
 10
32828.57137023606
 20
14292.90796141908
 30
0.0
 11
32328.57137023608
 21
14292.90796141908
 31
0.0
  0
LINE
  5
2C4
330
6C
100
AcDbEntity
  8
Visible (ISO)
100
AcDbLine
 10
32228.57137023608
 20
14292.90796141908
 30
0.0
 11
32111.57137023606
 21
14292.90796141908
 31
0.0
  0
LINE
  5
2C5
330
6C
100
AcDbEntity
  8
Visible (ISO)
100
AcDbLine
 10
32111.57137023606
 20
14284.90796141908
 30
0.0
 11
32228.57137023608
 21
14284.90796141908
 31
0.0
  0
LINE
  5
2C6
330
6C
100
AcDbEntity
  8
Visible (ISO)
100
AcDbLine
 10
32328.57137023608
 20
14284.90796141908
 30
0.0
 11
32828.57137023606
 21
14284.90796141908
 31
0.0
  0
LINE
  5
2C7
330
6C
100
AcDbEntity
  8
Visible (ISO)
100
AcDbLine
 10
32928.57137023607
 20
14284.90796141908
 30
0.0
 11
33095.57137023606
 21
14284.90796141908
 31
0.0
  0
LINE
  5
2C8
330
6C
100
AcDbEntity
  8
Visible (ISO)
100
AcDbLine
 10
33095.57137023606
 20
14724.90796141908
 30
0.0
 11
33103.57137023605
 21
14716.90796141908
 31
0.0
  0
LINE
  5
2C9
330
6C
100
AcDbEntity
  8
Visible (ISO)
100
AcDbLine
 10
33095.57137023606
 20
14716.90796141908
 30
0.0
 11
33095.57137023606
 21
14724.90796141908
 31
0.0
  0
LINE
  5
2CA
330
6C
100
AcDbEntity
  8
Visible (ISO)
100
AcDbLine
 10
33103.57137023605
 20
14716.90796141908
 30
0.0
 11
33095.57137023606
 21
14716.90796141908
 31
0.0
  0
LINE
  5
2CB
330
6C
100
AcDbEntity
  8
Visible (ISO)
100
AcDbLine
 10
33095.57137023606
 20
14724.90796141908
 30
0.0
 11
32928.57137023607
 21
14724.90796141908
 31
0.0
  0
LINE
  5
2CC
330
6C
100
AcDbEntity
  8
Visible (ISO)
100
AcDbLine
 10
32828.57137023606
 20
14724.90796141908
 30
0.0
 11
32328.57137023608
 21
14724.90796141908
 31
0.0
  0
LINE
  5
2CD
330
6C
100
AcDbEntity
  8
Visible (ISO)
100
AcDbLine
 10
32228.57137023609
 20
14724.90796141908
 30
0.0
 11
32111.57137023606
 21
14724.90796141908
 31
0.0
  0
LINE
  5
2CE
330
6C
100
AcDbEntity
  8
Visible (ISO)
100
AcDbLine
 10
32111.57137023606
 20
14716.90796141908
 30
0.0
 11
32228.57137023609
 21
14716.90796141908
 31
0.0
  0
LINE
  5
2CF
330
6C
100
AcDbEntity
  8
Visible (ISO)
100
AcDbLine
 10
32328.57137023608
 20
14716.90796141908
 30
0.0
 11
32828.57137023606
 21
14716.90796141908
 31
0.0
  0
LINE
  5
2D0
330
6C
100
AcDbEntity
  8
Visible (ISO)
100
AcDbLine
 10
32928.57137023607
 20
14716.90796141908
 30
0.0
 11
33095.57137023606
 21
14716.90796141908
 31
0.0
  0
LINE
  5
2D1
330
6C
100
AcDbEntity
  8
Visible (ISO)
100
AcDbLine
 10
33095.57137023606
 20
14716.90796141908
 30
0.0
 11
33095.57137023606
 21
14292.90796141908
 31
0.0
  0
LINE
  5
2D2
330
6C
100
AcDbEntity
  8
Visible (ISO)
100
AcDbLine
 10
33103.57137023605
 20
14292.90796141908
 30
0.0
 11
33103.57137023605
 21
14294.90796141908
 31
0.0
  0
LINE
  5
2D3
330
6C
100
AcDbEntity
  8
Visible (ISO)
100
AcDbLine
 10
33103.57137023605
 20
14354.90796141908
 30
0.0
 11
33103.57137023605
 21
14716.90796141908
 31
0.0
  0
LINE
  5
2D4
330
6C
100
AcDbEntity
  8
Visible (ISO)
100
AcDbLine
 10
32111.57137023606
 20
14292.90796141908
 30
0.0
 11
32111.57137023606
 21
14716.90796141908
 31
0.0
  0
LINE
  5
2D5
330
6C
100
AcDbEntity
  8
Visible (ISO)
100
AcDbLine
 10
32103.57137023606
 20
14716.90796141908
 30
0.0
 11
32103.57137023606
 21
14292.90796141908
 31
0.0
  0
LINE
  5
2D6
330
6C
100
AcDbEntity
  8
Visible (ISO)
100
AcDbLine
 10
35095.57137023604
 20
14292.90796141908
 30
0.0
 11
35103.57137023604
 21
14292.90796141908
 31
0.0
  0
LINE
  5
2D7
330
6C
100
AcDbEntity
  8
Visible (ISO)
100
AcDbLine
 10
35095.57137023604
 20
14284.90796141908
 30
0.0
 11
35095.57137023604
 21
14292.90796141908
 31
0.0
  0
LINE
  5
2D8
330
6C
100
AcDbEntity
  8
Visible (ISO)
100
AcDbLine
 10
35103.57137023604
 20
14292.90796141908
 30
0.0
 11
35095.57137023604
 21
14284.90796141908
 31
0.0
  0
LINE
  5
2D9
330
6C
100
AcDbEntity
  8
Visible (ISO)
100
AcDbLine
 10
35095.57137023604
 20
14724.90796141908
 30
0.0
 11
35103.57137023604
 21
14716.90796141908
 31
0.0
  0
LINE
  5
2DA
330
6C
100
AcDbEntity
  8
Visible (ISO)
100
AcDbLine
 10
35095.57137023604
 20
14716.90796141908
 30
0.0
 11
35095.57137023604
 21
14724.90796141908
 31
0.0
  0
LINE
  5
2DB
330
6C
100
AcDbEntity
  8
Visible (ISO)
100
AcDbLine
 10
35103.57137023604
 20
14716.90796141908
 30
0.0
 11
35095.57137023604
 21
14716.90796141908
 31
0.0
  0
LINE
  5
2DC
330
6C
100
AcDbEntity
  8
Visible (ISO)
100
AcDbLine
 10
34111.57137023605
 20
14284.90796141908
 30
0.0
 11
34103.57137023605
 21
14292.90796141908
 31
0.0
  0
LINE
  5
2DD
330
6C
100
AcDbEntity
  8
Visible (ISO)
100
AcDbLine
 10
34111.57137023605
 20
14292.90796141908
 30
0.0
 11
34111.57137023605
 21
14284.90796141908
 31
0.0
  0
LINE
  5
2DE
330
6C
100
AcDbEntity
  8
Visible (ISO)
100
AcDbLine
 10
34103.57137023605
 20
14292.90796141908
 30
0.0
 11
34111.57137023605
 21
14292.90796141908
 31
0.0
  0
LINE
  5
2DF
330
6C
100
AcDbEntity
  8
Visible (ISO)
100
AcDbLine
 10
34111.57137023605
 20
14284.90796141908
 30
0.0
 11
34178.57137023608
 21
14284.90796141908
 31
0.0
  0
LINE
  5
2E0
330
6C
100
AcDbEntity
  8
Visible (ISO)
100
AcDbLine
 10
34278.57137023607
 20
14284.90796141908
 30
0.0
 11
35095.57137023604
 21
14284.90796141908
 31
0.0
  0
LINE
  5
2E1
330
6C
100
AcDbEntity
  8
Visible (ISO)
100
AcDbLine
 10
35095.57137023604
 20
14292.90796141908
 30
0.0
 11
34278.57137023607
 21
14292.90796141908
 31
0.0
  0
LINE
  5
2E2
330
6C
100
AcDbEntity
  8
Visible (ISO)
100
AcDbLine
 10
34178.57137023608
 20
14292.90796141908
 30
0.0
 11
34111.57137023605
 21
14292.90796141908
 31
0.0
  0
LINE
  5
2E3
330
6C
100
AcDbEntity
  8
Visible (ISO)
100
AcDbLine
 10
34111.57137023605
 20
14716.90796141908
 30
0.0
 11
34103.57137023605
 21
14716.90796141908
 31
0.0
  0
LINE
  5
2E4
330
6C
100
AcDbEntity
  8
Visible (ISO)
100
AcDbLine
 10
34111.57137023605
 20
14724.90796141908
 30
0.0
 11
34111.57137023605
 21
14716.90796141908
 31
0.0
  0
LINE
  5
2E5
330
6C
100
AcDbEntity
  8
Visible (ISO)
100
AcDbLine
 10
34103.57137023605
 20
14716.90796141908
 30
0.0
 11
34111.57137023605
 21
14724.90796141908
 31
0.0
  0
LINE
  5
2E6
330
6C
100
AcDbEntity
  8
Visible (ISO)
100
AcDbLine
 10
35095.57137023604
 20
14724.90796141908
 30
0.0
 11
34278.57137023607
 21
14724.90796141908
 31
0.0
  0
LINE
  5
2E7
330
6C
100
AcDbEntity
  8
Visible (ISO)
100
AcDbLine
 10
34178.57137023608
 20
14724.90796141908
 30
0.0
 11
34111.57137023605
 21
14724.90796141908
 31
0.0
  0
LINE
  5
2E8
330
6C
100
AcDbEntity
  8
Visible (ISO)
100
AcDbLine
 10
34111.57137023605
 20
14716.90796141908
 30
0.0
 11
34178.57137023608
 21
14716.90796141908
 31
0.0
  0
LINE
  5
2E9
330
6C
100
AcDbEntity
  8
Visible (ISO)
100
AcDbLine
 10
34278.57137023607
 20
14716.90796141908
 30
0.0
 11
35095.57137023604
 21
14716.90796141908
 31
0.0
  0
LINE
  5
2EA
330
6C
100
AcDbEntity
  8
Visible (ISO)
100
AcDbLine
 10
34111.57137023605
 20
14292.90796141908
 30
0.0
 11
34111.57137023605
 21
14716.90796141908
 31
0.0
  0
LINE
  5
2EB
330
6C
100
AcDbEntity
  8
Visible (ISO)
100
AcDbLine
 10
34103.57137023605
 20
14716.90796141908
 30
0.0
 11
34103.57137023605
 21
14354.90796141908
 31
0.0
  0
LINE
  5
2EC
330
6C
100
AcDbEntity
  8
Visible (ISO)
100
AcDbLine
 10
34103.57137023605
 20
14294.90796141908
 30
0.0
 11
34103.57137023605
 21
14292.90796141908
 31
0.0
  0
LINE
  5
2ED
330
6C
100
AcDbEntity
  8
Visible (ISO)
100
AcDbLine
 10
35095.57137023604
 20
14716.90796141908
 30
0.0
 11
35095.57137023604
 21
14292.90796141908
 31
0.0
  0
LINE
  5
2EE
330
6C
100
AcDbEntity
  8
Visible (ISO)
100
AcDbLine
 10
35103.57137023604
 20
14292.90796141908
 30
0.0
 11
35103.57137023604
 21
14716.90796141908
 31
0.0
  0
LINE
  5
2EF
330
6C
100
AcDbEntity
  8
Visible (ISO)
100
AcDbLine
 10
32111.57137023606
 20
14724.90796141908
 30
0.0
 11
32103.57137023607
 21
14732.90796141908
 31
0.0
  0
LINE
  5
2F0
330
6C
100
AcDbEntity
  8
Visible (ISO)
100
AcDbLine
 10
32111.57137023606
 20
14732.90796141908
 30
0.0
 11
32111.57137023606
 21
14724.90796141908
 31
0.0
  0
LINE
  5
2F1
330
6C
100
AcDbEntity
  8
Visible (ISO)
100
AcDbLine
 10
32103.57137023607
 20
14732.90796141908
 30
0.0
 11
32111.57137023606
 21
14732.90796141908
 31
0.0
  0
LINE
  5
2F2
330
6C
100
AcDbEntity
  8
Visible (ISO)
100
AcDbLine
 10
32111.57137023606
 20
15156.90796141908
 30
0.0
 11
32103.57137023606
 21
15156.90796141908
 31
0.0
  0
LINE
  5
2F3
330
6C
100
AcDbEntity
  8
Visible (ISO)
100
AcDbLine
 10
32111.57137023606
 20
15164.90796141908
 30
0.0
 11
32111.57137023606
 21
15156.90796141908
 31
0.0
  0
LINE
  5
2F4
330
6C
100
AcDbEntity
  8
Visible (ISO)
100
AcDbLine
 10
32103.57137023606
 20
15156.90796141908
 30
0.0
 11
32111.57137023606
 21
15164.90796141908
 31
0.0
  0
LINE
  5
2F5
330
6C
100
AcDbEntity
  8
Visible (ISO)
100
AcDbLine
 10
33095.57137023606
 20
14732.90796141908
 30
0.0
 11
33103.57137023605
 21
14732.90796141908
 31
0.0
  0
LINE
  5
2F6
330
6C
100
AcDbEntity
  8
Visible (ISO)
100
AcDbLine
 10
33095.57137023606
 20
14724.90796141908
 30
0.0
 11
33095.57137023606
 21
14732.90796141908
 31
0.0
  0
LINE
  5
2F7
330
6C
100
AcDbEntity
  8
Visible (ISO)
100
AcDbLine
 10
33103.57137023605
 20
14732.90796141908
 30
0.0
 11
33095.57137023606
 21
14724.90796141908
 31
0.0
  0
LINE
  5
2F8
330
6C
100
AcDbEntity
  8
Visible (ISO)
100
AcDbLine
 10
33095.57137023606
 20
14732.90796141908
 30
0.0
 11
32928.57137023607
 21
14732.90796141908
 31
0.0
  0
LINE
  5
2F9
330
6C
100
AcDbEntity
  8
Visible (ISO)
100
AcDbLine
 10
32828.57137023606
 20
14732.90796141908
 30
0.0
 11
32328.57137023608
 21
14732.90796141908
 31
0.0
  0
LINE
  5
2FA
330
6C
100
AcDbEntity
  8
Visible (ISO)
100
AcDbLine
 10
32228.57137023609
 20
14732.90796141908
 30
0.0
 11
32111.57137023606
 21
14732.90796141908
 31
0.0
  0
LINE
  5
2FB
330
6C
100
AcDbEntity
  8
Visible (ISO)
100
AcDbLine
 10
32111.57137023606
 20
14724.90796141908
 30
0.0
 11
32228.57137023609
 21
14724.90796141908
 31
0.0
  0
LINE
  5
2FC
330
6C
100
AcDbEntity
  8
Visible (ISO)
100
AcDbLine
 10
32328.57137023608
 20
14724.90796141908
 30
0.0
 11
32828.57137023606
 21
14724.90796141908
 31
0.0
  0
LINE
  5
2FD
330
6C
100
AcDbEntity
  8
Visible (ISO)
100
AcDbLine
 10
32928.57137023607
 20
14724.90796141908
 30
0.0
 11
33095.57137023606
 21
14724.90796141908
 31
0.0
  0
LINE
  5
2FE
330
6C
100
AcDbEntity
  8
Visible (ISO)
100
AcDbLine
 10
33095.57137023606
 20
15164.90796141908
 30
0.0
 11
33103.57137023605
 21
15156.90796141908
 31
0.0
  0
LINE
  5
2FF
330
6C
100
AcDbEntity
  8
Visible (ISO)
100
AcDbLine
 10
33095.57137023606
 20
15156.90796141908
 30
0.0
 11
33095.57137023606
 21
15164.90796141908
 31
0.0
  0
LINE
  5
300
330
6C
100
AcDbEntity
  8
Visible (ISO)
100
AcDbLine
 10
33103.57137023605
 20
15156.90796141908
 30
0.0
 11
33095.57137023606
 21
15156.90796141908
 31
0.0
  0
LINE
  5
301
330
6C
100
AcDbEntity
  8
Visible (ISO)
100
AcDbLine
 10
33095.57137023606
 20
15164.90796141908
 30
0.0
 11
32928.57137023607
 21
15164.90796141908
 31
0.0
  0
LINE
  5
302
330
6C
100
AcDbEntity
  8
Visible (ISO)
100
AcDbLine
 10
32828.57137023606
 20
15164.90796141908
 30
0.0
 11
32328.57137023608
 21
15164.90796141908
 31
0.0
  0
LINE
  5
303
330
6C
100
AcDbEntity
  8
Visible (ISO)
100
AcDbLine
 10
32228.57137023609
 20
15164.90796141908
 30
0.0
 11
32111.57137023606
 21
15164.90796141908
 31
0.0
  0
LINE
  5
304
330
6C
100
AcDbEntity
  8
Visible (ISO)
100
AcDbLine
 10
32111.57137023606
 20
15156.90796141908
 30
0.0
 11
32228.57137023609
 21
15156.90796141908
 31
0.0
  0
LINE
  5
305
330
6C
100
AcDbEntity
  8
Visible (ISO)
100
AcDbLine
 10
32328.57137023608
 20
15156.90796141908
 30
0.0
 11
32828.57137023606
 21
15156.90796141908
 31
0.0
  0
LINE
  5
306
330
6C
100
AcDbEntity
  8
Visible (ISO)
100
AcDbLine
 10
32928.57137023607
 20
15156.90796141908
 30
0.0
 11
33095.57137023606
 21
15156.90796141908
 31
0.0
  0
LINE
  5
307
330
6C
100
AcDbEntity
  8
Visible (ISO)
100
AcDbLine
 10
33095.57137023606
 20
15156.90796141908
 30
0.0
 11
33095.57137023606
 21
14732.90796141908
 31
0.0
  0
LINE
  5
308
330
6C
100
AcDbEntity
  8
Visible (ISO)
100
AcDbLine
 10
33103.57137023605
 20
14732.90796141908
 30
0.0
 11
33103.57137023605
 21
15156.90796141908
 31
0.0
  0
LINE
  5
309
330
6C
100
AcDbEntity
  8
Visible (ISO)
100
AcDbLine
 10
32111.57137023606
 20
14732.90796141908
 30
0.0
 11
32111.57137023606
 21
15156.90796141908
 31
0.0
  0
LINE
  5
30A
330
6C
100
AcDbEntity
  8
Visible (ISO)
100
AcDbLine
 10
32103.57137023606
 20
15156.90796141908
 30
0.0
 11
32103.57137023606
 21
14732.90796141908
 31
0.0
  0
LINE
  5
30B
330
6C
100
AcDbEntity
  8
Visible (ISO)
100
AcDbLine
 10
35095.57137023604
 20
14732.90796141908
 30
0.0
 11
35103.57137023604
 21
14732.90796141908
 31
0.0
  0
LINE
  5
30C
330
6C
100
AcDbEntity
  8
Visible (ISO)
100
AcDbLine
 10
35095.57137023604
 20
14724.90796141908
 30
0.0
 11
35095.57137023604
 21
14732.90796141908
 31
0.0
  0
LINE
  5
30D
330
6C
100
AcDbEntity
  8
Visible (ISO)
100
AcDbLine
 10
35103.57137023604
 20
14732.90796141908
 30
0.0
 11
35095.57137023604
 21
14724.90796141908
 31
0.0
  0
LINE
  5
30E
330
6C
100
AcDbEntity
  8
Visible (ISO)
100
AcDbLine
 10
35095.57137023604
 20
15164.90796141908
 30
0.0
 11
35103.57137023604
 21
15156.90796141908
 31
0.0
  0
LINE
  5
30F
330
6C
100
AcDbEntity
  8
Visible (ISO)
100
AcDbLine
 10
35095.57137023604
 20
15156.90796141908
 30
0.0
 11
35095.57137023604
 21
15164.90796141908
 31
0.0
  0
LINE
  5
310
330
6C
100
AcDbEntity
  8
Visible (ISO)
100
AcDbLine
 10
35103.57137023604
 20
15156.90796141908
 30
0.0
 11
35095.57137023604
 21
15156.90796141908
 31
0.0
  0
LINE
  5
311
330
6C
100
AcDbEntity
  8
Visible (ISO)
100
AcDbLine
 10
34111.57137023605
 20
14724.90796141908
 30
0.0
 11
34103.57137023605
 21
14732.90796141908
 31
0.0
  0
LINE
  5
312
330
6C
100
AcDbEntity
  8
Visible (ISO)
100
AcDbLine
 10
34111.57137023605
 20
14732.90796141908
 30
0.0
 11
34111.57137023605
 21
14724.90796141908
 31
0.0
  0
LINE
  5
313
330
6C
100
AcDbEntity
  8
Visible (ISO)
100
AcDbLine
 10
34103.57137023605
 20
14732.90796141908
 30
0.0
 11
34111.57137023605
 21
14732.90796141908
 31
0.0
  0
LINE
  5
314
330
6C
100
AcDbEntity
  8
Visible (ISO)
100
AcDbLine
 10
34111.57137023605
 20
14724.90796141908
 30
0.0
 11
34178.57137023608
 21
14724.90796141908
 31
0.0
  0
LINE
  5
315
330
6C
100
AcDbEntity
  8
Visible (ISO)
100
AcDbLine
 10
34278.57137023607
 20
14724.90796141908
 30
0.0
 11
35095.57137023604
 21
14724.90796141908
 31
0.0
  0
LINE
  5
316
330
6C
100
AcDbEntity
  8
Visible (ISO)
100
AcDbLine
 10
35095.57137023604
 20
14732.90796141908
 30
0.0
 11
34278.57137023607
 21
14732.90796141908
 31
0.0
  0
LINE
  5
317
330
6C
100
AcDbEntity
  8
Visible (ISO)
100
AcDbLine
 10
34178.57137023608
 20
14732.90796141908
 30
0.0
 11
34111.57137023605
 21
14732.90796141908
 31
0.0
  0
LINE
  5
318
330
6C
100
AcDbEntity
  8
Visible (ISO)
100
AcDbLine
 10
34111.57137023605
 20
15156.90796141908
 30
0.0
 11
34103.57137023605
 21
15156.90796141908
 31
0.0
  0
LINE
  5
319
330
6C
100
AcDbEntity
  8
Visible (ISO)
100
AcDbLine
 10
34111.57137023605
 20
15164.90796141908
 30
0.0
 11
34111.57137023605
 21
15156.90796141908
 31
0.0
  0
LINE
  5
31A
330
6C
100
AcDbEntity
  8
Visible (ISO)
100
AcDbLine
 10
34103.57137023605
 20
15156.90796141908
 30
0.0
 11
34111.57137023605
 21
15164.90796141908
 31
0.0
  0
LINE
  5
31B
330
6C
100
AcDbEntity
  8
Visible (ISO)
100
AcDbLine
 10
35095.57137023604
 20
15164.90796141908
 30
0.0
 11
34278.57137023607
 21
15164.90796141908
 31
0.0
  0
LINE
  5
31C
330
6C
100
AcDbEntity
  8
Visible (ISO)
100
AcDbLine
 10
34178.57137023608
 20
15164.90796141908
 30
0.0
 11
34111.57137023605
 21
15164.90796141908
 31
0.0
  0
LINE
  5
31D
330
6C
100
AcDbEntity
  8
Visible (ISO)
100
AcDbLine
 10
34111.57137023605
 20
15156.90796141908
 30
0.0
 11
34178.57137023608
 21
15156.90796141908
 31
0.0
  0
LINE
  5
31E
330
6C
100
AcDbEntity
  8
Visible (ISO)
100
AcDbLine
 10
34278.57137023607
 20
15156.90796141908
 30
0.0
 11
35095.57137023604
 21
15156.90796141908
 31
0.0
  0
LINE
  5
31F
330
6C
100
AcDbEntity
  8
Visible (ISO)
100
AcDbLine
 10
34111.57137023605
 20
14732.90796141908
 30
0.0
 11
34111.57137023605
 21
15156.90796141908
 31
0.0
  0
LINE
  5
320
330
6C
100
AcDbEntity
  8
Visible (ISO)
100
AcDbLine
 10
34103.57137023605
 20
15156.90796141908
 30
0.0
 11
34103.57137023605
 21
14732.90796141908
 31
0.0
  0
LINE
  5
321
330
6C
100
AcDbEntity
  8
Visible (ISO)
100
AcDbLine
 10
35095.57137023604
 20
15156.90796141908
 30
0.0
 11
35095.57137023604
 21
14732.90796141908
 31
0.0
  0
LINE
  5
322
330
6C
100
AcDbEntity
  8
Visible (ISO)
100
AcDbLine
 10
35103.57137023604
 20
14732.90796141908
 30
0.0
 11
35103.57137023604
 21
15156.90796141908
 31
0.0
  0
LINE
  5
323
330
6C
100
AcDbEntity
  8
Visible (ISO)
100
AcDbLine
 10
32111.57137023606
 20
15164.90796141908
 30
0.0
 11
32103.57137023607
 21
15172.90796141908
 31
0.0
  0
LINE
  5
324
330
6C
100
AcDbEntity
  8
Visible (ISO)
100
AcDbLine
 10
32111.57137023606
 20
15172.90796141908
 30
0.0
 11
32111.57137023606
 21
15164.90796141908
 31
0.0
  0
LINE
  5
325
330
6C
100
AcDbEntity
  8
Visible (ISO)
100
AcDbLine
 10
32103.57137023607
 20
15172.90796141908
 30
0.0
 11
32111.57137023606
 21
15172.90796141908
 31
0.0
  0
LINE
  5
326
330
6C
100
AcDbEntity
  8
Visible (ISO)
100
AcDbLine
 10
32111.57137023606
 20
15596.90796141908
 30
0.0
 11
32103.57137023606
 21
15596.90796141908
 31
0.0
  0
LINE
  5
327
330
6C
100
AcDbEntity
  8
Visible (ISO)
100
AcDbLine
 10
32111.57137023606
 20
15604.90796141908
 30
0.0
 11
32111.57137023606
 21
15596.90796141908
 31
0.0
  0
LINE
  5
328
330
6C
100
AcDbEntity
  8
Visible (ISO)
100
AcDbLine
 10
32103.57137023606
 20
15596.90796141908
 30
0.0
 11
32111.57137023606
 21
15604.90796141908
 31
0.0
  0
LINE
  5
329
330
6C
100
AcDbEntity
  8
Visible (ISO)
100
AcDbLine
 10
33095.57137023606
 20
15172.90796141908
 30
0.0
 11
33103.57137023605
 21
15172.90796141908
 31
0.0
  0
LINE
  5
32A
330
6C
100
AcDbEntity
  8
Visible (ISO)
100
AcDbLine
 10
33095.57137023606
 20
15164.90796141908
 30
0.0
 11
33095.57137023606
 21
15172.90796141908
 31
0.0
  0
LINE
  5
32B
330
6C
100
AcDbEntity
  8
Visible (ISO)
100
AcDbLine
 10
33103.57137023605
 20
15172.90796141908
 30
0.0
 11
33095.57137023606
 21
15164.90796141908
 31
0.0
  0
LINE
  5
32C
330
6C
100
AcDbEntity
  8
Visible (ISO)
100
AcDbLine
 10
33095.57137023606
 20
15172.90796141908
 30
0.0
 11
32928.57137023607
 21
15172.90796141908
 31
0.0
  0
LINE
  5
32D
330
6C
100
AcDbEntity
  8
Visible (ISO)
100
AcDbLine
 10
32828.57137023606
 20
15172.90796141908
 30
0.0
 11
32328.57137023608
 21
15172.90796141908
 31
0.0
  0
LINE
  5
32E
330
6C
100
AcDbEntity
  8
Visible (ISO)
100
AcDbLine
 10
32228.57137023609
 20
15172.90796141908
 30
0.0
 11
32111.57137023606
 21
15172.90796141908
 31
0.0
  0
LINE
  5
32F
330
6C
100
AcDbEntity
  8
Visible (ISO)
100
AcDbLine
 10
32111.57137023606
 20
15164.90796141908
 30
0.0
 11
32228.57137023609
 21
15164.90796141908
 31
0.0
  0
LINE
  5
330
330
6C
100
AcDbEntity
  8
Visible (ISO)
100
AcDbLine
 10
32328.57137023608
 20
15164.90796141908
 30
0.0
 11
32828.57137023606
 21
15164.90796141908
 31
0.0
  0
LINE
  5
331
330
6C
100
AcDbEntity
  8
Visible (ISO)
100
AcDbLine
 10
32928.57137023607
 20
15164.90796141908
 30
0.0
 11
33095.57137023606
 21
15164.90796141908
 31
0.0
  0
LINE
  5
332
330
6C
100
AcDbEntity
  8
Visible (ISO)
100
AcDbLine
 10
33095.57137023606
 20
15604.90796141908
 30
0.0
 11
33103.57137023605
 21
15596.90796141908
 31
0.0
  0
LINE
  5
333
330
6C
100
AcDbEntity
  8
Visible (ISO)
100
AcDbLine
 10
33095.57137023606
 20
15596.90796141908
 30
0.0
 11
33095.57137023606
 21
15604.90796141908
 31
0.0
  0
LINE
  5
334
330
6C
100
AcDbEntity
  8
Visible (ISO)
100
AcDbLine
 10
33103.57137023605
 20
15596.90796141908
 30
0.0
 11
33095.57137023606
 21
15596.90796141908
 31
0.0
  0
LINE
  5
335
330
6C
100
AcDbEntity
  8
Visible (ISO)
100
AcDbLine
 10
33095.57137023606
 20
15604.90796141908
 30
0.0
 11
32933.57137023607
 21
15604.90796141908
 31
0.0
  0
LINE
  5
336
330
6C
100
AcDbEntity
  8
Visible (ISO)
100
AcDbLine
 10
32828.57137023606
 20
15604.90796141908
 30
0.0
 11
32333.57137023605
 21
15604.90796141908
 31
0.0
  0
LINE
  5
337
330
6C
100
AcDbEntity
  8
Visible (ISO)
100
AcDbLine
 10
32228.57137023609
 20
15604.90796141908
 30
0.0
 11
32111.57137023606
 21
15604.90796141908
 31
0.0
  0
LINE
  5
338
330
6C
100
AcDbEntity
  8
Visible (ISO)
100
AcDbLine
 10
32111.57137023606
 20
15596.90796141908
 30
0.0
 11
32228.57137023609
 21
15596.90796141908
 31
0.0
  0
LINE
  5
339
330
6C
100
AcDbEntity
  8
Visible (ISO)
100
AcDbLine
 10
32333.57137023605
 20
15596.90796141908
 30
0.0
 11
32828.57137023606
 21
15596.90796141908
 31
0.0
  0
LINE
  5
33A
330
6C
100
AcDbEntity
  8
Visible (ISO)
100
AcDbLine
 10
32933.57137023607
 20
15596.90796141908
 30
0.0
 11
33095.57137023606
 21
15596.90796141908
 31
0.0
  0
LINE
  5
33B
330
6C
100
AcDbEntity
  8
Visible (ISO)
100
AcDbLine
 10
33095.57137023606
 20
15596.90796141908
 30
0.0
 11
33095.57137023606
 21
15172.90796141908
 31
0.0
  0
LINE
  5
33C
330
6C
100
AcDbEntity
  8
Visible (ISO)
100
AcDbLine
 10
33103.57137023605
 20
15172.90796141908
 30
0.0
 11
33103.57137023605
 21
15596.90796141908
 31
0.0
  0
LINE
  5
33D
330
6C
100
AcDbEntity
  8
Visible (ISO)
100
AcDbLine
 10
32111.57137023606
 20
15172.90796141908
 30
0.0
 11
32111.57137023606
 21
15323.05796141907
 31
0.0
  0
LINE
  5
33E
330
6C
100
AcDbEntity
  8
Visible (ISO)
100
AcDbLine
 10
32111.57137023606
 20
15356.75796141908
 30
0.0
 11
32111.57137023606
 21
15475.90796141908
 31
0.0
  0
LINE
  5
33F
330
6C
100
AcDbEntity
  8
Visible (ISO)
100
AcDbLine
 10
32111.57137023606
 20
15513.90796141908
 30
0.0
 11
32111.57137023606
 21
15596.90796141908
 31
0.0
  0
LINE
  5
340
330
6C
100
AcDbEntity
  8
Visible (ISO)
100
AcDbLine
 10
32103.57137023606
 20
15596.90796141908
 30
0.0
 11
32103.57137023606
 21
15513.90796141908
 31
0.0
  0
LINE
  5
341
330
6C
100
AcDbEntity
  8
Visible (ISO)
100
AcDbLine
 10
32103.57137023607
 20
15475.90796141908
 30
0.0
 11
32103.57137023607
 21
15356.75796141908
 31
0.0
  0
LINE
  5
342
330
6C
100
AcDbEntity
  8
Visible (ISO)
100
AcDbLine
 10
32103.57137023607
 20
15323.05796141907
 30
0.0
 11
32103.57137023607
 21
15172.90796141908
 31
0.0
  0
LINE
  5
343
330
6C
100
AcDbEntity
  8
Visible (ISO)
100
AcDbLine
 10
35095.57137023604
 20
15172.90796141908
 30
0.0
 11
35103.57137023604
 21
15172.90796141908
 31
0.0
  0
LINE
  5
344
330
6C
100
AcDbEntity
  8
Visible (ISO)
100
AcDbLine
 10
35095.57137023604
 20
15164.90796141908
 30
0.0
 11
35095.57137023604
 21
15172.90796141908
 31
0.0
  0
LINE
  5
345
330
6C
100
AcDbEntity
  8
Visible (ISO)
100
AcDbLine
 10
35103.57137023604
 20
15172.90796141908
 30
0.0
 11
35095.57137023604
 21
15164.90796141908
 31
0.0
  0
LINE
  5
346
330
6C
100
AcDbEntity
  8
Visible (ISO)
100
AcDbLine
 10
35095.57137023604
 20
15604.90796141908
 30
0.0
 11
35103.57137023604
 21
15596.90796141908
 31
0.0
  0
LINE
  5
347
330
6C
100
AcDbEntity
  8
Visible (ISO)
100
AcDbLine
 10
35095.57137023604
 20
15596.90796141908
 30
0.0
 11
35095.57137023604
 21
15604.90796141908
 31
0.0
  0
LINE
  5
348
330
6C
100
AcDbEntity
  8
Visible (ISO)
100
AcDbLine
 10
35103.57137023604
 20
15596.90796141908
 30
0.0
 11
35095.57137023604
 21
15596.90796141908
 31
0.0
  0
LINE
  5
349
330
6C
100
AcDbEntity
  8
Visible (ISO)
100
AcDbLine
 10
34111.57137023605
 20
15164.90796141908
 30
0.0
 11
34103.57137023605
 21
15172.90796141908
 31
0.0
  0
LINE
  5
34A
330
6C
100
AcDbEntity
  8
Visible (ISO)
100
AcDbLine
 10
34111.57137023605
 20
15172.90796141908
 30
0.0
 11
34111.57137023605
 21
15164.90796141908
 31
0.0
  0
LINE
  5
34B
330
6C
100
AcDbEntity
  8
Visible (ISO)
100
AcDbLine
 10
34103.57137023605
 20
15172.90796141908
 30
0.0
 11
34111.57137023605
 21
15172.90796141908
 31
0.0
  0
LINE
  5
34C
330
6C
100
AcDbEntity
  8
Visible (ISO)
100
AcDbLine
 10
34111.57137023605
 20
15164.90796141908
 30
0.0
 11
34178.57137023608
 21
15164.90796141908
 31
0.0
  0
LINE
  5
34D
330
6C
100
AcDbEntity
  8
Visible (ISO)
100
AcDbLine
 10
34278.57137023607
 20
15164.90796141908
 30
0.0
 11
35095.57137023604
 21
15164.90796141908
 31
0.0
  0
LINE
  5
34E
330
6C
100
AcDbEntity
  8
Visible (ISO)
100
AcDbLine
 10
35095.57137023604
 20
15172.90796141908
 30
0.0
 11
34278.57137023607
 21
15172.90796141908
 31
0.0
  0
LINE
  5
34F
330
6C
100
AcDbEntity
  8
Visible (ISO)
100
AcDbLine
 10
34178.57137023608
 20
15172.90796141908
 30
0.0
 11
34111.57137023605
 21
15172.90796141908
 31
0.0
  0
LINE
  5
350
330
6C
100
AcDbEntity
  8
Visible (ISO)
100
AcDbLine
 10
34111.57137023605
 20
15596.90796141908
 30
0.0
 11
34103.57137023605
 21
15596.90796141908
 31
0.0
  0
LINE
  5
351
330
6C
100
AcDbEntity
  8
Visible (ISO)
100
AcDbLine
 10
34111.57137023605
 20
15604.90796141908
 30
0.0
 11
34111.57137023605
 21
15596.90796141908
 31
0.0
  0
LINE
  5
352
330
6C
100
AcDbEntity
  8
Visible (ISO)
100
AcDbLine
 10
34103.57137023605
 20
15596.90796141908
 30
0.0
 11
34111.57137023605
 21
15604.90796141908
 31
0.0
  0
LINE
  5
353
330
6C
100
AcDbEntity
  8
Visible (ISO)
100
AcDbLine
 10
35095.57137023604
 20
15604.90796141908
 30
0.0
 11
34278.57137023607
 21
15604.90796141908
 31
0.0
  0
LINE
  5
354
330
6C
100
AcDbEntity
  8
Visible (ISO)
100
AcDbLine
 10
34173.57137023605
 20
15604.90796141908
 30
0.0
 11
34111.57137023605
 21
15604.90796141908
 31
0.0
  0
LINE
  5
355
330
6C
100
AcDbEntity
  8
Visible (ISO)
100
AcDbLine
 10
34111.57137023605
 20
15596.90796141908
 30
0.0
 11
34173.57137023606
 21
15596.90796141908
 31
0.0
  0
LINE
  5
356
330
6C
100
AcDbEntity
  8
Visible (ISO)
100
AcDbLine
 10
34278.57137023607
 20
15596.90796141908
 30
0.0
 11
35095.57137023604
 21
15596.90796141908
 31
0.0
  0
LINE
  5
357
330
6C
100
AcDbEntity
  8
Visible (ISO)
100
AcDbLine
 10
34111.57137023605
 20
15172.90796141908
 30
0.0
 11
34111.57137023605
 21
15596.90796141908
 31
0.0
  0
LINE
  5
358
330
6C
100
AcDbEntity
  8
Visible (ISO)
100
AcDbLine
 10
34103.57137023605
 20
15596.90796141908
 30
0.0
 11
34103.57137023605
 21
15172.90796141908
 31
0.0
  0
LINE
  5
359
330
6C
100
AcDbEntity
  8
Visible (ISO)
100
AcDbLine
 10
35095.57137023604
 20
15596.90796141908
 30
0.0
 11
35095.57137023604
 21
15172.90796141908
 31
0.0
  0
LINE
  5
35A
330
6C
100
AcDbEntity
  8
Visible (ISO)
100
AcDbLine
 10
35103.57137023604
 20
15172.90796141908
 30
0.0
 11
35103.57137023604
 21
15596.90796141908
 31
0.0
  0
LINE
  5
35B
330
6C
100
AcDbEntity
  8
Visible (ISO)
100
AcDbLine
 10
33111.57137023606
 20
13404.90796141909
 30
0.0
 11
33103.57137023606
 21
13412.90796141908
 31
0.0
  0
LINE
  5
35C
330
6C
100
AcDbEntity
  8
Visible (ISO)
100
AcDbLine
 10
33111.57137023606
 20
13412.90796141908
 30
0.0
 11
33111.57137023606
 21
13404.90796141909
 31
0.0
  0
LINE
  5
35D
330
6C
100
AcDbEntity
  8
Visible (ISO)
100
AcDbLine
 10
33103.57137023606
 20
13412.90796141908
 30
0.0
 11
33111.57137023606
 21
13412.90796141908
 31
0.0
  0
LINE
  5
35E
330
6C
100
AcDbEntity
  8
Visible (ISO)
100
AcDbLine
 10
33111.57137023606
 20
13836.90796141908
 30
0.0
 11
33103.57137023606
 21
13836.90796141908
 31
0.0
  0
LINE
  5
35F
330
6C
100
AcDbEntity
  8
Visible (ISO)
100
AcDbLine
 10
33111.57137023606
 20
13844.90796141908
 30
0.0
 11
33111.57137023606
 21
13836.90796141908
 31
0.0
  0
LINE
  5
360
330
6C
100
AcDbEntity
  8
Visible (ISO)
100
AcDbLine
 10
33103.57137023606
 20
13836.90796141908
 30
0.0
 11
33111.57137023606
 21
13844.90796141908
 31
0.0
  0
LINE
  5
361
330
6C
100
AcDbEntity
  8
Visible (ISO)
100
AcDbLine
 10
34095.57137023605
 20
13412.90796141908
 30
0.0
 11
34103.57137023605
 21
13412.90796141908
 31
0.0
  0
LINE
  5
362
330
6C
100
AcDbEntity
  8
Visible (ISO)
100
AcDbLine
 10
34095.57137023605
 20
13404.90796141909
 30
0.0
 11
34095.57137023605
 21
13412.90796141908
 31
0.0
  0
LINE
  5
363
330
6C
100
AcDbEntity
  8
Visible (ISO)
100
AcDbLine
 10
34103.57137023605
 20
13412.90796141908
 30
0.0
 11
34095.57137023605
 21
13404.90796141909
 31
0.0
  0
LINE
  5
364
330
6C
100
AcDbEntity
  8
Visible (ISO)
100
AcDbLine
 10
34095.57137023605
 20
13412.90796141908
 30
0.0
 11
33111.57137023606
 21
13412.90796141908
 31
0.0
  0
LINE
  5
365
330
6C
100
AcDbEntity
  8
Visible (ISO)
100
AcDbLine
 10
34095.57137023605
 20
13844.90796141908
 30
0.0
 11
34103.57137023605
 21
13836.90796141908
 31
0.0
  0
LINE
  5
366
330
6C
100
AcDbEntity
  8
Visible (ISO)
100
AcDbLine
 10
34095.57137023605
 20
13836.90796141908
 30
0.0
 11
34095.57137023605
 21
13844.90796141908
 31
0.0
  0
LINE
  5
367
330
6C
100
AcDbEntity
  8
Visible (ISO)
100
AcDbLine
 10
34103.57137023605
 20
13836.90796141908
 30
0.0
 11
34095.57137023605
 21
13836.90796141908
 31
0.0
  0
LINE
  5
368
330
6C
100
AcDbEntity
  8
Visible (ISO)
100
AcDbLine
 10
34095.57137023605
 20
13844.90796141908
 30
0.0
 11
33111.57137023606
 21
13844.90796141908
 31
0.0
  0
LINE
  5
369
330
6C
100
AcDbEntity
  8
Visible (ISO)
100
AcDbLine
 10
33111.57137023606
 20
13836.90796141908
 30
0.0
 11
34095.57137023605
 21
13836.90796141908
 31
0.0
  0
LINE
  5
36A
330
6C
100
AcDbEntity
  8
Visible (ISO)
100
AcDbLine
 10
34095.57137023605
 20
13836.90796141908
 30
0.0
 11
34095.57137023605
 21
13412.90796141908
 31
0.0
  0
LINE
  5
36B
330
6C
100
AcDbEntity
  8
Visible (ISO)
100
AcDbLine
 10
34103.57137023605
 20
13412.90796141908
 30
0.0
 11
34103.57137023605
 21
13836.90796141908
 31
0.0
  0
LINE
  5
36C
330
6C
100
AcDbEntity
  8
Visible (ISO)
100
AcDbLine
 10
33111.57137023606
 20
13412.90796141908
 30
0.0
 11
33111.57137023606
 21
13836.90796141908
 31
0.0
  0
LINE
  5
36D
330
6C
100
AcDbEntity
  8
Visible (ISO)
100
AcDbLine
 10
33103.57137023606
 20
13836.90796141908
 30
0.0
 11
33103.57137023606
 21
13412.90796141908
 31
0.0
  0
LINE
  5
36E
330
6C
100
AcDbEntity
  8
Visible (ISO)
100
AcDbLine
 10
33111.57137023606
 20
13844.90796141908
 30
0.0
 11
33103.57137023606
 21
13852.90796141908
 31
0.0
  0
LINE
  5
36F
330
6C
100
AcDbEntity
  8
Visible (ISO)
100
AcDbLine
 10
33111.57137023606
 20
13852.90796141908
 30
0.0
 11
33111.57137023606
 21
13844.90796141908
 31
0.0
  0
LINE
  5
370
330
6C
100
AcDbEntity
  8
Visible (ISO)
100
AcDbLine
 10
33103.57137023606
 20
13852.90796141908
 30
0.0
 11
33111.57137023606
 21
13852.90796141908
 31
0.0
  0
LINE
  5
371
330
6C
100
AcDbEntity
  8
Visible (ISO)
100
AcDbLine
 10
33111.57137023606
 20
14276.90796141908
 30
0.0
 11
33103.57137023606
 21
14276.90796141908
 31
0.0
  0
LINE
  5
372
330
6C
100
AcDbEntity
  8
Visible (ISO)
100
AcDbLine
 10
33111.57137023606
 20
14284.90796141908
 30
0.0
 11
33111.57137023606
 21
14276.90796141908
 31
0.0
  0
LINE
  5
373
330
6C
100
AcDbEntity
  8
Visible (ISO)
100
AcDbLine
 10
33103.57137023606
 20
14276.90796141908
 30
0.0
 11
33111.57137023606
 21
14284.90796141908
 31
0.0
  0
LINE
  5
374
330
6C
100
AcDbEntity
  8
Visible (ISO)
100
AcDbLine
 10
34095.57137023605
 20
13852.90796141908
 30
0.0
 11
34103.57137023605
 21
13852.90796141908
 31
0.0
  0
LINE
  5
375
330
6C
100
AcDbEntity
  8
Visible (ISO)
100
AcDbLine
 10
34095.57137023605
 20
13844.90796141908
 30
0.0
 11
34095.57137023605
 21
13852.90796141908
 31
0.0
  0
LINE
  5
376
330
6C
100
AcDbEntity
  8
Visible (ISO)
100
AcDbLine
 10
34103.57137023605
 20
13852.90796141908
 30
0.0
 11
34095.57137023605
 21
13844.90796141908
 31
0.0
  0
LINE
  5
377
330
6C
100
AcDbEntity
  8
Visible (ISO)
100
AcDbLine
 10
34095.57137023605
 20
13852.90796141908
 30
0.0
 11
33111.57137023606
 21
13852.90796141908
 31
0.0
  0
LINE
  5
378
330
6C
100
AcDbEntity
  8
Visible (ISO)
100
AcDbLine
 10
33111.57137023606
 20
13844.90796141908
 30
0.0
 11
34095.57137023605
 21
13844.90796141908
 31
0.0
  0
LINE
  5
379
330
6C
100
AcDbEntity
  8
Visible (ISO)
100
AcDbLine
 10
34095.57137023605
 20
14284.90796141908
 30
0.0
 11
34103.57137023605
 21
14276.90796141908
 31
0.0
  0
LINE
  5
37A
330
6C
100
AcDbEntity
  8
Visible (ISO)
100
AcDbLine
 10
34095.57137023605
 20
14276.90796141908
 30
0.0
 11
34095.57137023605
 21
14284.90796141908
 31
0.0
  0
LINE
  5
37B
330
6C
100
AcDbEntity
  8
Visible (ISO)
100
AcDbLine
 10
34103.57137023605
 20
14276.90796141908
 30
0.0
 11
34095.57137023605
 21
14276.90796141908
 31
0.0
  0
LINE
  5
37C
330
6C
100
AcDbEntity
  8
Visible (ISO)
100
AcDbLine
 10
34095.57137023605
 20
14284.90796141908
 30
0.0
 11
33111.57137023606
 21
14284.90796141908
 31
0.0
  0
LINE
  5
37D
330
6C
100
AcDbEntity
  8
Visible (ISO)
100
AcDbLine
 10
33111.57137023606
 20
14276.90796141908
 30
0.0
 11
34095.57137023605
 21
14276.90796141908
 31
0.0
  0
LINE
  5
37E
330
6C
100
AcDbEntity
  8
Visible (ISO)
100
AcDbLine
 10
34095.57137023605
 20
14276.90796141908
 30
0.0
 11
34095.57137023605
 21
13852.90796141908
 31
0.0
  0
LINE
  5
37F
330
6C
100
AcDbEntity
  8
Visible (ISO)
100
AcDbLine
 10
34103.57137023605
 20
13852.90796141908
 30
0.0
 11
34103.57137023605
 21
14276.90796141908
 31
0.0
  0
LINE
  5
380
330
6C
100
AcDbEntity
  8
Visible (ISO)
100
AcDbLine
 10
33111.57137023606
 20
13852.90796141908
 30
0.0
 11
33111.57137023606
 21
14276.90796141908
 31
0.0
  0
LINE
  5
381
330
6C
100
AcDbEntity
  8
Visible (ISO)
100
AcDbLine
 10
33103.57137023606
 20
14276.90796141908
 30
0.0
 11
33103.57137023606
 21
13852.90796141908
 31
0.0
  0
LINE
  5
382
330
6C
100
AcDbEntity
  8
Visible (ISO)
100
AcDbLine
 10
35095.57137023604
 20
13404.90796141908
 30
0.0
 11
35095.57137023604
 21
13412.90796141908
 31
0.0
  0
LINE
  5
383
330
6C
100
AcDbEntity
  8
Visible (ISO)
100
AcDbLine
 10
35103.57137023604
 20
13412.90796141908
 30
0.0
 11
35095.57137023604
 21
13404.90796141908
 31
0.0
  0
LINE
  5
384
330
6C
100
AcDbEntity
  8
Visible (ISO)
100
AcDbLine
 10
35095.57137023604
 20
13412.90796141908
 30
0.0
 11
35103.57137023604
 21
13412.90796141908
 31
0.0
  0
LINE
  5
385
330
6C
100
AcDbEntity
  8
Visible (ISO)
100
AcDbLine
 10
35103.57137023604
 20
13836.90796141908
 30
0.0
 11
35095.57137023604
 21
13836.90796141908
 31
0.0
  0
LINE
  5
386
330
6C
100
AcDbEntity
  8
Visible (ISO)
100
AcDbLine
 10
35095.57137023604
 20
13844.90796141908
 30
0.0
 11
35103.57137023604
 21
13836.90796141908
 31
0.0
  0
LINE
  5
387
330
6C
100
AcDbEntity
  8
Visible (ISO)
100
AcDbLine
 10
35095.57137023604
 20
13836.90796141908
 30
0.0
 11
35095.57137023604
 21
13844.90796141908
 31
0.0
  0
LINE
  5
388
330
6C
100
AcDbEntity
  8
Visible (ISO)
100
AcDbLine
 10
34853.57137023604
 20
13412.90796141908
 30
0.0
 11
34861.57137023605
 21
13412.90796141908
 31
0.0
  0
LINE
  5
389
330
6C
100
AcDbEntity
  8
Visible (ISO)
100
AcDbLine
 10
34861.57137023605
 20
13404.90796141908
 30
0.0
 11
34853.57137023604
 21
13412.90796141908
 31
0.0
  0
LINE
  5
38A
330
6C
100
AcDbEntity
  8
Visible (ISO)
100
AcDbLine
 10
34861.57137023605
 20
13412.90796141908
 30
0.0
 11
34861.57137023605
 21
13404.90796141908
 31
0.0
  0
LINE
  5
38B
330
6C
100
AcDbEntity
  8
Visible (ISO)
100
AcDbLine
 10
34861.57137023605
 20
13844.90796141908
 30
0.0
 11
34861.57137023605
 21
13836.90796141908
 31
0.0
  0
LINE
  5
38C
330
6C
100
AcDbEntity
  8
Visible (ISO)
100
AcDbLine
 10
34853.57137023604
 20
13836.90796141908
 30
0.0
 11
34861.57137023605
 21
13844.90796141908
 31
0.0
  0
LINE
  5
38D
330
6C
100
AcDbEntity
  8
Visible (ISO)
100
AcDbLine
 10
34861.57137023605
 20
13836.90796141908
 30
0.0
 11
34853.57137023604
 21
13836.90796141908
 31
0.0
  0
LINE
  5
38E
330
6C
100
AcDbEntity
  8
Visible (ISO)
100
AcDbLine
 10
34853.57137023604
 20
13836.90796141908
 30
0.0
 11
34853.57137023604
 21
13412.90796141908
 31
0.0
  0
LINE
  5
38F
330
6C
100
AcDbEntity
  8
Visible (ISO)
100
AcDbLine
 10
34861.57137023605
 20
13412.90796141908
 30
0.0
 11
34861.57137023605
 21
13836.90796141908
 31
0.0
  0
LINE
  5
390
330
6C
100
AcDbEntity
  8
Visible (ISO)
100
AcDbLine
 10
35095.57137023604
 20
13844.90796141908
 30
0.0
 11
34861.57137023605
 21
13844.90796141908
 31
0.0
  0
LINE
  5
391
330
6C
100
AcDbEntity
  8
Visible (ISO)
100
AcDbLine
 10
34861.57137023605
 20
13836.90796141908
 30
0.0
 11
35095.57137023604
 21
13836.90796141908
 31
0.0
  0
LINE
  5
392
330
6C
100
AcDbEntity
  8
Visible (ISO)
100
AcDbLine
 10
35095.57137023604
 20
13412.90796141908
 30
0.0
 11
34861.57137023605
 21
13412.90796141908
 31
0.0
  0
LINE
  5
393
330
6C
100
AcDbEntity
  8
Visible (ISO)
100
AcDbLine
 10
35103.57137023604
 20
13412.90796141908
 30
0.0
 11
35103.57137023604
 21
13836.90796141908
 31
0.0
  0
LINE
  5
394
330
6C
100
AcDbEntity
  8
Visible (ISO)
100
AcDbLine
 10
35095.57137023604
 20
13836.90796141908
 30
0.0
 11
35095.57137023604
 21
13412.90796141908
 31
0.0
  0
LINE
  5
395
330
6C
100
AcDbEntity
  8
Visible (ISO)
100
AcDbLine
 10
35845.57137023605
 20
13412.90796141909
 30
0.0
 11
35853.57137023605
 21
13412.90796141909
 31
0.0
  0
LINE
  5
396
330
6C
100
AcDbEntity
  8
Visible (ISO)
100
AcDbLine
 10
35845.57137023605
 20
13404.90796141909
 30
0.0
 11
35845.57137023605
 21
13412.90796141909
 31
0.0
  0
LINE
  5
397
330
6C
100
AcDbEntity
  8
Visible (ISO)
100
AcDbLine
 10
35853.57137023605
 20
13412.90796141909
 30
0.0
 11
35845.57137023605
 21
13404.90796141909
 31
0.0
  0
LINE
  5
398
330
6C
100
AcDbEntity
  8
Visible (ISO)
100
AcDbLine
 10
35845.57137023605
 20
13412.90796141909
 30
0.0
 11
35103.57137023604
 21
13412.90796141909
 31
0.0
  0
LINE
  5
399
330
6C
100
AcDbEntity
  8
Visible (ISO)
100
AcDbLine
 10
35845.57137023605
 20
13844.90796141909
 30
0.0
 11
35853.57137023605
 21
13836.90796141909
 31
0.0
  0
LINE
  5
39A
330
6C
100
AcDbEntity
  8
Visible (ISO)
100
AcDbLine
 10
35845.57137023605
 20
13836.90796141909
 30
0.0
 11
35845.57137023605
 21
13844.90796141909
 31
0.0
  0
LINE
  5
39B
330
6C
100
AcDbEntity
  8
Visible (ISO)
100
AcDbLine
 10
35853.57137023605
 20
13836.90796141909
 30
0.0
 11
35845.57137023605
 21
13836.90796141909
 31
0.0
  0
LINE
  5
39C
330
6C
100
AcDbEntity
  8
Visible (ISO)
100
AcDbLine
 10
35845.57137023605
 20
13844.90796141909
 30
0.0
 11
35095.57137023604
 21
13844.90796141908
 31
0.0
  0
LINE
  5
39D
330
6C
100
AcDbEntity
  8
Visible (ISO)
100
AcDbLine
 10
35103.57137023604
 20
13836.90796141908
 30
0.0
 11
35845.57137023605
 21
13836.90796141909
 31
0.0
  0
LINE
  5
39E
330
6C
100
AcDbEntity
  8
Visible (ISO)
100
AcDbLine
 10
35845.57137023605
 20
13836.90796141909
 30
0.0
 11
35845.57137023605
 21
13412.90796141909
 31
0.0
  0
LINE
  5
39F
330
6C
100
AcDbEntity
  8
Visible (ISO)
100
AcDbLine
 10
35853.57137023605
 20
13412.90796141909
 30
0.0
 11
35853.57137023605
 21
13836.90796141909
 31
0.0
  0
LINE
  5
3A0
330
6C
100
AcDbEntity
  8
Visible (ISO)
100
AcDbLine
 10
35845.57137023605
 20
13852.90796141909
 30
0.0
 11
35853.57137023605
 21
13852.90796141909
 31
0.0
  0
LINE
  5
3A1
330
6C
100
AcDbEntity
  8
Visible (ISO)
100
AcDbLine
 10
35845.57137023605
 20
13844.90796141909
 30
0.0
 11
35845.57137023605
 21
13852.90796141909
 31
0.0
  0
LINE
  5
3A2
330
6C
100
AcDbEntity
  8
Visible (ISO)
100
AcDbLine
 10
35853.57137023605
 20
13852.90796141909
 30
0.0
 11
35845.57137023605
 21
13844.90796141909
 31
0.0
  0
LINE
  5
3A3
330
6C
100
AcDbEntity
  8
Visible (ISO)
100
AcDbLine
 10
35845.57137023605
 20
13852.90796141909
 30
0.0
 11
35103.57137023604
 21
13852.90796141909
 31
0.0
  0
LINE
  5
3A4
330
6C
100
AcDbEntity
  8
Visible (ISO)
100
AcDbLine
 10
35095.57137023604
 20
13844.90796141909
 30
0.0
 11
35845.57137023605
 21
13844.90796141909
 31
0.0
  0
LINE
  5
3A5
330
6C
100
AcDbEntity
  8
Visible (ISO)
100
AcDbLine
 10
35845.57137023605
 20
14284.90796141908
 30
0.0
 11
35853.57137023605
 21
14276.90796141909
 31
0.0
  0
LINE
  5
3A6
330
6C
100
AcDbEntity
  8
Visible (ISO)
100
AcDbLine
 10
35845.57137023605
 20
14276.90796141909
 30
0.0
 11
35845.57137023605
 21
14284.90796141908
 31
0.0
  0
LINE
  5
3A7
330
6C
100
AcDbEntity
  8
Visible (ISO)
100
AcDbLine
 10
35853.57137023605
 20
14276.90796141909
 30
0.0
 11
35845.57137023605
 21
14276.90796141909
 31
0.0
  0
LINE
  5
3A8
330
6C
100
AcDbEntity
  8
Visible (ISO)
100
AcDbLine
 10
35845.57137023605
 20
14284.90796141908
 30
0.0
 11
35095.57137023605
 21
14284.90796141908
 31
0.0
  0
LINE
  5
3A9
330
6C
100
AcDbEntity
  8
Visible (ISO)
100
AcDbLine
 10
35103.57137023604
 20
14276.90796141908
 30
0.0
 11
35845.57137023605
 21
14276.90796141909
 31
0.0
  0
LINE
  5
3AA
330
6C
100
AcDbEntity
  8
Visible (ISO)
100
AcDbLine
 10
35845.57137023605
 20
14276.90796141909
 30
0.0
 11
35845.57137023605
 21
13852.90796141909
 31
0.0
  0
LINE
  5
3AB
330
6C
100
AcDbEntity
  8
Visible (ISO)
100
AcDbLine
 10
35853.57137023605
 20
13852.90796141909
 30
0.0
 11
35853.57137023605
 21
14276.90796141909
 31
0.0
  0
LINE
  5
3AC
330
6C
100
AcDbEntity
  8
Visible (ISO)
100
AcDbLine
 10
33103.57137023605
 20
15614.90796141908
 30
0.0
 11
33103.57137023605
 21
15623.05796141908
 31
0.0
  0
LINE
  5
3AD
330
6C
100
AcDbEntity
  8
Visible (ISO)
100
AcDbLine
 10
33103.57137023605
 20
15656.75796141908
 30
0.0
 11
33103.57137023605
 21
15674.90796141908
 31
0.0
  0
ARC
  5
3AE
330
6C
100
AcDbEntity
  8
Visible (ISO)
100
AcDbCircle
 10
33093.57137023606
 20
15674.90796141908
 30
0.0
 40
9.99999999999996
100
AcDbArc
 50
0.0
 51
90.0
  0
ARC
  5
3AF
330
6C
100
AcDbEntity
  8
Visible (ISO)
100
AcDbCircle
 10
33093.57137023606
 20
15614.90796141908
 30
0.0
 40
9.99999999999996
100
AcDbArc
 50
270.0
 51
0.0
  0
ARC
  5
3B0
330
6C
100
AcDbEntity
  8
Visible (ISO)
100
AcDbCircle
 10
32113.57137023607
 20
15674.90796141908
 30
0.0
 40
9.99999999999996
100
AcDbArc
 50
90.0
 51
180.0
  0
LINE
  5
3B1
330
6C
100
AcDbEntity
  8
Visible (ISO)
100
AcDbLine
 10
32103.57137023607
 20
15674.90796141908
 30
0.0
 11
32103.57137023607
 21
15614.90796141908
 31
0.0
  0
ARC
  5
3B2
330
6C
100
AcDbEntity
  8
Visible (ISO)
100
AcDbCircle
 10
32113.57137023607
 20
15614.90796141908
 30
0.0
 40
9.99999999999996
100
AcDbArc
 50
180.0
 51
270.0
  0
LINE
  5
3B3
330
6C
100
AcDbEntity
  8
Visible (ISO)
100
AcDbLine
 10
33093.57137023606
 20
15684.90796141908
 30
0.0
 11
32933.57137023607
 21
15684.90796141908
 31
0.0
  0
LINE
  5
3B4
330
6C
100
AcDbEntity
  8
Visible (ISO)
100
AcDbLine
 10
32828.57137023607
 20
15684.90796141908
 30
0.0
 11
32333.57137023605
 21
15684.90796141908
 31
0.0
  0
LINE
  5
3B5
330
6C
100
AcDbEntity
  8
Visible (ISO)
100
AcDbLine
 10
32228.57137023609
 20
15684.90796141908
 30
0.0
 11
32113.57137023607
 21
15684.90796141908
 31
0.0
  0
LINE
  5
3B6
330
6C
100
AcDbEntity
  8
Visible (ISO)
100
AcDbLine
 10
34103.57137023605
 20
14294.90796141908
 30
0.0
 11
34103.57137023605
 21
14354.90796141908
 31
0.0
  0
ARC
  5
3B7
330
6C
100
AcDbEntity
  8
Visible (ISO)
100
AcDbCircle
 10
34093.57137023605
 20
14354.90796141908
 30
0.0
 40
9.99999999999998
100
AcDbArc
 50
0.0
 51
90.0
  0
ARC
  5
3B8
330
6C
100
AcDbEntity
  8
Visible (ISO)
100
AcDbCircle
 10
34093.57137023605
 20
14294.90796141908
 30
0.0
 40
9.99999999999998
100
AcDbArc
 50
270.0
 51
0.0
  0
ARC
  5
3B9
330
6C
100
AcDbEntity
  8
Visible (ISO)
100
AcDbCircle
 10
33113.57137023606
 20
14354.90796141908
 30
0.0
 40
9.999999999999978
100
AcDbArc
 50
90.0
 51
180.0
  0
LINE
  5
3BA
330
6C
100
AcDbEntity
  8
Visible (ISO)
100
AcDbLine
 10
33103.57137023606
 20
14354.90796141908
 30
0.0
 11
33103.57137023606
 21
14294.90796141908
 31
0.0
  0
ARC
  5
3BB
330
6C
100
AcDbEntity
  8
Visible (ISO)
100
AcDbCircle
 10
33113.57137023606
 20
14294.90796141908
 30
0.0
 40
9.999999999999978
100
AcDbArc
 50
180.0
 51
270.0
  0
LINE
  5
3BC
330
6C
100
AcDbEntity
  8
Visible (ISO)
100
AcDbLine
 10
34093.57137023605
 20
14364.90796141908
 30
0.0
 11
33113.57137023606
 21
14364.90796141908
 31
0.0
  0
ARC
  5
3BD
330
6C
100
AcDbEntity
  8
Visible (ISO)
100
AcDbCircle
 10
34863.57137023604
 20
13914.90796141908
 30
0.0
 40
10.0
100
AcDbArc
 50
90.0
 51
180.0
  0
ARC
  5
3BE
330
6C
100
AcDbEntity
  8
Visible (ISO)
100
AcDbCircle
 10
35093.57137023604
 20
13854.90796141908
 30
0.0
 40
10.0
100
AcDbArc
 50
270.0
 51
0.0
  0
ARC
  5
3BF
330
6C
100
AcDbEntity
  8
Visible (ISO)
100
AcDbCircle
 10
34863.57137023604
 20
13854.90796141908
 30
0.0
 40
10.0
100
AcDbArc
 50
180.0
 51
270.0
  0
LINE
  5
3C0
330
6C
100
AcDbEntity
  8
Visible (ISO)
100
AcDbLine
 10
34853.57137023604
 20
13914.90796141908
 30
0.0
 11
34853.57137023604
 21
13854.90796141908
 31
0.0
  0
LINE
  5
3C1
330
6C
100
AcDbEntity
  8
Visible (ISO)
100
AcDbLine
 10
35103.57137023604
 20
13854.90796141908
 30
0.0
 11
35103.57137023604
 21
13914.90796141908
 31
0.0
  0
ARC
  5
3C2
330
6C
100
AcDbEntity
  8
Visible (ISO)
100
AcDbCircle
 10
35093.57137023604
 20
13914.90796141908
 30
0.0
 40
10.0
100
AcDbArc
 50
0.0
 51
90.0
  0
LINE
  5
3C3
330
6C
100
AcDbEntity
  8
Visible (ISO)
100
AcDbLine
 10
35093.57137023605
 20
13924.90796141908
 30
0.0
 11
34863.57137023604
 21
13924.90796141908
 31
0.0
  0
ARC
  5
3C4
330
6C
100
AcDbEntity
  8
Visible (ISO)
100
AcDbCircle
 10
32113.57137023607
 20
14294.90796141908
 30
0.0
 40
9.999999999999982
100
AcDbArc
 50
193.0519405686772
 51
256.9480594312982
  0
ARC
  5
3C5
330
6C
100
AcDbEntity
  8
Visible (ISO)
100
AcDbCircle
 10
34113.57137023605
 20
15674.90796141908
 30
0.0
 40
9.999999999999992
100
AcDbArc
 50
90.0
 51
180.0
  0
LINE
  5
3C6
330
6C
100
AcDbEntity
  8
Visible (ISO)
100
AcDbLine
 10
34103.57137023605
 20
15674.90796141908
 30
0.0
 11
34103.57137023605
 21
15656.75796141908
 31
0.0
  0
LINE
  5
3C7
330
6C
100
AcDbEntity
  8
Visible (ISO)
100
AcDbLine
 10
34103.57137023605
 20
15623.05796141908
 30
0.0
 11
34103.57137023605
 21
15614.90796141908
 31
0.0
  0
ARC
  5
3C8
330
6C
100
AcDbEntity
  8
Visible (ISO)
100
AcDbCircle
 10
34113.57137023605
 20
15614.90796141908
 30
0.0
 40
9.999999999999992
100
AcDbArc
 50
180.0
 51
270.0
  0
ARC
  5
3C9
330
6C
100
AcDbEntity
  8
Visible (ISO)
100
AcDbCircle
 10
35093.57137023604
 20
15614.90796141908
 30
0.0
 40
9.999999999999991
100
AcDbArc
 50
270.0
 51
0.0
  0
LINE
  5
3CA
330
6C
100
AcDbEntity
  8
Visible (ISO)
100
AcDbLine
 10
35103.57137023604
 20
15614.90796141908
 30
0.0
 11
35103.57137023604
 21
15674.90796141908
 31
0.0
  0
ARC
  5
3CB
330
6C
100
AcDbEntity
  8
Visible (ISO)
100
AcDbCircle
 10
35093.57137023604
 20
15674.90796141908
 30
0.0
 40
9.999999999999991
100
AcDbArc
 50
0.0
 51
90.0
  0
LINE
  5
3CC
330
6C
100
AcDbEntity
  8
Visible (ISO)
100
AcDbLine
 10
35093.57137023604
 20
15684.90796141908
 30
0.0
 11
34278.57137023607
 21
15684.90796141908
 31
0.0
  0
LINE
  5
3CD
330
6C
100
AcDbEntity
  8
Visible (ISO)
100
AcDbLine
 10
34173.57137023606
 20
15684.90796141908
 30
0.0
 11
34113.57137023605
 21
15684.90796141908
 31
0.0
  0
LINE
  5
3CE
330
6C
100
AcDbEntity
  8
Visible (ISO)
100
AcDbLine
 10
35853.57137023606
 20
14294.90796141909
 30
0.0
 11
35853.57137023606
 21
14354.90796141909
 31
0.0
  0
ARC
  5
3CF
330
6C
100
AcDbEntity
  8
Visible (ISO)
100
AcDbCircle
 10
35843.57137023606
 20
14354.90796141909
 30
0.0
 40
9.999999999999971
100
AcDbArc
 50
0.0
 51
90.0
  0
ARC
  5
3D0
330
6C
100
AcDbEntity
  8
Visible (ISO)
100
AcDbCircle
 10
35843.57137023606
 20
14294.90796141909
 30
0.0
 40
9.999999999999971
100
AcDbArc
 50
270.0
 51
0.0
  0
LINE
  5
3D1
330
6C
100
AcDbEntity
  8
Visible (ISO)
100
AcDbLine
 10
35843.57137023606
 20
14364.90796141909
 30
0.0
 11
35103.57137023604
 21
14364.90796141908
 31
0.0
  0
CIRCLE
  5
3D2
330
6C
100
AcDbEntity
  8
Visible (ISO)
100
AcDbCircle
 10
33228.57137023606
 20
13734.90796141908
 30
0.0
 40
20.0
  0
CIRCLE
  5
3D3
330
6C
100
AcDbEntity
  8
Visible (ISO)
100
AcDbCircle
 10
33228.57137023606
 20
13514.90796141908
 30
0.0
 40
20.0
  0
CIRCLE
  5
3D4
330
6C
100
AcDbEntity
  8
Visible (ISO)
100
AcDbCircle
 10
33978.57137023605
 20
13734.90796141908
 30
0.0
 40
20.0
  0
CIRCLE
  5
3D5
330
6C
100
AcDbEntity
  8
Visible (ISO)
100
AcDbCircle
 10
33978.57137023605
 20
13514.90796141908
 30
0.0
 40
20.0
  0
ARC
  5
3D6
330
6C
100
AcDbEntity
  8
Visible (ISO)
100
AcDbCircle
 10
32228.57137023607
 20
13734.90796141908
 30
0.0
 40
20.0
100
AcDbArc
 50
89.99999999993894
 51
269.9999999999389
  0
ARC
  5
3D7
330
6C
100
AcDbEntity
  8
Visible (ISO)
100
AcDbCircle
 10
32228.57137023607
 20
13514.90796141908
 30
0.0
 40
20.0
100
AcDbArc
 50
89.99999999993894
 51
269.9999999999389
  0
CIRCLE
  5
3D8
330
6C
100
AcDbEntity
  8
Visible (ISO)
100
AcDbCircle
 10
32978.57137023606
 20
13734.90796141908
 30
0.0
 40
20.0
  0
CIRCLE
  5
3D9
330
6C
100
AcDbEntity
  8
Visible (ISO)
100
AcDbCircle
 10
32978.57137023606
 20
13514.90796141908
 30
0.0
 40
20.0
  0
ARC
  5
3DA
330
6C
100
AcDbEntity
  8
Visible (ISO)
100
AcDbCircle
 10
32228.57137023607
 20
14174.90796141908
 30
0.0
 40
20.0
100
AcDbArc
 50
89.99999999993894
 51
269.9999999999389
  0
ARC
  5
3DB
330
6C
100
AcDbEntity
  8
Visible (ISO)
100
AcDbCircle
 10
32228.57137023607
 20
13954.90796141908
 30
0.0
 40
20.0
100
AcDbArc
 50
89.99999999993894
 51
269.9999999999389
  0
CIRCLE
  5
3DC
330
6C
100
AcDbEntity
  8
Visible (ISO)
100
AcDbCircle
 10
32978.57137023606
 20
14174.90796141908
 30
0.0
 40
20.0
  0
CIRCLE
  5
3DD
330
6C
100
AcDbEntity
  8
Visible (ISO)
100
AcDbCircle
 10
32978.57137023606
 20
13954.90796141908
 30
0.0
 40
20.0
  0
ARC
  5
3DE
330
6C
100
AcDbEntity
  8
Visible (ISO)
100
AcDbCircle
 10
32228.57137023607
 20
14614.90796141908
 30
0.0
 40
20.0
100
AcDbArc
 50
89.99999999993894
 51
269.9999999999389
  0
ARC
  5
3DF
330
6C
100
AcDbEntity
  8
Visible (ISO)
100
AcDbCircle
 10
32228.57137023607
 20
14394.90796141908
 30
0.0
 40
20.0
100
AcDbArc
 50
89.99999999993894
 51
269.9999999999389
  0
CIRCLE
  5
3E0
330
6C
100
AcDbEntity
  8
Visible (ISO)
100
AcDbCircle
 10
32978.57137023606
 20
14614.90796141908
 30
0.0
 40
20.0
  0
CIRCLE
  5
3E1
330
6C
100
AcDbEntity
  8
Visible (ISO)
100
AcDbCircle
 10
32978.57137023606
 20
14394.90796141908
 30
0.0
 40
20.0
  0
CIRCLE
  5
3E2
330
6C
100
AcDbEntity
  8
Visible (ISO)
100
AcDbCircle
 10
33228.57137023606
 20
14174.90796141908
 30
0.0
 40
20.0
  0
CIRCLE
  5
3E3
330
6C
100
AcDbEntity
  8
Visible (ISO)
100
AcDbCircle
 10
33228.57137023606
 20
13954.90796141908
 30
0.0
 40
20.0
  0
CIRCLE
  5
3E4
330
6C
100
AcDbEntity
  8
Visible (ISO)
100
AcDbCircle
 10
33978.57137023605
 20
14174.90796141908
 30
0.0
 40
20.0
  0
CIRCLE
  5
3E5
330
6C
100
AcDbEntity
  8
Visible (ISO)
100
AcDbCircle
 10
33978.57137023605
 20
13954.90796141908
 30
0.0
 40
20.0
  0
ARC
  5
3E6
330
6C
100
AcDbEntity
  8
Visible (ISO)
100
AcDbCircle
 10
32228.57137023607
 20
15054.90796141908
 30
0.0
 40
20.0
100
AcDbArc
 50
89.99999999993894
 51
269.9999999999389
  0
ARC
  5
3E7
330
6C
100
AcDbEntity
  8
Visible (ISO)
100
AcDbCircle
 10
32228.57137023607
 20
14834.90796141909
 30
0.0
 40
20.0
100
AcDbArc
 50
89.99999999993894
 51
269.9999999999389
  0
CIRCLE
  5
3E8
330
6C
100
AcDbEntity
  8
Visible (ISO)
100
AcDbCircle
 10
32978.57137023606
 20
15054.90796141908
 30
0.0
 40
20.0
  0
CIRCLE
  5
3E9
330
6C
100
AcDbEntity
  8
Visible (ISO)
100
AcDbCircle
 10
32978.57137023606
 20
14834.90796141909
 30
0.0
 40
20.0
  0
ARC
  5
3EA
330
6C
100
AcDbEntity
  8
Visible (ISO)
100
AcDbCircle
 10
32228.57137023607
 20
15274.90796141908
 30
0.0
 40
20.0
100
AcDbArc
 50
89.99999999993894
 51
269.9999999999389
  0
CIRCLE
  5
3EB
330
6C
100
AcDbEntity
  8
Visible (ISO)
100
AcDbCircle
 10
32978.57137023606
 20
15494.90796141908
 30
0.0
 40
20.0
  0
CIRCLE
  5
3EC
330
6C
100
AcDbEntity
  8
Visible (ISO)
100
AcDbCircle
 10
32978.57137023606
 20
15274.90796141908
 30
0.0
 40
20.0
  0
CIRCLE
  5
3ED
330
6C
100
AcDbEntity
  8
Visible (ISO)
100
AcDbCircle
 10
34978.57137023604
 20
14174.90796141908
 30
0.0
 40
20.0
  0
CIRCLE
  5
3EE
330
6C
100
AcDbEntity
  8
Visible (ISO)
100
AcDbCircle
 10
34978.57137023605
 20
13954.90796141908
 30
0.0
 40
20.0
  0
CIRCLE
  5
3EF
330
6C
100
AcDbEntity
  8
Visible (ISO)
100
AcDbCircle
 10
34978.57137023604
 20
14614.90796141908
 30
0.0
 40
20.0
  0
CIRCLE
  5
3F0
330
6C
100
AcDbEntity
  8
Visible (ISO)
100
AcDbCircle
 10
34978.57137023604
 20
14394.90796141908
 30
0.0
 40
20.0
  0
CIRCLE
  5
3F1
330
6C
100
AcDbEntity
  8
Visible (ISO)
100
AcDbCircle
 10
34978.57137023604
 20
15054.90796141908
 30
0.0
 40
20.0
  0
CIRCLE
  5
3F2
330
6C
100
AcDbEntity
  8
Visible (ISO)
100
AcDbCircle
 10
34978.57137023604
 20
14834.90796141908
 30
0.0
 40
20.0
  0
CIRCLE
  5
3F3
330
6C
100
AcDbEntity
  8
Visible (ISO)
100
AcDbCircle
 10
34978.57137023604
 20
15494.90796141908
 30
0.0
 40
20.0
  0
CIRCLE
  5
3F4
330
6C
100
AcDbEntity
  8
Visible (ISO)
100
AcDbCircle
 10
34978.57137023604
 20
15274.90796141908
 30
0.0
 40
20.0
  0
CIRCLE
  5
3F5
330
6C
100
AcDbEntity
  8
Visible (ISO)
100
AcDbCircle
 10
34978.57137023605
 20
13734.90796141908
 30
0.0
 40
20.0
  0
CIRCLE
  5
3F6
330
6C
100
AcDbEntity
  8
Visible (ISO)
100
AcDbCircle
 10
34978.57137023605
 20
13514.90796141908
 30
0.0
 40
20.0
  0
CIRCLE
  5
3F7
330
6C
100
AcDbEntity
  8
Visible (ISO)
100
AcDbCircle
 10
35728.57137023604
 20
13734.90796141909
 30
0.0
 40
19.99999999999997
  0
CIRCLE
  5
3F8
330
6C
100
AcDbEntity
  8
Visible (ISO)
100
AcDbCircle
 10
35728.57137023604
 20
13514.90796141909
 30
0.0
 40
19.99999999999997
  0
CIRCLE
  5
3F9
330
6C
100
AcDbEntity
  8
Visible (ISO)
100
AcDbCircle
 10
35728.57137023604
 20
14174.90796141909
 30
0.0
 40
19.99999999999997
  0
CIRCLE
  5
3FA
330
6C
100
AcDbEntity
  8
Visible (ISO)
100
AcDbCircle
 10
35728.57137023604
 20
13954.90796141909
 30
0.0
 40
19.99999999999997
  0
LINE
  5
3FB
330
6C
100
AcDbEntity
  8
Visible (ISO)
100
AcDbLine
 10
34103.57137023605
 20
15258.05796141908
 30
0.0
 11
33103.57137023606
 21
15258.05796141908
 31
0.0
  0
LINE
  5
3FC
330
6C
100
AcDbEntity
  8
Visible (ISO)
100
AcDbLine
 10
34103.57137023605
 20
15291.75796141908
 30
0.0
 11
33103.57137023606
 21
15291.75796141908
 31
0.0
  0
LINE
  5
3FD
330
6C
100
AcDbEntity
  8
Visible (ISO)
100
AcDbLine
 10
30128.57137023607
 20
15704.90796141908
 30
0.0
 11
30128.57137023607
 21
13404.90796141909
 31
0.0
  0
LINE
  5
400
330
6C
100
AcDbEntity
  8
Visible (ISO)
100
AcDbLine
 10
30228.57137023607
 20
13404.90796141909
 30
0.0
 11
30228.57137023607
 21
15704.90796141908
 31
0.0
  0
LINE
  5
401
330
6C
100
AcDbEntity
  8
Visible (ISO)
100
AcDbLine
 10
30223.57137023607
 20
15704.90796141908
 30
0.0
 11
30133.57137023608
 21
15704.90796141908
 31
0.0
  0
LINE
  5
403
330
6C
100
AcDbEntity
  8
Visible (ISO)
100
AcDbLine
 10
34278.57137023607
 20
13404.90796141908
 30
0.0
 11
34278.57137023607
 21
15704.90796141908
 31
0.0
  0
LINE
  5
404
330
6C
100
AcDbEntity
  8
Visible (ISO)
100
AcDbLine
 10
34178.57137023608
 20
15704.90796141908
 30
0.0
 11
34178.57137023608
 21
13404.90796141908
 31
0.0
  0
LINE
  5
406
330
6C
100
AcDbEntity
  8
Visible (ISO)
100
AcDbLine
 10
34273.57137023607
 20
15704.90796141908
 30
0.0
 11
34183.57137023607
 21
15704.90796141908
 31
0.0
  0
LINE
  5
407
330
6C
100
AcDbEntity
  8
Visible (ISO)
100
AcDbLine
 10
31478.57137023607
 20
15704.90796141908
 30
0.0
 11
31478.57137023607
 21
15106.90796141908
 31
0.0
  0
LINE
  5
408
330
6C
100
AcDbEntity
  8
Visible (ISO)
100
AcDbLine
 10
31578.57137023607
 20
15106.90796141908
 30
0.0
 11
31578.57137023607
 21
15704.90796141908
 31
0.0
  0
LINE
  5
409
330
6C
100
AcDbEntity
  8
Visible (ISO)
100
AcDbLine
 10
31573.57137023607
 20
15704.90796141908
 30
0.0
 11
31483.57137023607
 21
15704.90796141908
 31
0.0
  0
LINE
  5
40A
330
6C
100
AcDbEntity
  8
Visible (ISO)
100
AcDbLine
 10
30233.57137023607
 20
15656.75796141908
 30
0.0
 11
31473.57137023607
 21
15656.75796141908
 31
0.0
  0
LINE
  5
40B
330
6C
100
AcDbEntity
  8
Visible (ISO)
100
AcDbLine
 10
30233.57137023607
 20
15623.05796141908
 30
0.0
 11
31473.57137023607
 21
15623.05796141908
 31
0.0
  0
LINE
  5
40C
330
6C
100
AcDbEntity
  8
Visible (ISO)
100
AcDbLine
 10
32823.57137023607
 20
15323.05796141907
 30
0.0
 11
31583.57137023607
 21
15323.05796141907
 31
0.0
  0
LINE
  5
40D
330
6C
100
AcDbEntity
  8
Visible (ISO)
100
AcDbLine
 10
32823.57137023607
 20
15356.75796141908
 30
0.0
 11
31583.57137023607
 21
15356.75796141908
 31
0.0
  0
LINE
  5
40E
330
6C
100
AcDbEntity
  8
Visible (ISO)
100
AcDbLine
 10
32933.57137023607
 20
15656.75796141908
 30
0.0
 11
34173.57137023607
 21
15656.75796141908
 31
0.0
  0
LINE
  5
40F
330
6C
100
AcDbEntity
  8
Visible (ISO)
100
AcDbLine
 10
32933.57137023607
 20
15623.05796141908
 30
0.0
 11
34173.57137023607
 21
15623.05796141908
 31
0.0
  0
LINE
  5
410
330
6C
100
AcDbEntity
  8
Visible (ISO)
100
AcDbLine
 10
32828.57137023607
 20
15704.90796141908
 30
0.0
 11
32828.57137023607
 21
15106.90796141908
 31
0.0
  0
LINE
  5
411
330
6C
100
AcDbEntity
  8
Visible (ISO)
100
AcDbLine
 10
32928.57137023607
 20
15106.90796141908
 30
0.0
 11
32928.57137023607
 21
15704.90796141908
 31
0.0
  0
LINE
  5
412
330
6C
100
AcDbEntity
  8
Visible (ISO)
100
AcDbLine
 10
32923.57137023607
 20
15704.90796141908
 30
0.0
 11
32833.57137023607
 21
15704.90796141908
 31
0.0
  0
LINE
  5
413
330
6C
100
AcDbEntity
  8
Visible (ISO)
100
AcDbLine
 10
32828.57137023607
 20
15104.90796141908
 30
0.0
 11
32828.57137023607
 21
13404.90796141908
 31
0.0
  0
LINE
  5
416
330
6C
100
AcDbEntity
  8
Visible (ISO)
100
AcDbLine
 10
32928.57137023607
 20
13404.90796141908
 30
0.0
 11
32928.57137023608
 21
15104.90796141908
 31
0.0
  0
LINE
  5
417
330
6C
100
AcDbEntity
  8
Visible (ISO)
100
AcDbLine
 10
32923.57137023607
 20
15104.90796141908
 30
0.0
 11
32833.57137023607
 21
15104.90796141908
 31
0.0
  0
LINE
  5
418
330
6C
100
AcDbEntity
  8
Visible (ISO)
100
AcDbLine
 10
31478.57137023607
 20
15104.90796141908
 30
0.0
 11
31478.57137023607
 21
13404.90796141908
 31
0.0
  0
LINE
  5
41B
330
6C
100
AcDbEntity
  8
Visible (ISO)
100
AcDbLine
 10
31578.57137023607
 20
13404.90796141908
 30
0.0
 11
31578.57137023607
 21
15104.90796141908
 31
0.0
  0
LINE
  5
41C
330
6C
100
AcDbEntity
  8
Visible (ISO)
100
AcDbLine
 10
31573.57137023607
 20
15104.90796141908
 30
0.0
 11
31483.57137023607
 21
15104.90796141908
 31
0.0
  0
LINE
  5
420
330
6C
100
AcDbEntity
  8
Visible (ISO)
100
AcDbLine
 10
36685.07137023604
 20
13614.90796141908
 30
0.0
 11
36522.07137023605
 21
13614.90796141908
 31
0.0
  0
LINE
  5
423
330
6C
100
AcDbEntity
  8
Visible (ISO)
100
AcDbLine
 10
36685.07137023604
 20
13614.90796141908
 30
0.0
 11
36694.74784082427
 21
13404.90796141908
 31
0.0
  0
LINE
  5
425
330
6C
100
AcDbEntity
  8
Visible (ISO)
100
AcDbLine
 10
36522.07137023605
 20
13614.90796141908
 30
0.0
 11
36512.3948996478
 21
13404.90796141908
 31
0.0
  0
LINE
  5
42A
330
6C
100
AcDbEntity
  8
Visible (ISO)
100
AcDbLine
 10
37185.07137023604
 20
13614.90796141908
 30
0.0
 11
37022.07137023604
 21
13614.90796141908
 31
0.0
  0
LINE
  5
42D
330
6C
100
AcDbEntity
  8
Visible (ISO)
100
AcDbLine
 10
37185.07137023604
 20
13614.90796141908
 30
0.0
 11
37194.74784082428
 21
13404.90796141907
 31
0.0
  0
LINE
  5
42F
330
6C
100
AcDbEntity
  8
Visible (ISO)
100
AcDbLine
 10
37022.07137023604
 20
13614.90796141908
 30
0.0
 11
37012.3948996478
 21
13404.90796141907
 31
0.0
  0
LINE
  5
431
330
6C
100
AcDbEntity
  8
Visible (ISO)
100
AcDbLine
 10
31478.57137023607
 20
13394.90796141909
 30
0.0
 11
32928.57137023605
 21
13394.90796141908
 31
0.0
  0
LINE
  5
432
330
6C
100
AcDbEntity
  8
Visible (ISO)
100
AcDbLine
 10
32928.57137023605
 20
13404.90796141908
 30
0.0
 11
31478.57137023607
 21
13404.90796141909
 31
0.0
  0
LINE
  5
433
330
6C
100
AcDbEntity
  8
Visible (ISO)
100
AcDbLine
 10
34415.17824496792
 20
13394.90796141908
 30
0.0
 11
32928.57137023605
 21
13394.90796141908
 31
0.0
  0
LINE
  5
434
330
6C
100
AcDbEntity
  8
Visible (ISO)
100
AcDbLine
 10
34415.17824496792
 20
13404.90796141908
 30
0.0
 11
34415.17824496792
 21
13394.90796141908
 31
0.0
  0
LINE
  5
435
330
6C
100
AcDbEntity
  8
Visible (ISO)
100
AcDbLine
 10
32928.57137023605
 20
13404.90796141908
 30
0.0
 11
34415.17824496791
 21
13404.90796141908
 31
0.0
  0
LINE
  5
436
330
6C
100
AcDbEntity
  8
Visible (ISO)
100
AcDbLine
 10
34415.17824496792
 20
13394.90796141908
 30
0.0
 11
35853.57137023605
 21
13394.90796141908
 31
0.0
  0
LINE
  5
437
330
6C
100
AcDbEntity
  8
Visible (ISO)
100
AcDbLine
 10
35853.57137023605
 20
13404.90796141908
 30
0.0
 11
34415.17824496792
 21
13404.90796141908
 31
0.0
  0
LINE
  5
438
330
6C
100
AcDbEntity
  8
Visible (ISO)
100
AcDbLine
 10
37353.57137023605
 20
13394.90796141907
 30
0.0
 11
35853.57137023605
 21
13394.90796141908
 31
0.0
  0
LINE
  5
439
330
6C
100
AcDbEntity
  8
Visible (ISO)
100
AcDbLine
 10
37353.57137023605
 20
13404.90796141907
 30
0.0
 11
37353.57137023605
 21
13394.90796141907
 31
0.0
  0
LINE
  5
43A
330
6C
100
AcDbEntity
  8
Visible (ISO)
100
AcDbLine
 10
35853.57137023605
 20
13404.90796141908
 30
0.0
 11
37353.57137023605
 21
13404.90796141907
 31
0.0
  0
LINE
  5
43B
330
6C
100
AcDbEntity
  8
Visible (ISO)
100
AcDbLine
 10
28628.57137023603
 20
13404.9079614191
 30
0.0
 11
28628.57137023603
 21
13394.9079614191
 31
0.0
  0
LINE
  5
43C
330
6C
100
AcDbEntity
  8
Visible (ISO)
100
AcDbLine
 10
29991.12920147569
 20
13394.90796141909
 30
0.0
 11
28628.57137023603
 21
13394.9079614191
 31
0.0
  0
LINE
  5
43D
330
6C
100
AcDbEntity
  8
Visible (ISO)
100
AcDbLine
 10
29991.12920147569
 20
13404.90796141909
 30
0.0
 11
29991.12920147569
 21
13394.90796141909
 31
0.0
  0
LINE
  5
43E
330
6C
100
AcDbEntity
  8
Visible (ISO)
100
AcDbLine
 10
28628.57137023603
 20
13404.9079614191
 30
0.0
 11
29991.12920147569
 21
13404.90796141909
 31
0.0
  0
LINE
  5
43F
330
6C
100
AcDbEntity
  8
Visible (ISO)
100
AcDbLine
 10
31478.57137023607
 20
13394.90796141908
 30
0.0
 11
29991.12920147569
 21
13394.90796141909
 31
0.0
  0
LINE
  5
440
330
6C
100
AcDbEntity
  8
Visible (ISO)
100
AcDbLine
 10
29991.12920147569
 20
13404.90796141909
 30
0.0
 11
31478.57137023607
 21
13404.90796141909
 31
0.0
  0
INSERT
  5
5D9
330
6C
100
AcDbEntity
  8
0
100
AcDbBlockReference
 66
     1
  2
Tabelki rysunkowe Rzut
 10
12022.31837028164
 20
-1074.130542460445
 30
0.0
 41
100.0
 42
100.0
 43
100.0
  0
ATTRIB
  5
5DB
102
{ACAD_XDICTIONARY
360
C57
102
}
330
5D9
100
AcDbEntity
  8
Title (ISO)
100
AcDbText
 10
29875.15110820654
 20
738.5829432236702
 30
0.0
 40
250.0
  1
88502
  7
Note Text (ISO)
100
AcDbAttribute
  2
Numer_katalogowy_001
 70
     0
  0
ATTRIB
  5
5DC
102
{ACAD_XDICTIONARY
360
C5A
102
}
330
5D9
100
AcDbEntity
  8
Title (ISO)
100
AcDbText
 10
31063.3982539799
 20
39.5903307288105
 30
0.0
 40
250.0
  1
2019-03-26
  7
Note Text (ISO)
100
AcDbAttribute
  2
DATA_UTWORZENIA_001
 70
     0
  0
ATTRIB
  5
5DD
102
{ACAD_XDICTIONARY
360
C5D
102
}
330
5D9
100
AcDbEntity
  8
Title (ISO)
100
AcDbText
 10
29874.1437207014
 20
377.5016806671245
 30
0.0
 40
250.0
  1
Street workout-parkour 2
  7
Note Text (ISO)
100
AcDbAttribute
  2
Nazwa_001
 70
     0
  0
SEQEND
  5
5DA
330
5D9
100
AcDbEntity
  8
0
  0
DIMENSION
  5
5DE
330
6C
100
AcDbEntity
  8
Dimension (ISO)
100
AcDbDimension
  2
*D8
 10
39631.63093381251
 20
3018.434241595373
 30
0.0
 11
39631.63093381251
 21
7330.934241595381
 31
0.0
 70
   160
  1
<>
 71
     2
 42
8625.000000000012
  3
Default (ISO)
100
AcDbAlignedDimension
 13
35853.57137023423
 23
11643.43424159538
 33
0.0
 14
32928.57137023422
 24
3018.434241595375
 34
0.0
 50
270.0
100
AcDbRotatedDimension
1001
ACAD
1000
DSTYLE
1002
{
1070
   172
1070
     0
1070
   289
1070
     1
1070
    74
1070
     0
1070
   271
1070
     2
1070
   272
1070
     2
1070
    48
1040
0.0
1070
    47
1040
0.0
1002
}
  0
DIMENSION
  5
6C7
330
6C
100
AcDbEntity
  8
Dimension (ISO)
100
AcDbDimension
  2
*D9
 10
28628.57137023421
 20
2183.669917170937
 30
0.0
 11
32991.07137023423
 21
2183.669917170937
 31
0.0
 70
   160
  1
<>
 71
     2
 42
8725.00000000002
  3
Default (ISO)
100
AcDbAlignedDimension
 13
37353.57137023423
 23
5818.43424159539
 33
0.0
 14
28628.57137023421
 24
5818.434241595391
 34
0.0
 50
180.0
100
AcDbRotatedDimension
1001
ACAD
1000
DSTYLE
1002
{
1070
   172
1070
     0
1070
   289
1070
     1
1070
    74
1070
     0
1070
   271
1070
     2
1070
   272
1070
     2
1070
    48
1040
0.0
1070
    47
1040
0.0
1002
}
  0
DIMENSION
  5
7A9
330
6C
100
AcDbEntity
  8
Dimension (ISO)
100
AcDbDimension
  2
*D10
 10
35894.05974604277
 20
4518.434241595894
 30
0.0
 11
35894.05974604277
 21
7330.934241595781
 31
0.0
 70
   160
  1
<>
 71
     2
 42
5624.999999999773
  3
Default (ISO)
100
AcDbAlignedDimension
 13
35849.57137023424
 23
10143.43424159567
 33
0.0
 14
32925.57137023425
 24
4518.434241595895
 34
0.0
 50
270.0
100
AcDbRotatedDimension
1001
ACAD
1000
DSTYLE
1002
{
1070
   172
1070
     0
1070
   289
1070
     1
1070
    74
1070
     0
1070
   271
1070
     2
1070
    75
1070
     1
1070
   272
1070
     2
1070
    48
1040
0.0
1070
    47
1040
0.0
1002
}
  0
DIMENSION
  5
88E
330
6C
100
AcDbEntity
  8
Dimension (ISO)
100
AcDbDimension
  2
*D11
 10
30128.57137023425
 20
10799.49225425005
 30
0.0
 11
33656.82137023423
 21
10799.49225425005
 31
0.0
 70
   160
  1
<>
 71
     2
 42
7056.499999999967
  3
Default (ISO)
100
AcDbAlignedDimension
 13
37185.07137023422
 23
7261.702313391078
 33
0.0
 14
30128.57137023425
 24
8315.434241596038
 34
0.0
 50
180.0
100
AcDbRotatedDimension
1001
ACAD
1000
DSTYLE
1002
{
1070
   172
1070
     0
1070
   289
1070
     1
1070
    74
1070
     0
1070
   271
1070
     0
1070
   272
1070
     2
1070
    48
1040
0.0
1070
    47
1040
0.0
1002
}
  0
DIMENSION
  5
970
330
6C
100
AcDbEntity
  8
Dimension (ISO)
100
AcDbDimension
  2
*D12
 10
29457.35883111538
 20
15704.90796141908
 30
0.0
 11
29457.35883111537
 21
14554.90796141909
 31
0.0
 70
   160
  1
<>
 71
     2
 42
2299.999999999984
  3
Default (ISO)
100
AcDbAlignedDimension
 13
29457.35883111537
 23
13404.90796141909
 33
0.0
 14
30133.57137023608
 24
15704.90796141908
 34
0.0
 50
90.0
100
AcDbRotatedDimension
1001
ACAD
1000
DSTYLE
1002
{
1070
   172
1070
     0
1070
   289
1070
     1
1070
    74
1070
     0
1070
   271
1070
     2
1070
    75
1070
     1
1070
   272
1070
     2
1070
    48
1040
0.0
1070
    47
1040
0.0
1002
}
  0
DIMENSION
  5
A55
330
6C
100
AcDbEntity
  8
Dimension (ISO)
100
AcDbDimension
  2
*D13
 10
38052.08818484013
 20
13404.90796141908
 30
0.0
 11
38052.08818484013
 21
14568.93373095133
 31
0.0
 70
   160
  1
<>
 71
     2
 42
210.0
  3
Default (ISO)
100
AcDbAlignedDimension
 13
37185.07137023604
 23
13614.90796141908
 33
0.0
 14
37353.57137023605
 24
13404.90796141908
 34
0.0
 50
90.0
100
AcDbRotatedDimension
1001
ACAD
1000
DSTYLE
1002
{
1070
   172
1070
     1
1070
   289
1070
     1
1070
    74
1070
     0
1070
   271
1070
     2
1070
   272
1070
     2
1070
    48
1040
0.0
1070
    47
1040
0.0
1002
}
  0
DIMENSION
  5
B67
330
6C
100
AcDbEntity
  8
Dimension (ISO)
100
AcDbDimension
  2
*D14
 10
36499.80640877727
 20
13404.90796141908
 30
0.0
 11
36499.80640877727
 21
14544.90796141908
 31
0.0
 70
   160
  1
<>
 71
     2
 42
2280.000000000006
  3
Default (ISO)
100
AcDbAlignedDimension
 13
35093.57137023604
 23
15684.90796141908
 33
0.0
 14
36499.80640877727
 24
13404.90796141908
 34
0.0
 50
90.0
100
AcDbRotatedDimension
1001
ACAD
1000
DSTYLE
1002
{
1070
   172
1070
     0
1070
   289
1070
     1
1070
    74
1070
     0
1070
   271
1070
     2
1070
    76
1070
     1
1070
   272
1070
     2
1070
    48
1040
0.0
1070
    47
1040
0.0
1002
}
  0
INSERT
  5
E48
330
6C
100
AcDbEntity
  8
0
100
AcDbBlockReference
  2
88502_Street-workout-parkour-2
 10
33253.57137023423
 20
7151.584241596052
 30
0.0
  0
ENDSEC
  0
SECTION
  2
OBJECTS
  0
DICTIONARY
  5
C
330
0
100
AcDbDictionary
281
     1
  3
ACAD_COLOR
350
63
  3
ACAD_GROUP
350
D
  3
ACAD_LAYOUT
350
62
  3
ACAD_MATERIAL
350
10
  3
ACAD_MLEADERSTYLE
350
66
  3
ACAD_MLINESTYLE
350
5F
  3
ACAD_PLOTSETTINGS
350
61
  3
ACAD_PLOTSTYLENAME
350
E
  3
ACAD_SCALELIST
350
42
  3
ACAD_TABLESTYLE
350
64
  3
ACAD_VISUALSTYLE
350
29
  3
ACDB_RECOMPOSE_DATA
350
E57
  3
AcDbVariableDictionary
350
CA3
  3
DWGPROPS
350
E58
  0
DICTIONARY
  5
C62
330
8
100
AcDbDictionary
280
     1
281
     1
  0
DICTIONARY
  5
C4E
330
5D5
100
AcDbDictionary
280
     1
281
     1
  3
ACAD_MLATT
360
E4C
  3
ACAD_XREC_ROUNDTRIP
360
E4B
  0
DICTIONARY
  5
C51
330
5D7
100
AcDbDictionary
280
     1
281
     1
  3
ACAD_MLATT
360
E4E
  3
ACAD_XREC_ROUNDTRIP
360
E4D
  0
DICTIONARY
  5
C54
330
5D8
100
AcDbDictionary
280
     1
281
     1
  3
ACAD_MLATT
360
E50
  3
ACAD_XREC_ROUNDTRIP
360
E4F
  0
DICTIONARY
  5
C57
330
5DB
100
AcDbDictionary
280
     1
281
     1
  3
ACAD_MLATT
360
E52
  3
ACAD_XREC_ROUNDTRIP
360
E51
  0
DICTIONARY
  5
C5A
330
5DC
100
AcDbDictionary
280
     1
281
     1
  3
ACAD_MLATT
360
E54
  3
ACAD_XREC_ROUNDTRIP
360
E53
  0
DICTIONARY
  5
C5D
330
5DD
100
AcDbDictionary
280
     1
281
     1
  3
ACAD_MLATT
360
E56
  3
ACAD_XREC_ROUNDTRIP
360
E55
  0
DICTIONARY
  5
63
102
{ACAD_REACTORS
330
C
102
}
330
C
100
AcDbDictionary
281
     1
  0
DICTIONARY
  5
D
102
{ACAD_REACTORS
330
C
102
}
330
C
100
AcDbDictionary
281
     1
  0
DICTIONARY
  5
62
102
{ACAD_REACTORS
330
C
102
}
330
C
100
AcDbDictionary
281
     1
  3
Layout1
350
6B
  3
Layout2
350
73
  3
Model
350
6F
  0
DICTIONARY
  5
10
102
{ACAD_REACTORS
330
C
102
}
330
C
100
AcDbDictionary
281
     1
  3
ByBlock
350
19
  3
ByLayer
350
11
  3
Global
350
21
  0
DICTIONARY
  5
66
102
{ACAD_REACTORS
330
C
102
}
330
C
100
AcDbDictionary
281
     1
  3
Standard
350
67
  0
DICTIONARY
  5
5F
102
{ACAD_REACTORS
330
C
102
}
330
C
100
AcDbDictionary
281
     1
  3
Standard
350
60
  0
DICTIONARY
  5
61
102
{ACAD_REACTORS
330
C
102
}
330
C
100
AcDbDictionary
281
     1
  0
ACDBDICTIONARYWDFLT
  5
E
102
{ACAD_REACTORS
330
C
102
}
330
C
100
AcDbDictionary
281
     1
  3
Normal
350
F
100
AcDbDictionaryWithDefault
340
F
  0
DICTIONARY
  5
42
102
{ACAD_REACTORS
330
C
102
}
330
C
100
AcDbDictionary
281
     1
  3
A0
350
43
  3
A1
350
44
  3
A2
350
45
  3
A3
350
46
  3
A4
350
47
  3
A5
350
48
  3
A6
350
49
  3
A7
350
4A
  3
A8
350
4B
  3
A9
350
4C
  3
B0
350
4D
  3
B1
350
4E
  3
B2
350
4F
  3
B3
350
50
  3
B4
350
51
  3
B5
350
52
  3
B6
350
53
  0
DICTIONARY
  5
64
102
{ACAD_REACTORS
330
C
102
}
330
C
100
AcDbDictionary
281
     1
  3
Standard
350
65
  0
DICTIONARY
  5
29
102
{ACAD_REACTORS
330
C
102
}
330
C
100
AcDbDictionary
281
     1
  3
2dWireframe
350
2F
  3
Basic
350
2E
  3
Brighten
350
35
  3
ColorChange
350
39
  3
Conceptual
350
32
  3
Dim
350
34
  3
EdgeColorOff
350
41
  3
Facepattern
350
38
  3
Flat
350
2A
  3
FlatWithEdges
350
2B
  3
Gouraud
350
2C
  3
GouraudWithEdges
350
2D
  3
Hidden
350
31
  3
JitterOff
350
3F
  3
Linepattern
350
37
  3
OverhangOff
350
40
  3
Realistic
350
33
  3
Shaded
350
3E
  3
Shaded with edges
350
3D
  3
Shades of Gray
350
3A
  3
Sketchy
350
3B
  3
Thicken
350
36
  3
Wireframe
350
30
  3
X-Ray
350
3C
  0
XRECORD
  5
E57
102
{ACAD_REACTORS
330
C
102
}
330
C
100
AcDbXrecord
280
     1
 90
        1
330
65
330
5D5
330
5D7
330
5D8
330
5DB
330
5DC
330
5DD
  0
DICTIONARY
  5
CA3
102
{ACAD_REACTORS
330
C
102
}
330
C
100
AcDbDictionary
281
     1
  3
CANNOSCALE
350
CA7
  3
CMLEADERSTYLE
350
CA5
  3
CTABLESTYLE
350
CA4
  3
DIMASSOC
350
CAE
  3
HIDETEXT
350
CAD
  3
INDEXCTL
350
CAC
  3
LAYEREVAL
350
CA9
  3
LAYERNOTIFY
350
CAA
  3
LIGHTINGUNITS
350
CA8
  3
MSLTSCALE
350
CA6
  3
SORTENTS
350
CAB
  3
XCLIPFRAME
350
E49
  0
XRECORD
  5
E58
102
{ACAD_REACTORS
330
C
102
}
330
C
100
AcDbXrecord
280
     1
  1
DWGPROPS COOKIE
  2

  3

  4
Maruszak Marcin
  6

  7

  8
Natalia
  9
v1
300
Menadżer=
301
Firma=Muller Jelcz-Laskowice Sp.z o.o.
302
Kategoria=
303
Numer części=Street warkout - parkour
304
Opis=
305
Projekt=Street Workout
306
Projektant=Maruszak Marcin
307
Inżynier=Maruszak Marcin
308
Zatwierdził=Ośkiewicz Ryszard
309
Centrum kosztów=
 40
0.0379814699074074
 41
2458569.349559919
 42
2458621.587634873
  1
www.muller.com.pl
 90
       19
300
Dostawca=
300
Stan użytkownika=
300
Stan projektu=PracaWToku
300
Sprawdził=
300
Zatwierdził konstrukcję=
300
Zatwierdził do produkcji=
300
Kolor=szary
300
Stanowisko=Ploter
300
mat.=
  0
XRECORD
  5
E4C
102
{ACAD_REACTORS
330
C4E
102
}
330
C4E
100
AcDbXrecord
280
     1
 70
     4
 70
     0
 70
     0
 40
1.0
  2
Numer_katalogowy
  1
Embedded Object
 10
178.6525718386176
 20
20.68422014898354
 30
0.0
 40
2.5
 41
39.63119806127143
 46
0.0
 71
     1
 72
     5
  1
88502
  7
Note Text (ISO)
 73
     1
 44
1.0
  0
XRECORD
  5
E4B
102
{ACAD_REACTORS
330
C4E
102
}
330
C4E
100
AcDbXrecord
280
     1
102
ACAD_MATT_HEIGHT
140
2.5
  0
XRECORD
  5
E4E
102
{ACAD_REACTORS
330
C51
102
}
330
C51
100
AcDbXrecord
280
     1
 70
     4
 70
     0
 70
     0
 40
1.0
  2
DATA_UTWORZENIA
  1
Embedded Object
 10
190.5938075676742
 20
13.68925708649296
 30
0.0
 40
2.5
 41
40.52963831958745
 46
0.0
 71
     1
 72
     5
  1
2019-03-26
  7
Note Text (ISO)
 73
     1
 44
1.0
  0
XRECORD
  5
E4D
102
{ACAD_REACTORS
330
C51
102
}
330
C51
100
AcDbXrecord
280
     1
102
ACAD_MATT_HEIGHT
140
2.5
  0
XRECORD
  5
E50
102
{ACAD_REACTORS
330
C54
102
}
330
C54
100
AcDbXrecord
280
     1
 70
     4
 70
     0
 70
     0
 40
1.0
  2
Nazwa
  1
Embedded Object
 10
178.6475349011082
 20
17.1288138363798
 30
0.0
 40
2.5
 41
38.632931107587
 46
0.0
 71
     1
 72
     5
  1
Street workout-parkour 2
  7
Note Text (ISO)
 73
     1
 44
1.0
  0
XRECORD
  5
E4F
102
{ACAD_REACTORS
330
C54
102
}
330
C54
100
AcDbXrecord
280
     1
102
ACAD_MATT_HEIGHT
140
2.5
  0
XRECORD
  5
E52
102
{ACAD_REACTORS
330
C57
102
}
330
C57
100
AcDbXrecord
280
     1
 70
     2
 70
     0
 70
     0
 40
1.0
  2
Numer_katalogowy
  1
Embedded Object
 10
29887.5755541434
 20
994.2914724379079
 30
0.0
 40
250.0
 41
3963.119806127143
 46
0.0
 71
     1
 72
     5
  1
88502
  7
Note Text (ISO)
 73
     1
 44
1.0
  0
XRECORD
  5
E51
102
{ACAD_REACTORS
330
C57
102
}
330
C57
100
AcDbXrecord
280
     1
102
ACAD_MATT_HEIGHT
140
250.0
  0
XRECORD
  5
E54
102
{ACAD_REACTORS
330
C5A
102
}
330
C5A
100
AcDbXrecord
280
     1
 70
     2
 70
     0
 70
     0
 40
1.0
  2
DATA_UTWORZENIA
  1
Embedded Object
 10
31081.69912704907
 20
294.7951661888508
 30
0.0
 40
250.0
 41
4052.963831958745
 46
0.0
 71
     1
 72
     5
  1
2019-03-26
  7
Note Text (ISO)
 73
     1
 44
1.0
  0
XRECORD
  5
E53
102
{ACAD_REACTORS
330
C5A
102
}
330
C5A
100
AcDbXrecord
280
     1
102
ACAD_MATT_HEIGHT
140
250.0
  0
XRECORD
  5
E56
102
{ACAD_REACTORS
330
C5D
102
}
330
C5D
100
AcDbXrecord
280
     1
 70
     2
 70
     0
 70
     0
 40
1.0
  2
Nazwa
  1
Embedded Object
 10
29887.07186039246
 20
638.7508411775342
 30
0.0
 40
250.0
 41
3863.2931107587
 46
0.0
 71
     1
 72
     5
  1
Street workout-parkour 2
  7
Note Text (ISO)
 73
     1
 44
1.0
  0
XRECORD
  5
E55
102
{ACAD_REACTORS
330
C5D
102
}
330
C5D
100
AcDbXrecord
280
     1
102
ACAD_MATT_HEIGHT
140
250.0
  0
LAYOUT
  5
6B
102
{ACAD_XDICTIONARY
360
E8D
102
}
102
{ACAD_REACTORS
330
62
102
}
330
62
100
AcDbPlotSettings
  1

  2

  4

  6

 40
0.0
 41
0.0
 42
0.0
 43
0.0
 44
0.0
 45
0.0
 46
0.0
 47
0.0
 48
0.0
 49
0.0
140
0.0
141
0.0
142
1.0
143
1.0
 70
   688
 72
     0
 73
     0
 74
     5
  7

 75
    16
147
1.0
148
0.0
149
0.0
100
AcDbLayout
  1
Layout1
 70
     1
 71
     1
 10
0.0
 20
0.0
 11
29700.0
 21
21000.0
 12
0.0
 22
0.0
 32
0.0
 14
0.0
 24
0.0
 34
0.0
 15
29700.0
 25
21000.0
 35
0.0
146
0.0
 13
0.0
 23
0.0
 33
0.0
 16
1.0
 26
0.0
 36
0.0
 17
0.0
 27
1.0
 37
0.0
 76
     0
330
68
  0
LAYOUT
  5
73
102
{ACAD_XDICTIONARY
360
E91
102
}
102
{ACAD_REACTORS
330
62
102
}
330
62
100
AcDbPlotSettings
  1

  2

  4

  6

 40
0.0
 41
0.0
 42
0.0
 43
0.0
 44
0.0
 45
0.0
 46
0.0
 47
0.0
 48
0.0
 49
0.0
140
0.0
141
0.0
142
1.0
143
1.0
 70
   688
 72
     0
 73
     0
 74
     5
  7

 75
    16
147
1.0
148
0.0
149
0.0
100
AcDbLayout
  1
Layout2
 70
     1
 71
     2
 10
0.0
 20
0.0
 11
12.0
 21
9.0
 12
0.0
 22
0.0
 32
0.0
 14
0.0
 24
0.0
 34
0.0
 15
0.0
 25
0.0
 35
0.0
146
0.0
 13
0.0
 23
0.0
 33
0.0
 16
1.0
 26
0.0
 36
0.0
 17
0.0
 27
1.0
 37
0.0
 76
     0
330
70
  0
LAYOUT
  5
6F
102
{ACAD_XDICTIONARY
360
E8F
102
}
102
{ACAD_REACTORS
330
62
102
}
330
62
100
AcDbPlotSettings
  1

  2

  4

  6

 40
0.0
 41
0.0
 42
0.0
 43
0.0
 44
0.0
 45
0.0
 46
0.0
 47
0.0
 48
0.0
 49
0.0
140
0.0
141
0.0
142
1.0
143
1.0
 70
  1712
 72
     0
 73
     0
 74
     0
  7

 75
     0
147
1.0
148
0.0
149
0.0
100
AcDbLayout
  1
Model
 70
     1
 71
     0
 10
0.0
 20
0.0
 11
12.0
 21
9.0
 12
0.0
 22
0.0
 32
0.0
 14
0.0
 24
0.0
 34
0.0
 15
0.0
 25
0.0
 35
0.0
146
0.0
 13
0.0
 23
0.0
 33
0.0
 16
1.0
 26
0.0
 36
0.0
 17
0.0
 27
1.0
 37
0.0
 76
     0
330
6C
331
57
  0
MATERIAL
  5
19
102
{ACAD_XDICTIONARY
360
1A
102
}
102
{ACAD_REACTORS
330
10
102
}
330
10
100
AcDbMaterial
  1
ByBlock
 72
     0
 43
0.0208333333333333
 43
0.0
 43
0.0
 43
0.0
 43
0.0
 43
0.0208333333333333
 43
0.0
 43
0.0
 43
0.0
 43
0.0
 43
1.0
 43
0.0
 43
0.0
 43
0.0
 43
0.0
 43
1.0
 77
     0
 47
0.0208333333333333
 47
0.0
 47
0.0
 47
0.0
 47
0.0
 47
0.0208333333333333
 47
0.0
 47
0.0
 47
0.0
 47
0.0
 47
1.0
 47
0.0
 47
0.0
 47
0.0
 47
0.0
 47
1.0
171
     0
 49
0.0208333333333333
 49
0.0
 49
0.0
 49
0.0
 49
0.0
 49
0.0208333333333333
 49
0.0
 49
0.0
 49
0.0
 49
0.0
 49
1.0
 49
0.0
 49
0.0
 49
0.0
 49
0.0
 49
1.0
175
     0
142
0.0208333333333333
142
0.0
142
0.0
142
0.0
142
0.0
142
0.0208333333333333
142
0.0
142
0.0
142
0.0
142
0.0
142
1.0
142
0.0
142
0.0
142
0.0
142
0.0
142
1.0
179
     0
144
0.0208333333333333
144
0.0
144
0.0
144
0.0
144
0.0
144
0.0208333333333333
144
0.0
144
0.0
144
0.0
144
0.0
144
1.0
144
0.0
144
0.0
144
0.0
144
0.0
144
1.0
147
0.0208333333333333
147
0.0
147
0.0
147
0.0
147
0.0
147
0.0208333333333333
147
0.0
147
0.0
147
0.0
147
0.0
147
1.0
147
0.0
147
0.0
147
0.0
147
0.0
147
1.0
  0
MATERIAL
  5
11
102
{ACAD_XDICTIONARY
360
12
102
}
102
{ACAD_REACTORS
330
10
102
}
330
10
100
AcDbMaterial
  1
ByLayer
 72
     0
 43
0.0208333333333333
 43
0.0
 43
0.0
 43
0.0
 43
0.0
 43
0.0208333333333333
 43
0.0
 43
0.0
 43
0.0
 43
0.0
 43
1.0
 43
0.0
 43
0.0
 43
0.0
 43
0.0
 43
1.0
 77
     0
 47
0.0208333333333333
 47
0.0
 47
0.0
 47
0.0
 47
0.0
 47
0.0208333333333333
 47
0.0
 47
0.0
 47
0.0
 47
0.0
 47
1.0
 47
0.0
 47
0.0
 47
0.0
 47
0.0
 47
1.0
171
     0
 49
0.0208333333333333
 49
0.0
 49
0.0
 49
0.0
 49
0.0
 49
0.0208333333333333
 49
0.0
 49
0.0
 49
0.0
 49
0.0
 49
1.0
 49
0.0
 49
0.0
 49
0.0
 49
0.0
 49
1.0
175
     0
142
0.0208333333333333
142
0.0
142
0.0
142
0.0
142
0.0
142
0.0208333333333333
142
0.0
142
0.0
142
0.0
142
0.0
142
1.0
142
0.0
142
0.0
142
0.0
142
0.0
142
1.0
179
     0
144
0.0208333333333333
144
0.0
144
0.0
144
0.0
144
0.0
144
0.0208333333333333
144
0.0
144
0.0
144
0.0
144
0.0
144
1.0
144
0.0
144
0.0
144
0.0
144
0.0
144
1.0
147
0.0208333333333333
147
0.0
147
0.0
147
0.0
147
0.0
147
0.0208333333333333
147
0.0
147
0.0
147
0.0
147
0.0
147
1.0
147
0.0
147
0.0
147
0.0
147
0.0
147
1.0
  0
MATERIAL
  5
21
102
{ACAD_XDICTIONARY
360
22
102
}
102
{ACAD_REACTORS
330
10
102
}
330
10
100
AcDbMaterial
  1
Global
 72
     0
 43
0.0208333333333333
 43
0.0
 43
0.0
 43
0.0
 43
0.0
 43
0.0208333333333333
 43
0.0
 43
0.0
 43
0.0
 43
0.0
 43
1.0
 43
0.0
 43
0.0
 43
0.0
 43
0.0
 43
1.0
 77
     0
 47
0.0208333333333333
 47
0.0
 47
0.0
 47
0.0
 47
0.0
 47
0.0208333333333333
 47
0.0
 47
0.0
 47
0.0
 47
0.0
 47
1.0
 47
0.0
 47
0.0
 47
0.0
 47
0.0
 47
1.0
171
     0
 49
0.0208333333333333
 49
0.0
 49
0.0
 49
0.0
 49
0.0
 49
0.0208333333333333
 49
0.0
 49
0.0
 49
0.0
 49
0.0
 49
1.0
 49
0.0
 49
0.0
 49
0.0
 49
0.0
 49
1.0
175
     0
142
0.0208333333333333
142
0.0
142
0.0
142
0.0
142
0.0
142
0.0208333333333333
142
0.0
142
0.0
142
0.0
142
0.0
142
1.0
142
0.0
142
0.0
142
0.0
142
0.0
142
1.0
179
     0
144
0.0208333333333333
144
0.0
144
0.0
144
0.0
144
0.0
144
0.0208333333333333
144
0.0
144
0.0
144
0.0
144
0.0
144
1.0
144
0.0
144
0.0
144
0.0
144
0.0
144
1.0
147
0.0208333333333333
147
0.0
147
0.0
147
0.0
147
0.0
147
0.0208333333333333
147
0.0
147
0.0
147
0.0
147
0.0
147
1.0
147
0.0
147
0.0
147
0.0
147
0.0
147
1.0
  0
MLEADERSTYLE
  5
67
102
{ACAD_REACTORS
330
66
102
}
330
66
100
AcDbMLeaderStyle
170
     2
171
     1
172
     0
 90
        2
 40
0.0
 41
0.0
173
     1
 91
-1056964608
340
5B
 92
       -2
290
     1
 42
0.09
291
     1
 43
0.36
  3
Standard
 44
0.18
300

342
55
174
     1
178
     6
175
     1
176
     0
 93
-1056964608
 45
0.18
292
     0
297
     0
 46
0.18
 94
-1056964608
 47
1.0
 49
1.0
140
1.0
293
     1
141
0.0
294
     1
177
     0
142
1.0
295
     0
296
     0
143
0.125
1001
ACAD_MLEADERVER
1070
     2
  0
MLINESTYLE
  5
60
102
{ACAD_REACTORS
330
5F
102
}
330
5F
100
AcDbMlineStyle
  2
STANDARD
 70
     0
  3

 62
   256
 51
90.0
 52
90.0
 71
     2
 49
0.5
 62
   256
  6
BYLAYER
 49
-0.5
 62
   256
  6
BYLAYER
  0
ACDBPLACEHOLDER
  5
F
102
{ACAD_REACTORS
330
E
102
}
330
E
  0
SCALE
  5
43
102
{ACAD_REACTORS
330
42
102
}
330
42
100
AcDbScale
 70
     0
300
1:1
140
1.0
141
1.0
290
     1
  0
SCALE
  5
44
102
{ACAD_REACTORS
330
42
102
}
330
42
100
AcDbScale
 70
     0
300
1/128" = 1'-0"
140
0.0078125
141
12.0
290
     0
  0
SCALE
  5
45
102
{ACAD_REACTORS
330
42
102
}
330
42
100
AcDbScale
 70
     0
300
1/64" = 1'-0"
140
0.015625
141
12.0
290
     0
  0
SCALE
  5
46
102
{ACAD_REACTORS
330
42
102
}
330
42
100
AcDbScale
 70
     0
300
1/32" = 1'-0"
140
0.03125
141
12.0
290
     0
  0
SCALE
  5
47
102
{ACAD_REACTORS
330
42
102
}
330
42
100
AcDbScale
 70
     0
300
1/16" = 1'-0"
140
0.0625
141
12.0
290
     0
  0
SCALE
  5
48
102
{ACAD_REACTORS
330
42
102
}
330
42
100
AcDbScale
 70
     0
300
3/32" = 1'-0"
140
0.09375
141
12.0
290
     0
  0
SCALE
  5
49
102
{ACAD_REACTORS
330
42
102
}
330
42
100
AcDbScale
 70
     0
300
1/8" = 1'-0"
140
0.125
141
12.0
290
     0
  0
SCALE
  5
4A
102
{ACAD_REACTORS
330
42
102
}
330
42
100
AcDbScale
 70
     0
300
3/16" = 1'-0"
140
0.1875
141
12.0
290
     0
  0
SCALE
  5
4B
102
{ACAD_REACTORS
330
42
102
}
330
42
100
AcDbScale
 70
     0
300
1/4" = 1'-0"
140
0.25
141
12.0
290
     0
  0
SCALE
  5
4C
102
{ACAD_REACTORS
330
42
102
}
330
42
100
AcDbScale
 70
     0
300
3/8" = 1'-0"
140
0.375
141
12.0
290
     0
  0
SCALE
  5
4D
102
{ACAD_REACTORS
330
42
102
}
330
42
100
AcDbScale
 70
     0
300
1/2" = 1'-0"
140
0.5
141
12.0
290
     0
  0
SCALE
  5
4E
102
{ACAD_REACTORS
330
42
102
}
330
42
100
AcDbScale
 70
     0
300
3/4" = 1'-0"
140
0.75
141
12.0
290
     0
  0
SCALE
  5
4F
102
{ACAD_REACTORS
330
42
102
}
330
42
100
AcDbScale
 70
     0
300
1" = 1'-0"
140
1.0
141
12.0
290
     0
  0
SCALE
  5
50
102
{ACAD_REACTORS
330
42
102
}
330
42
100
AcDbScale
 70
     0
300
1-1/2" = 1'-0"
140
1.5
141
12.0
290
     0
  0
SCALE
  5
51
102
{ACAD_REACTORS
330
42
102
}
330
42
100
AcDbScale
 70
     0
300
3" = 1'-0"
140
3.0
141
12.0
290
     0
  0
SCALE
  5
52
102
{ACAD_REACTORS
330
42
102
}
330
42
100
AcDbScale
 70
     0
300
6" = 1'-0"
140
6.0
141
12.0
290
     0
  0
SCALE
  5
53
102
{ACAD_REACTORS
330
42
102
}
330
42
100
AcDbScale
 70
     0
300
1'-0" = 1'-0"
140
12.0
141
12.0
290
     0
  0
TABLESTYLE
  5
65
102
{ACAD_XDICTIONARY
360
C4C
102
}
102
{ACAD_REACTORS
330
64
102
}
330
64
100
AcDbTableStyle
  3
Standard
 70
     0
 71
     0
 40
0.06
 41
0.06
280
     0
281
     0
  7
Standard
140
0.18
170
     2
 62
     0
 63
     7
283
     0
274
    -2
284
     1
 64
     0
275
    -2
285
     1
 65
     0
276
    -2
286
     1
 66
     0
277
    -2
287
     1
 67
     0
278
    -2
288
     1
 68
     0
279
    -2
289
     1
 69
     0
  7
Standard
140
0.25
170
     5
 62
     0
 63
     7
283
     0
274
    -2
284
     1
 64
     0
275
    -2
285
     1
 65
     0
276
    -2
286
     1
 66
     0
277
    -2
287
     1
 67
     0
278
    -2
288
     1
 68
     0
279
    -2
289
     1
 69
     0
  7
Standard
140
0.18
170
     5
 62
     0
 63
     7
283
     0
274
    -2
284
     1
 64
     0
275
    -2
285
     1
 65
     0
276
    -2
286
     1
 66
     0
277
    -2
287
     1
 67
     0
278
    -2
288
     1
 68
     0
279
    -2
289
     1
 69
     0
  0
VISUALSTYLE
  5
2F
102
{ACAD_XDICTIONARY
360
E66
102
}
102
{ACAD_REACTORS
330
29
102
}
330
29
100
AcDbVisualStyle
  2
2dWireframe
 70
     4
 71
     0
 72
     2
 73
     0
 90
        0
 40
-0.6
 41
-30.0
 62
     5
 63
     7
 74
     1
 91
        4
 64
     7
 65
   257
 75
     1
175
     1
 42
1.0
 92
        0
 66
   257
 43
1.0
 76
     1
 77
     6
 78
     2
 67
     7
 79
     5
170
     0
171
     0
290
     0
174
     0
 93
        1
 44
0.0
173
     0
291
     0
 45
0.0
1001
ACAD
1000
AcDbSavedByObjectVersion
1070
     0
  0
VISUALSTYLE
  5
2E
102
{ACAD_XDICTIONARY
360
E64
102
}
102
{ACAD_REACTORS
330
29
102
}
330
29
100
AcDbVisualStyle
  2
Basic
 70
     7
 71
     1
 72
     0
 73
     1
 90
        0
 40
-0.6
 41
-30.0
 62
     5
 63
     7
 74
     0
 91
        4
 64
     7
 65
   257
 75
     1
175
     1
 42
1.0
 92
        8
 66
     7
 43
1.0
 76
     1
 77
     6
 78
     2
 67
     7
 79
     5
170
     0
171
     0
290
     0
174
     0
 93
        1
 44
0.0
173
     0
291
     1
 45
0.0
1001
ACAD
1000
AcDbSavedByObjectVersion
1070
     0
  0
VISUALSTYLE
  5
35
102
{ACAD_XDICTIONARY
360
E72
102
}
102
{ACAD_REACTORS
330
29
102
}
330
29
100
AcDbVisualStyle
  2
Brighten
 70
    12
 71
     2
 72
     2
 73
     0
 90
        0
 40
-0.6
 41
-30.0
 62
     5
 63
     7
 74
     1
 91
        4
 64
     7
 65
   257
 75
     1
175
     1
 42
1.0
 92
        8
 66
     7
 43
1.0
 76
     1
 77
     6
 78
     2
 67
     7
 79
     5
170
     0
171
     0
290
     0
174
     0
 93
        1
 44
50.0
173
     0
291
     1
 45
0.0
1001
ACAD
1000
AcDbSavedByObjectVersion
1070
     0
  0
VISUALSTYLE
  5
39
102
{ACAD_XDICTIONARY
360
E7A
102
}
102
{ACAD_REACTORS
330
29
102
}
330
29
100
AcDbVisualStyle
  2
ColorChange
 70
    16
 71
     2
 72
     2
 73
     3
 90
        0
 40
-0.6
 41
-30.0
 62
     5
 63
     8
 74
     1
 91
        4
 64
     7
 65
   257
 75
     1
175
     1
 42
1.0
 92
        8
 66
     8
 43
1.0
 76
     1
 77
     6
 78
     2
 67
     7
 79
     5
170
     0
171
     0
290
     0
174
     0
 93
        1
 44
0.0
173
     0
291
     1
 45
0.0
1001
ACAD
1000
AcDbSavedByObjectVersion
1070
     0
  0
VISUALSTYLE
  5
32
102
{ACAD_XDICTIONARY
360
E6C
102
}
102
{ACAD_REACTORS
330
29
102
}
330
29
100
AcDbVisualStyle
  2
Conceptual
 70
     9
 71
     3
 72
     2
 73
     0
 90
        0
 40
-0.6
 41
-30.0
 62
     5
 63
     7
 74
     2
 91
        2
 64
     7
 65
   257
 75
     1
175
     1
 42
179.0
 92
        8
 66
     7
 43
1.0
 76
     1
 77
     6
 78
     2
 67
     7
 79
     3
170
     0
171
     0
290
     0
174
     0
 93
        1
 44
0.0
173
     0
291
     0
 45
0.0
1001
ACAD
1000
AcDbSavedByObjectVersion
1070
     0
  0
VISUALSTYLE
  5
34
102
{ACAD_XDICTIONARY
360
E70
102
}
102
{ACAD_REACTORS
330
29
102
}
330
29
100
AcDbVisualStyle
  2
Dim
 70
    11
 71
     2
 72
     2
 73
     0
 90
        0
 40
-0.6
 41
-30.0
 62
     5
 63
     7
 74
     1
 91
        4
 64
     7
 65
   257
 75
     1
175
     1
 42
1.0
 92
        8
 66
     7
 43
1.0
 76
     1
 77
     6
 78
     2
 67
     7
 79
     5
170
     0
171
     0
290
     0
174
     0
 93
        1
 44
-50.0
173
     0
291
     1
 45
0.0
1001
ACAD
1000
AcDbSavedByObjectVersion
1070
     0
  0
VISUALSTYLE
  5
41
102
{ACAD_XDICTIONARY
360
E8A
102
}
102
{ACAD_REACTORS
330
29
102
}
330
29
100
AcDbVisualStyle
  2
EdgeColorOff
 70
    22
 71
     2
 72
     2
 73
     0
 90
        0
 40
-0.6
 41
-30.0
 62
     5
 63
     7
 74
     1
 91
        4
 64
     7
 65
   257
 75
     1
175
     1
 42
1.0
 92
        8
 66
     7
 43
1.0
 76
     1
 77
     6
 78
     2
 67
     7
 79
     5
170
     0
171
     0
290
     0
174
     0
 93
        1
 44
0.0
173
     0
291
     1
 45
0.0
1001
ACAD
1000
AcDbSavedByObjectVersion
1070
     0
  0
VISUALSTYLE
  5
38
102
{ACAD_XDICTIONARY
360
E78
102
}
102
{ACAD_REACTORS
330
29
102
}
330
29
100
AcDbVisualStyle
  2
Facepattern
 70
    15
 71
     2
 72
     2
 73
     0
 90
        0
 40
-0.6
 41
-30.0
 62
     5
 63
     7
 74
     1
 91
        4
 64
     7
 65
   257
 75
     1
175
     1
 42
1.0
 92
        8
 66
     7
 43
1.0
 76
     1
 77
     6
 78
     2
 67
     7
 79
     5
170
     0
171
     0
290
     0
174
     0
 93
        1
 44
0.0
173
     0
291
     1
 45
0.0
1001
ACAD
1000
AcDbSavedByObjectVersion
1070
     0
  0
VISUALSTYLE
  5
2A
102
{ACAD_XDICTIONARY
360
E5C
102
}
102
{ACAD_REACTORS
330
29
102
}
330
29
100
AcDbVisualStyle
  2
Flat
 70
     0
 71
     2
 72
     1
 73
     1
 90
        2
 40
-0.6
 41
30.0
 62
     5
 63
     7
 74
     0
 91
        0
 64
     7
 65
   257
 75
     1
175
     1
 42
1.0
 92
        8
 66
     7
 43
1.0
 76
     1
 77
     6
 78
     2
 67
     7
 79
     5
170
     0
171
     0
290
     0
174
     0
 93
       13
 44
0.0
173
     0
291
     1
 45
0.0
1001
ACAD
1000
AcDbSavedByObjectVersion
1070
     0
  0
VISUALSTYLE
  5
2B
102
{ACAD_XDICTIONARY
360
E5E
102
}
102
{ACAD_REACTORS
330
29
102
}
330
29
100
AcDbVisualStyle
  2
FlatWithEdges
 70
     1
 71
     2
 72
     1
 73
     1
 90
        2
 40
-0.6
 41
30.0
 62
     5
 63
     7
 74
     1
 91
        0
 64
     7
 65
   257
 75
     1
175
     1
 42
1.0
 92
        0
 66
   257
 43
1.0
 76
     1
 77
     6
 78
     2
 67
     7
 79
     5
170
     0
171
     0
290
     0
174
     0
 93
       13
 44
0.0
173
     0
291
     1
 45
0.0
1001
ACAD
1000
AcDbSavedByObjectVersion
1070
     0
  0
VISUALSTYLE
  5
2C
102
{ACAD_XDICTIONARY
360
E60
102
}
102
{ACAD_REACTORS
330
29
102
}
330
29
100
AcDbVisualStyle
  2
Gouraud
 70
     2
 71
     2
 72
     2
 73
     1
 90
        2
 40
-0.6
 41
30.0
 62
     5
 63
     7
 74
     0
 91
        0
 64
     7
 65
   257
 75
     1
175
     1
 42
1.0
 92
        0
 66
     7
 43
1.0
 76
     1
 77
     6
 78
     2
 67
     7
 79
     5
170
     0
171
     0
290
     0
174
     0
 93
       13
 44
0.0
173
     0
291
     1
 45
0.0
1001
ACAD
1000
AcDbSavedByObjectVersion
1070
     0
  0
VISUALSTYLE
  5
2D
102
{ACAD_XDICTIONARY
360
E62
102
}
102
{ACAD_REACTORS
330
29
102
}
330
29
100
AcDbVisualStyle
  2
GouraudWithEdges
 70
     3
 71
     2
 72
     2
 73
     1
 90
        2
 40
-0.6
 41
30.0
 62
     5
 63
     7
 74
     1
 91
        0
 64
     7
 65
   257
 75
     1
175
     1
 42
1.0
 92
        0
 66
   257
 43
1.0
 76
     1
 77
     6
 78
     2
 67
     7
 79
     5
170
     0
171
     0
290
     0
174
     0
 93
       13
 44
0.0
173
     0
291
     1
 45
0.0
1001
ACAD
1000
AcDbSavedByObjectVersion
1070
     0
  0
VISUALSTYLE
  5
31
102
{ACAD_XDICTIONARY
360
E6A
102
}
102
{ACAD_REACTORS
330
29
102
}
330
29
100
AcDbVisualStyle
  2
Hidden
 70
     6
 71
     1
 72
     2
 73
     2
 90
        0
 40
-0.6
 41
-30.0
 62
     5
 63
     7
 74
     2
 91
        2
 64
     7
 65
   257
 75
     2
175
     1
 42
40.0
 92
        0
 66
   257
 43
1.0
 76
     1
 77
     6
 78
     2
 67
     7
 79
     3
170
     0
171
     0
290
     0
174
     0
 93
        1
 44
0.0
173
     0
291
     0
 45
0.0
1001
ACAD
1000
AcDbSavedByObjectVersion
1070
     0
  0
VISUALSTYLE
  5
3F
102
{ACAD_XDICTIONARY
360
E86
102
}
102
{ACAD_REACTORS
330
29
102
}
330
29
100
AcDbVisualStyle
  2
JitterOff
 70
    20
 71
     2
 72
     2
 73
     0
 90
        0
 40
-0.6
 41
-30.0
 62
     5
 63
     7
 74
     1
 91
        4
 64
     7
 65
   257
 75
     1
175
     1
 42
1.0
 92
       10
 66
     7
 43
1.0
 76
     1
 77
     6
 78
     2
 67
     7
 79
     5
170
     0
171
     0
290
     0
174
     0
 93
        1
 44
0.0
173
     0
291
     1
 45
0.0
1001
ACAD
1000
AcDbSavedByObjectVersion
1070
     0
  0
VISUALSTYLE
  5
37
102
{ACAD_XDICTIONARY
360
E76
102
}
102
{ACAD_REACTORS
330
29
102
}
330
29
100
AcDbVisualStyle
  2
Linepattern
 70
    14
 71
     2
 72
     2
 73
     0
 90
        0
 40
-0.6
 41
-30.0
 62
     5
 63
     7
 74
     1
 91
        4
 64
     7
 65
   257
 75
     7
175
     7
 42
1.0
 92
        8
 66
     7
 43
1.0
 76
     1
 77
     6
 78
     2
 67
     7
 79
     5
170
     0
171
     0
290
     0
174
     0
 93
        1
 44
0.0
173
     0
291
     1
 45
0.0
1001
ACAD
1000
AcDbSavedByObjectVersion
1070
     0
  0
VISUALSTYLE
  5
40
102
{ACAD_XDICTIONARY
360
E88
102
}
102
{ACAD_REACTORS
330
29
102
}
330
29
100
AcDbVisualStyle
  2
OverhangOff
 70
    21
 71
     2
 72
     2
 73
     0
 90
        0
 40
-0.6
 41
-30.0
 62
     5
 63
     7
 74
     1
 91
        4
 64
     7
 65
   257
 75
     1
175
     1
 42
1.0
 92
        9
 66
     7
 43
1.0
 76
     1
 77
     6
 78
     2
 67
     7
 79
     5
170
     0
171
     0
290
     0
174
     0
 93
        1
 44
0.0
173
     0
291
     1
 45
0.0
1001
ACAD
1000
AcDbSavedByObjectVersion
1070
     0
  0
VISUALSTYLE
  5
33
102
{ACAD_XDICTIONARY
360
E6E
102
}
102
{ACAD_REACTORS
330
29
102
}
330
29
100
AcDbVisualStyle
  2
Realistic
 70
     8
 71
     2
 72
     2
 73
     0
 90
        2
 40
-0.6
 41
30.0
 62
     5
 63
     7
 74
     0
 91
        0
 64
     7
 65
   257
 75
     1
175
     1
 42
1.0
 92
        8
 66
   257
 43
1.0
 76
     1
 77
     6
 78
     2
 67
     7
 79
     3
170
     0
171
     0
290
     0
174
     0
 93
       13
 44
0.0
173
     0
291
     0
 45
0.0
1001
ACAD
1000
AcDbSavedByObjectVersion
1070
     0
  0
VISUALSTYLE
  5
3E
102
{ACAD_XDICTIONARY
360
E84
102
}
102
{ACAD_REACTORS
330
29
102
}
330
29
100
AcDbVisualStyle
  2
Shaded
 70
    27
 71
     2
 72
     2
 73
     1
 90
        2
 40
-0.6
 41
30.0
 62
     5
 63
     7
 74
     0
 91
        4
 64
     7
 65
   257
 75
     1
175
     1
 42
1.0
 92
        8
 66
   257
 43
1.0
 76
     1
 77
     6
 78
     2
 67
     8
 79
     3
170
     0
171
     0
290
     0
174
     0
 93
        5
 44
0.0
173
     0
291
     0
 45
0.0
1001
ACAD
1000
AcDbSavedByObjectVersion
1070
     0
  0
VISUALSTYLE
  5
3D
102
{ACAD_XDICTIONARY
360
E82
102
}
102
{ACAD_REACTORS
330
29
102
}
330
29
100
AcDbVisualStyle
  2
Shaded with edges
 70
    26
 71
     2
 72
     2
 73
     1
 90
        2
 40
-0.6
 41
30.0
 62
     5
 63
     7
 74
     1
 91
       10
 64
     7
 65
   257
 75
     2
175
     1
 42
1.0
 92
        8
 66
   257
 43
1.0
 76
     1
 77
     6
 78
     2
 67
     7
 79
     3
170
     0
171
     0
290
     0
174
     0
 93
        5
 44
0.0
173
     0
291
     0
 45
0.0
1001
ACAD
1000
AcDbSavedByObjectVersion
1070
     0
  0
VISUALSTYLE
  5
3A
102
{ACAD_XDICTIONARY
360
E7C
102
}
102
{ACAD_REACTORS
330
29
102
}
330
29
100
AcDbVisualStyle
  2
Shades of Gray
 70
    23
 71
     2
 72
     2
 73
     3
 90
        0
 40
-0.6
 41
-30.0
 62
     5
 63
     7
 74
     2
 91
        2
 64
     7
 65
     7
 75
     1
175
     1
 42
40.0
 92
        8
 66
     7
 43
1.0
 76
     1
 77
     6
 78
     2
 67
     7
 79
     3
170
     0
171
     0
290
     0
174
     0
 93
        1
 44
0.0
173
     0
291
     0
 45
0.0
1001
ACAD
1000
AcDbSavedByObjectVersion
1070
     0
  0
VISUALSTYLE
  5
3B
102
{ACAD_XDICTIONARY
360
E7E
102
}
102
{ACAD_REACTORS
330
29
102
}
330
29
100
AcDbVisualStyle
  2
Sketchy
 70
    24
 71
     1
 72
     2
 73
     2
 90
        0
 40
-0.6
 41
-30.0
 62
     5
 63
     7
 74
     2
 91
        2
 64
     7
 65
     7
 75
     1
175
     1
 42
40.0
 92
       11
 66
     7
 43
1.0
 76
     1
 77
     6
 78
     2
 67
     7
 79
     6
170
     0
171
     0
290
     0
174
     0
 93
        1
 44
0.0
173
     0
291
     0
 45
0.0
1001
ACAD
1000
AcDbSavedByObjectVersion
1070
     0
  0
VISUALSTYLE
  5
36
102
{ACAD_XDICTIONARY
360
E74
102
}
102
{ACAD_REACTORS
330
29
102
}
330
29
100
AcDbVisualStyle
  2
Thicken
 70
    13
 71
     2
 72
     2
 73
     0
 90
        0
 40
-0.6
 41
-30.0
 62
     5
 63
     7
 74
     1
 91
        4
 64
     7
 65
   257
 75
     1
175
     1
 42
1.0
 92
       12
 66
     7
 43
1.0
 76
     1
 77
     6
 78
     2
 67
     7
 79
     5
170
     0
171
     0
290
     0
174
     0
 93
        1
 44
0.0
173
     0
291
     1
 45
0.0
1001
ACAD
1000
AcDbSavedByObjectVersion
1070
     0
  0
VISUALSTYLE
  5
30
102
{ACAD_XDICTIONARY
360
E68
102
}
102
{ACAD_REACTORS
330
29
102
}
330
29
100
AcDbVisualStyle
  2
Wireframe
 70
     5
 71
     0
 72
     2
 73
     0
 90
        0
 40
-0.6
 41
-30.0
 62
     5
 63
     7
 74
     1
 91
        4
 64
     7
 65
   257
 75
     1
175
     1
 42
1.0
 92
        0
 66
   257
 43
1.0
 76
     1
 77
     6
 78
     2
 67
     7
 79
     3
170
     0
171
     0
290
     0
174
     0
 93
        1
 44
0.0
173
     0
291
     0
 45
0.0
1001
ACAD
1000
AcDbSavedByObjectVersion
1070
     0
  0
VISUALSTYLE
  5
3C
102
{ACAD_XDICTIONARY
360
E80
102
}
102
{ACAD_REACTORS
330
29
102
}
330
29
100
AcDbVisualStyle
  2
X-Ray
 70
    25
 71
     2
 72
     2
 73
     1
 90
        1
 40
0.5
 41
-30.0
 62
     5
 63
     7
 74
     1
 91
        0
 64
     7
 65
   257
 75
     1
175
     1
 42
1.0
 92
        8
 66
     7
 43
1.0
 76
     1
 77
     6
 78
     2
 67
     7
 79
     3
170
     0
171
     0
290
     0
174
     0
 93
       13
 44
0.0
173
     0
291
     0
 45
0.0
1001
ACAD
1000
AcDbSavedByObjectVersion
1070
     0
  0
DICTIONARYVAR
  5
CA7
102
{ACAD_REACTORS
330
CA3
102
}
330
CA3
100
DictionaryVariables
280
     0
  1
1:1
  0
DICTIONARYVAR
  5
CA5
102
{ACAD_REACTORS
330
CA3
102
}
330
CA3
100
DictionaryVariables
280
     0
  1
STANDARD
  0
DICTIONARYVAR
  5
CA4
102
{ACAD_REACTORS
330
CA3
102
}
330
CA3
100
DictionaryVariables
280
     0
  1
STANDARD
  0
DICTIONARYVAR
  5
CAE
102
{ACAD_REACTORS
330
CA3
102
}
330
CA3
100
DictionaryVariables
280
     0
  1
1
  0
DICTIONARYVAR
  5
CAD
102
{ACAD_REACTORS
330
CA3
102
}
330
CA3
100
DictionaryVariables
280
     0
  1
1
  0
DICTIONARYVAR
  5
CAC
102
{ACAD_REACTORS
330
CA3
102
}
330
CA3
100
DictionaryVariables
280
     0
  1
0
  0
DICTIONARYVAR
  5
CA9
102
{ACAD_REACTORS
330
CA3
102
}
330
CA3
100
DictionaryVariables
280
     0
  1
0
  0
DICTIONARYVAR
  5
CAA
102
{ACAD_REACTORS
330
CA3
102
}
330
CA3
100
DictionaryVariables
280
     0
  1
0
  0
DICTIONARYVAR
  5
CA8
102
{ACAD_REACTORS
330
CA3
102
}
330
CA3
100
DictionaryVariables
280
     0
  1
2
  0
DICTIONARYVAR
  5
CA6
102
{ACAD_REACTORS
330
CA3
102
}
330
CA3
100
DictionaryVariables
280
     0
  1
1
  0
DICTIONARYVAR
  5
CAB
102
{ACAD_REACTORS
330
CA3
102
}
330
CA3
100
DictionaryVariables
280
     0
  1
127
  0
DICTIONARYVAR
  5
E49
102
{ACAD_REACTORS
330
CA3
102
}
330
CA3
100
DictionaryVariables
280
     0
  1
2
  0
DICTIONARY
  5
E8D
330
6B
100
AcDbDictionary
280
     1
281
     1
  3
ACAD_XREC_ROUNDTRIP
360
E8E
  0
DICTIONARY
  5
E91
330
73
100
AcDbDictionary
280
     1
281
     1
  3
ACAD_XREC_ROUNDTRIP
360
E92
  0
DICTIONARY
  5
E8F
330
6F
100
AcDbDictionary
280
     1
281
     1
  3
ACAD_XREC_ROUNDTRIP
360
E90
  0
DICTIONARY
  5
1A
330
19
100
AcDbDictionary
280
     1
281
     1
  3
ACAD_XREC_ROUNDTRIP
360
E5A
  3
BUMPTILE
360
1C
  3
DIFFUSETILE
360
1B
  3
OPACITYTILE
360
1F
  3
REFLECTIONTILE
360
1E
  3
REFRACTIONTILE
360
20
  3
SPECULARTILE
360
1D
  0
DICTIONARY
  5
12
330
11
100
AcDbDictionary
280
     1
281
     1
  3
ACAD_XREC_ROUNDTRIP
360
E59
  3
BUMPTILE
360
14
  3
DIFFUSETILE
360
13
  3
OPACITYTILE
360
17
  3
REFLECTIONTILE
360
16
  3
REFRACTIONTILE
360
18
  3
SPECULARTILE
360
15
  0
DICTIONARY
  5
22
330
21
100
AcDbDictionary
280
     1
281
     1
  3
ACAD_XREC_ROUNDTRIP
360
E5B
  3
BUMPTILE
360
24
  3
DIFFUSETILE
360
23
  3
OPACITYTILE
360
27
  3
REFLECTIONTILE
360
26
  3
REFRACTIONTILE
360
28
  3
SPECULARTILE
360
25
  0
DICTIONARY
  5
C4C
330
65
100
AcDbDictionary
280
     1
281
     1
  3
ACAD_ROUNDTRIP_2008_TABLESTYLE_CELLSTYLEMAP
360
E4A
  3
ACAD_XREC_ROUNDTRIP
360
E8C
  0
DICTIONARY
  5
E66
330
2F
100
AcDbDictionary
280
     1
281
     1
  3
ACAD_XREC_ROUNDTRIP
360
E67
  0
DICTIONARY
  5
E64
330
2E
100
AcDbDictionary
280
     1
281
     1
  3
ACAD_XREC_ROUNDTRIP
360
E65
  0
DICTIONARY
  5
E72
330
35
100
AcDbDictionary
280
     1
281
     1
  3
ACAD_XREC_ROUNDTRIP
360
E73
  0
DICTIONARY
  5
E7A
330
39
100
AcDbDictionary
280
     1
281
     1
  3
ACAD_XREC_ROUNDTRIP
360
E7B
  0
DICTIONARY
  5
E6C
330
32
100
AcDbDictionary
280
     1
281
     1
  3
ACAD_XREC_ROUNDTRIP
360
E6D
  0
DICTIONARY
  5
E70
330
34
100
AcDbDictionary
280
     1
281
     1
  3
ACAD_XREC_ROUNDTRIP
360
E71
  0
DICTIONARY
  5
E8A
330
41
100
AcDbDictionary
280
     1
281
     1
  3
ACAD_XREC_ROUNDTRIP
360
E8B
  0
DICTIONARY
  5
E78
330
38
100
AcDbDictionary
280
     1
281
     1
  3
ACAD_XREC_ROUNDTRIP
360
E79
  0
DICTIONARY
  5
E5C
330
2A
100
AcDbDictionary
280
     1
281
     1
  3
ACAD_XREC_ROUNDTRIP
360
E5D
  0
DICTIONARY
  5
E5E
330
2B
100
AcDbDictionary
280
     1
281
     1
  3
ACAD_XREC_ROUNDTRIP
360
E5F
  0
DICTIONARY
  5
E60
330
2C
100
AcDbDictionary
280
     1
281
     1
  3
ACAD_XREC_ROUNDTRIP
360
E61
  0
DICTIONARY
  5
E62
330
2D
100
AcDbDictionary
280
     1
281
     1
  3
ACAD_XREC_ROUNDTRIP
360
E63
  0
DICTIONARY
  5
E6A
330
31
100
AcDbDictionary
280
     1
281
     1
  3
ACAD_XREC_ROUNDTRIP
360
E6B
  0
DICTIONARY
  5
E86
330
3F
100
AcDbDictionary
280
     1
281
     1
  3
ACAD_XREC_ROUNDTRIP
360
E87
  0
DICTIONARY
  5
E76
330
37
100
AcDbDictionary
280
     1
281
     1
  3
ACAD_XREC_ROUNDTRIP
360
E77
  0
DICTIONARY
  5
E88
330
40
100
AcDbDictionary
280
     1
281
     1
  3
ACAD_XREC_ROUNDTRIP
360
E89
  0
DICTIONARY
  5
E6E
330
33
100
AcDbDictionary
280
     1
281
     1
  3
ACAD_XREC_ROUNDTRIP
360
E6F
  0
DICTIONARY
  5
E84
330
3E
100
AcDbDictionary
280
     1
281
     1
  3
ACAD_XREC_ROUNDTRIP
360
E85
  0
DICTIONARY
  5
E82
330
3D
100
AcDbDictionary
280
     1
281
     1
  3
ACAD_XREC_ROUNDTRIP
360
E83
  0
DICTIONARY
  5
E7C
330
3A
100
AcDbDictionary
280
     1
281
     1
  3
ACAD_XREC_ROUNDTRIP
360
E7D
  0
DICTIONARY
  5
E7E
330
3B
100
AcDbDictionary
280
     1
281
     1
  3
ACAD_XREC_ROUNDTRIP
360
E7F
  0
DICTIONARY
  5
E74
330
36
100
AcDbDictionary
280
     1
281
     1
  3
ACAD_XREC_ROUNDTRIP
360
E75
  0
DICTIONARY
  5
E68
330
30
100
AcDbDictionary
280
     1
281
     1
  3
ACAD_XREC_ROUNDTRIP
360
E69
  0
DICTIONARY
  5
E80
330
3C
100
AcDbDictionary
280
     1
281
     1
  3
ACAD_XREC_ROUNDTRIP
360
E81
  0
XRECORD
  5
E8E
102
{ACAD_REACTORS
330
E8D
102
}
330
E8D
100
AcDbXrecord
280
     1
102
SHADEPLOT
 70
     0
102
SHADEPLOTRESLEVEL
 70
     2
102
SHADEPLOTCUSTOMDPI
 70
   300
  0
XRECORD
  5
E92
102
{ACAD_REACTORS
330
E91
102
}
330
E91
100
AcDbXrecord
280
     1
102
SHADEPLOT
 70
     0
102
SHADEPLOTRESLEVEL
 70
     2
102
SHADEPLOTCUSTOMDPI
 70
   300
  0
XRECORD
  5
E90
102
{ACAD_REACTORS
330
E8F
102
}
330
E8F
100
AcDbXrecord
280
     1
102
SHADEPLOT
 70
     0
102
SHADEPLOTRESLEVEL
 70
     2
102
SHADEPLOTCUSTOMDPI
 70
   300
  0
XRECORD
  5
E5A
102
{ACAD_REACTORS
330
1A
102
}
330
1A
100
AcDbXrecord
280
     1
102
MATERIAL
148
0.0
149
0.0
149
0.0
 93
        0
 94
      127
282
     0
 72
     0
 77
     0
171
     0
175
     0
179
     0
273
     0
  0
XRECORD
  5
1C
102
{ACAD_REACTORS
330
1A
102
}
330
1A
100
AcDbXrecord
280
     1
270
     1
271
     1
  0
XRECORD
  5
1B
102
{ACAD_REACTORS
330
1A
102
}
330
1A
100
AcDbXrecord
280
     1
270
     1
271
     1
  0
XRECORD
  5
1F
102
{ACAD_REACTORS
330
1A
102
}
330
1A
100
AcDbXrecord
280
     1
270
     1
271
     1
  0
XRECORD
  5
1E
102
{ACAD_REACTORS
330
1A
102
}
330
1A
100
AcDbXrecord
280
     1
270
     1
271
     1
  0
XRECORD
  5
20
102
{ACAD_REACTORS
330
1A
102
}
330
1A
100
AcDbXrecord
280
     1
270
     1
271
     1
  0
XRECORD
  5
1D
102
{ACAD_REACTORS
330
1A
102
}
330
1A
100
AcDbXrecord
280
     1
270
     1
271
     1
  0
XRECORD
  5
E59
102
{ACAD_REACTORS
330
12
102
}
330
12
100
AcDbXrecord
280
     1
102
MATERIAL
148
0.0
149
0.0
149
0.0
 93
        0
 94
      127
282
     0
 72
     0
 77
     0
171
     0
175
     0
179
     0
273
     0
  0
XRECORD
  5
14
102
{ACAD_REACTORS
330
12
102
}
330
12
100
AcDbXrecord
280
     1
270
     1
271
     1
  0
XRECORD
  5
13
102
{ACAD_REACTORS
330
12
102
}
330
12
100
AcDbXrecord
280
     1
270
     1
271
     1
  0
XRECORD
  5
17
102
{ACAD_REACTORS
330
12
102
}
330
12
100
AcDbXrecord
280
     1
270
     1
271
     1
  0
XRECORD
  5
16
102
{ACAD_REACTORS
330
12
102
}
330
12
100
AcDbXrecord
280
     1
270
     1
271
     1
  0
XRECORD
  5
18
102
{ACAD_REACTORS
330
12
102
}
330
12
100
AcDbXrecord
280
     1
270
     1
271
     1
  0
XRECORD
  5
15
102
{ACAD_REACTORS
330
12
102
}
330
12
100
AcDbXrecord
280
     1
270
     1
271
     1
  0
XRECORD
  5
E5B
102
{ACAD_REACTORS
330
22
102
}
330
22
100
AcDbXrecord
280
     1
102
MATERIAL
148
0.0
149
0.0
149
0.0
 93
        0
 94
      127
282
     0
 72
     0
 77
     0
171
     0
175
     0
179
     0
273
     0
  0
XRECORD
  5
24
102
{ACAD_REACTORS
330
22
102
}
330
22
100
AcDbXrecord
280
     1
270
     1
271
     1
  0
XRECORD
  5
23
102
{ACAD_REACTORS
330
22
102
}
330
22
100
AcDbXrecord
280
     1
270
     1
271
     1
  0
XRECORD
  5
27
102
{ACAD_REACTORS
330
22
102
}
330
22
100
AcDbXrecord
280
     1
270
     1
271
     1
  0
XRECORD
  5
26
102
{ACAD_REACTORS
330
22
102
}
330
22
100
AcDbXrecord
280
     1
270
     1
271
     1
  0
XRECORD
  5
28
102
{ACAD_REACTORS
330
22
102
}
330
22
100
AcDbXrecord
280
     1
270
     1
271
     1
  0
XRECORD
  5
25
102
{ACAD_REACTORS
330
22
102
}
330
22
100
AcDbXrecord
280
     1
270
     1
271
     1
  0
CELLSTYLEMAP
  5
E4A
102
{ACAD_REACTORS
330
C4C
102
}
330
C4C
100
AcDbCellStyleMap
 90
        3
300
CELLSTYLE
  1
TABLEFORMAT_BEGIN
 90
        5
170
     1
 91
        0
 92
    32768
 62
   257
 93
        1
300
CONTENTFORMAT
  1
CONTENTFORMAT_BEGIN
 90
        0
 91
        0
 92
      512
 93
        0
300

 40
0.0
140
1.0
 94
        5
 62
     0
340
55
144
0.25
309
CONTENTFORMAT_END
171
     0
 94
        0
309
TABLEFORMAT_END
  1
CELLSTYLE_BEGIN
 90
        1
 91
        1
300
_TITLE
309
CELLSTYLE_END
300
CELLSTYLE
  1
TABLEFORMAT_BEGIN
 90
        5
170
     1
 91
        0
 92
        0
 62
   257
 93
        1
300
CONTENTFORMAT
  1
CONTENTFORMAT_BEGIN
 90
        0
 91
        0
 92
      512
 93
        0
300

 40
0.0
140
1.0
 94
        5
 62
     0
340
55
144
0.18
309
CONTENTFORMAT_END
171
     0
 94
        0
309
TABLEFORMAT_END
  1
CELLSTYLE_BEGIN
 90
        2
 91
        1
300
_HEADER
309
CELLSTYLE_END
300
CELLSTYLE
  1
TABLEFORMAT_BEGIN
 90
        5
170
     1
 91
        0
 92
        0
 62
   257
 93
        1
300
CONTENTFORMAT
  1
CONTENTFORMAT_BEGIN
 90
        0
 91
        0
 92
      512
 93
        0
300

 40
0.0
140
1.0
 94
        2
 62
     0
340
55
144
0.18
309
CONTENTFORMAT_END
171
     0
 94
        0
309
TABLEFORMAT_END
  1
CELLSTYLE_BEGIN
 90
        3
 91
        2
300
_DATA
309
CELLSTYLE_END
  0
XRECORD
  5
E8C
102
{ACAD_REACTORS
330
C4C
102
}
330
C4C
100
AcDbXrecord
280
     1
102
ACAD_ROUNDTRIP_PRE2007_TABLESTYLE
 90
      512
 91
        0
  1

 92
      512
 93
        0
  2

 94
      512
 95
        0
  3

  0
XRECORD
  5
E67
102
{ACAD_REACTORS
330
E66
102
}
330
E66
100
AcDbXrecord
280
     1
102
RTVSPropertyOp0
 70
     1
102
RTVSPropertyOp1
 70
     1
102
RTVSPropertyOp2
 70
     1
102
RTVSPropertyOp3
 70
     1
102
RTVSPropertyOp4
 70
     1
102
RTVSPropertyOp5
 70
     1
102
RTVSPropertyOp6
 70
     1
102
RTVSPropertyOp7
 70
     1
102
RTVSPropertyOp8
 70
     1
102
RTVSPropertyOp9
 70
     1
102
RTVSPropertyOp10
 70
     1
102
RTVSPropertyOp11
 70
     1
102
RTVSPropertyOp12
 70
     1
102
RTVSPropertyOp13
 70
     1
102
RTVSPropertyOp14
 70
     1
102
RTVSPropertyOp15
 70
     1
102
RTVSPropertyOp16
 70
     1
102
RTVSPropertyOp17
 70
     1
102
RTVSPropertyOp18
 70
     1
102
RTVSPropertyOp19
 70
     1
102
RTVSPropertyOp20
 70
     1
102
RTVSPropertyOp21
 70
     1
102
RTVSPropertyOp22
 70
     1
102
RTVSPropertyOp23
 70
     1
102
RTVSPropertyOp24
 70
     1
102
RTVSPropertyOp25
 70
     1
102
RTVSPropertyOp26
 70
     1
102
RTVSPropertyOp27
 70
     1
102
RTVSPropertyOp28
 70
     1
102
RTVSPropertyOp29
 70
     1
102
RTVSPropertyOp30
 70
     1
102
RTVSPropertyOp31
 70
     1
102
RTVSPropertyOp32
 70
     1
  0
XRECORD
  5
E65
102
{ACAD_REACTORS
330
E64
102
}
330
E64
100
AcDbXrecord
280
     1
102
RTVSPropertyOp0
 70
     1
102
RTVSPropertyOp1
 70
     1
102
RTVSPropertyOp2
 70
     1
102
RTVSPropertyOp3
 70
     1
102
RTVSPropertyOp4
 70
     1
102
RTVSPropertyOp5
 70
     1
102
RTVSPropertyOp6
 70
     1
102
RTVSPropertyOp7
 70
     1
102
RTVSPropertyOp8
 70
     1
102
RTVSPropertyOp9
 70
     1
102
RTVSPropertyOp10
 70
     1
102
RTVSPropertyOp11
 70
     1
102
RTVSPropertyOp12
 70
     1
102
RTVSPropertyOp13
 70
     1
102
RTVSPropertyOp14
 70
     1
102
RTVSPropertyOp15
 70
     1
102
RTVSPropertyOp16
 70
     1
102
RTVSPropertyOp17
 70
     1
102
RTVSPropertyOp18
 70
     1
102
RTVSPropertyOp19
 70
     1
102
RTVSPropertyOp20
 70
     1
102
RTVSPropertyOp21
 70
     1
102
RTVSPropertyOp22
 70
     1
102
RTVSPropertyOp23
 70
     1
102
RTVSPropertyOp24
 70
     1
102
RTVSPropertyOp25
 70
     1
102
RTVSPropertyOp26
 70
     1
102
RTVSPropertyOp27
 70
     1
102
RTVSPropertyOp28
 70
     1
102
RTVSPropertyOp29
 70
     1
102
RTVSPropertyOp30
 70
     1
102
RTVSPropertyOp31
 70
     1
102
RTVSPropertyOp32
 70
     1
  0
XRECORD
  5
E73
102
{ACAD_REACTORS
330
E72
102
}
330
E72
100
AcDbXrecord
280
     1
102
RTVSPropertyOp0
 70
     1
102
RTVSPropertyOp1
 70
     1
102
RTVSPropertyOp2
 70
     1
102
RTVSPropertyOp3
 70
     1
102
RTVSPropertyOp4
 70
     1
102
RTVSPropertyOp5
 70
     1
102
RTVSPropertyOp6
 70
     1
102
RTVSPropertyOp7
 70
     1
102
RTVSPropertyOp8
 70
     1
102
RTVSPropertyOp9
 70
     1
102
RTVSPropertyOp10
 70
     1
102
RTVSPropertyOp11
 70
     1
102
RTVSPropertyOp12
 70
     1
102
RTVSPropertyOp13
 70
     1
102
RTVSPropertyOp14
 70
     1
102
RTVSPropertyOp15
 70
     1
102
RTVSPropertyOp16
 70
     1
102
RTVSPropertyOp17
 70
     1
102
RTVSPropertyOp18
 70
     1
102
RTVSPropertyOp19
 70
     1
102
RTVSPropertyOp20
 70
     1
102
RTVSPropertyOp21
 70
     1
102
RTVSPropertyOp22
 70
     1
102
RTVSPropertyOp23
 70
     1
102
RTVSPropertyOp24
 70
     1
102
RTVSPropertyOp25
 70
     1
102
RTVSPropertyOp26
 70
     1
102
RTVSPropertyOp27
 70
     1
102
RTVSPropertyOp28
 70
     1
102
RTVSPropertyOp29
 70
     1
102
RTVSPropertyOp30
 70
     1
102
RTVSPropertyOp31
 70
     1
102
RTVSPropertyOp32
 70
     1
  0
XRECORD
  5
E7B
102
{ACAD_REACTORS
330
E7A
102
}
330
E7A
100
AcDbXrecord
280
     1
102
RTVSPropertyOp0
 70
     1
102
RTVSPropertyOp1
 70
     1
102
RTVSPropertyOp2
 70
     1
102
RTVSPropertyOp3
 70
     1
102
RTVSPropertyOp4
 70
     1
102
RTVSPropertyOp5
 70
     1
102
RTVSPropertyOp6
 70
     1
102
RTVSPropertyOp7
 70
     1
102
RTVSPropertyOp8
 70
     1
102
RTVSPropertyOp9
 70
     1
102
RTVSPropertyOp10
 70
     1
102
RTVSPropertyOp11
 70
     1
102
RTVSPropertyOp12
 70
     1
102
RTVSPropertyOp13
 70
     1
102
RTVSPropertyOp14
 70
     1
102
RTVSPropertyOp15
 70
     1
102
RTVSPropertyOp16
 70
     1
102
RTVSPropertyOp17
 70
     1
102
RTVSPropertyOp18
 70
     1
102
RTVSPropertyOp19
 70
     1
102
RTVSPropertyOp20
 70
     1
102
RTVSPropertyOp21
 70
     1
102
RTVSPropertyOp22
 70
     1
102
RTVSPropertyOp23
 70
     1
102
RTVSPropertyOp24
 70
     1
102
RTVSPropertyOp25
 70
     1
102
RTVSPropertyOp26
 70
     1
102
RTVSPropertyOp27
 70
     1
102
RTVSPropertyOp28
 70
     1
102
RTVSPropertyOp29
 70
     1
102
RTVSPropertyOp30
 70
     1
102
RTVSPropertyOp31
 70
     1
102
RTVSPropertyOp32
 70
     1
  0
XRECORD
  5
E6D
102
{ACAD_REACTORS
330
E6C
102
}
330
E6C
100
AcDbXrecord
280
     1
102
RTVSPropertyOp0
 70
     1
102
RTVSPropertyOp1
 70
     1
102
RTVSPropertyOp2
 70
     1
102
RTVSPropertyOp3
 70
     1
102
RTVSPropertyOp4
 70
     1
102
RTVSPropertyOp5
 70
     1
102
RTVSPropertyOp6
 70
     1
102
RTVSPropertyOp7
 70
     1
102
RTVSPropertyOp8
 70
     1
102
RTVSPropertyOp9
 70
     1
102
RTVSPropertyOp10
 70
     1
102
RTVSPropertyOp11
 70
     1
102
RTVSPropertyOp12
 70
     1
102
RTVSPropertyOp13
 70
     1
102
RTVSPropertyOp14
 70
     1
102
RTVSPropertyOp15
 70
     1
102
RTVSPropertyOp16
 70
     1
102
RTVSPropertyOp17
 70
     1
102
RTVSPropertyOp18
 70
     1
102
RTVSPropertyOp19
 70
     1
102
RTVSPropertyOp20
 70
     1
102
RTVSPropertyOp21
 70
     1
102
RTVSPropertyOp22
 70
     1
102
RTVSPropertyOp23
 70
     1
102
RTVSPropertyOp24
 70
     1
102
RTVSPropertyOp25
 70
     1
102
RTVSPropertyOp26
 70
     1
102
RTVSPropertyOp27
 70
     1
102
RTVSPropertyOp28
 70
     1
102
RTVSPropertyOp29
 70
     1
102
RTVSPropertyOp30
 70
     1
102
RTVSPropertyOp31
 70
     1
102
RTVSPropertyOp32
 70
     1
  0
XRECORD
  5
E71
102
{ACAD_REACTORS
330
E70
102
}
330
E70
100
AcDbXrecord
280
     1
102
RTVSPropertyOp0
 70
     1
102
RTVSPropertyOp1
 70
     1
102
RTVSPropertyOp2
 70
     1
102
RTVSPropertyOp3
 70
     1
102
RTVSPropertyOp4
 70
     1
102
RTVSPropertyOp5
 70
     1
102
RTVSPropertyOp6
 70
     1
102
RTVSPropertyOp7
 70
     1
102
RTVSPropertyOp8
 70
     1
102
RTVSPropertyOp9
 70
     1
102
RTVSPropertyOp10
 70
     1
102
RTVSPropertyOp11
 70
     1
102
RTVSPropertyOp12
 70
     1
102
RTVSPropertyOp13
 70
     1
102
RTVSPropertyOp14
 70
     1
102
RTVSPropertyOp15
 70
     1
102
RTVSPropertyOp16
 70
     1
102
RTVSPropertyOp17
 70
     1
102
RTVSPropertyOp18
 70
     1
102
RTVSPropertyOp19
 70
     1
102
RTVSPropertyOp20
 70
     1
102
RTVSPropertyOp21
 70
     1
102
RTVSPropertyOp22
 70
     1
102
RTVSPropertyOp23
 70
     1
102
RTVSPropertyOp24
 70
     1
102
RTVSPropertyOp25
 70
     1
102
RTVSPropertyOp26
 70
     1
102
RTVSPropertyOp27
 70
     1
102
RTVSPropertyOp28
 70
     1
102
RTVSPropertyOp29
 70
     1
102
RTVSPropertyOp30
 70
     1
102
RTVSPropertyOp31
 70
     1
102
RTVSPropertyOp32
 70
     1
  0
XRECORD
  5
E8B
102
{ACAD_REACTORS
330
E8A
102
}
330
E8A
100
AcDbXrecord
280
     1
102
RTVSPropertyOp0
 70
     0
102
RTVSPropertyOp1
 70
     0
102
RTVSPropertyOp2
 70
     0
102
RTVSPropertyOp3
 70
     0
102
RTVSPropertyOp4
 70
     0
102
RTVSPropertyOp5
 70
     0
102
RTVSPropertyOp6
 70
     0
102
RTVSPropertyOp7
 70
     0
102
RTVSPropertyOp8
 70
     0
102
RTVSPropertyOp9
 70
     0
102
RTVSPropertyOp10
 70
     0
102
RTVSPropertyOp11
 70
     0
102
RTVSPropertyOp12
 70
     0
102
RTVSPropertyOp13
 70
     0
102
RTVSPropertyOp14
 70
     2
102
RTVSPropertyOp15
 70
     0
102
RTVSPropertyOp16
 70
     0
102
RTVSPropertyOp17
 70
     0
102
RTVSPropertyOp18
 70
     0
102
RTVSPropertyOp19
 70
     0
102
RTVSPropertyOp20
 70
     0
102
RTVSPropertyOp21
 70
     0
102
RTVSPropertyOp22
 70
     0
102
RTVSPropertyOp23
 70
     0
102
RTVSPropertyOp24
 70
     0
102
RTVSPropertyOp25
 70
     0
102
RTVSPropertyOp26
 70
     0
102
RTVSPropertyOp27
 70
     0
102
RTVSPropertyOp28
 70
     0
102
RTVSPropertyOp29
 70
     0
102
RTVSPropertyOp30
 70
     0
102
RTVSPropertyOp31
 70
     0
102
RTVSPropertyOp32
 70
     0
  0
XRECORD
  5
E79
102
{ACAD_REACTORS
330
E78
102
}
330
E78
100
AcDbXrecord
280
     1
102
RTVSPropertyOp0
 70
     1
102
RTVSPropertyOp1
 70
     1
102
RTVSPropertyOp2
 70
     1
102
RTVSPropertyOp3
 70
     1
102
RTVSPropertyOp4
 70
     1
102
RTVSPropertyOp5
 70
     1
102
RTVSPropertyOp6
 70
     1
102
RTVSPropertyOp7
 70
     1
102
RTVSPropertyOp8
 70
     1
102
RTVSPropertyOp9
 70
     1
102
RTVSPropertyOp10
 70
     1
102
RTVSPropertyOp11
 70
     1
102
RTVSPropertyOp12
 70
     1
102
RTVSPropertyOp13
 70
     1
102
RTVSPropertyOp14
 70
     1
102
RTVSPropertyOp15
 70
     1
102
RTVSPropertyOp16
 70
     1
102
RTVSPropertyOp17
 70
     1
102
RTVSPropertyOp18
 70
     1
102
RTVSPropertyOp19
 70
     1
102
RTVSPropertyOp20
 70
     1
102
RTVSPropertyOp21
 70
     1
102
RTVSPropertyOp22
 70
     1
102
RTVSPropertyOp23
 70
     1
102
RTVSPropertyOp24
 70
     1
102
RTVSPropertyOp25
 70
     1
102
RTVSPropertyOp26
 70
     1
102
RTVSPropertyOp27
 70
     1
102
RTVSPropertyOp28
 70
     1
102
RTVSPropertyOp29
 70
     1
102
RTVSPropertyOp30
 70
     1
102
RTVSPropertyOp31
 70
     1
102
RTVSPropertyOp32
 70
     1
  0
XRECORD
  5
E5D
102
{ACAD_REACTORS
330
E5C
102
}
330
E5C
100
AcDbXrecord
280
     1
102
RTVSPropertyOp0
 70
     1
102
RTVSPropertyOp1
 70
     1
102
RTVSPropertyOp2
 70
     1
102
RTVSPropertyOp3
 70
     1
102
RTVSPropertyOp4
 70
     1
102
RTVSPropertyOp5
 70
     1
102
RTVSPropertyOp6
 70
     1
102
RTVSPropertyOp7
 70
     1
102
RTVSPropertyOp8
 70
     1
102
RTVSPropertyOp9
 70
     1
102
RTVSPropertyOp10
 70
     1
102
RTVSPropertyOp11
 70
     1
102
RTVSPropertyOp12
 70
     1
102
RTVSPropertyOp13
 70
     1
102
RTVSPropertyOp14
 70
     1
102
RTVSPropertyOp15
 70
     1
102
RTVSPropertyOp16
 70
     1
102
RTVSPropertyOp17
 70
     1
102
RTVSPropertyOp18
 70
     1
102
RTVSPropertyOp19
 70
     1
102
RTVSPropertyOp20
 70
     1
102
RTVSPropertyOp21
 70
     1
102
RTVSPropertyOp22
 70
     1
102
RTVSPropertyOp23
 70
     1
102
RTVSPropertyOp24
 70
     1
102
RTVSPropertyOp25
 70
     1
102
RTVSPropertyOp26
 70
     1
102
RTVSPropertyOp27
 70
     1
102
RTVSPropertyOp28
 70
     1
102
RTVSPropertyOp29
 70
     1
102
RTVSPropertyOp30
 70
     1
102
RTVSPropertyOp31
 70
     1
102
RTVSPropertyOp32
 70
     1
  0
XRECORD
  5
E5F
102
{ACAD_REACTORS
330
E5E
102
}
330
E5E
100
AcDbXrecord
280
     1
102
RTVSPropertyOp0
 70
     1
102
RTVSPropertyOp1
 70
     1
102
RTVSPropertyOp2
 70
     1
102
RTVSPropertyOp3
 70
     1
102
RTVSPropertyOp4
 70
     1
102
RTVSPropertyOp5
 70
     1
102
RTVSPropertyOp6
 70
     1
102
RTVSPropertyOp7
 70
     1
102
RTVSPropertyOp8
 70
     1
102
RTVSPropertyOp9
 70
     1
102
RTVSPropertyOp10
 70
     1
102
RTVSPropertyOp11
 70
     1
102
RTVSPropertyOp12
 70
     1
102
RTVSPropertyOp13
 70
     1
102
RTVSPropertyOp14
 70
     1
102
RTVSPropertyOp15
 70
     1
102
RTVSPropertyOp16
 70
     1
102
RTVSPropertyOp17
 70
     1
102
RTVSPropertyOp18
 70
     1
102
RTVSPropertyOp19
 70
     1
102
RTVSPropertyOp20
 70
     1
102
RTVSPropertyOp21
 70
     1
102
RTVSPropertyOp22
 70
     1
102
RTVSPropertyOp23
 70
     1
102
RTVSPropertyOp24
 70
     1
102
RTVSPropertyOp25
 70
     1
102
RTVSPropertyOp26
 70
     1
102
RTVSPropertyOp27
 70
     1
102
RTVSPropertyOp28
 70
     1
102
RTVSPropertyOp29
 70
     1
102
RTVSPropertyOp30
 70
     1
102
RTVSPropertyOp31
 70
     1
102
RTVSPropertyOp32
 70
     1
  0
XRECORD
  5
E61
102
{ACAD_REACTORS
330
E60
102
}
330
E60
100
AcDbXrecord
280
     1
102
RTVSPropertyOp0
 70
     1
102
RTVSPropertyOp1
 70
     1
102
RTVSPropertyOp2
 70
     1
102
RTVSPropertyOp3
 70
     1
102
RTVSPropertyOp4
 70
     1
102
RTVSPropertyOp5
 70
     1
102
RTVSPropertyOp6
 70
     1
102
RTVSPropertyOp7
 70
     1
102
RTVSPropertyOp8
 70
     1
102
RTVSPropertyOp9
 70
     1
102
RTVSPropertyOp10
 70
     1
102
RTVSPropertyOp11
 70
     1
102
RTVSPropertyOp12
 70
     1
102
RTVSPropertyOp13
 70
     1
102
RTVSPropertyOp14
 70
     1
102
RTVSPropertyOp15
 70
     1
102
RTVSPropertyOp16
 70
     1
102
RTVSPropertyOp17
 70
     1
102
RTVSPropertyOp18
 70
     1
102
RTVSPropertyOp19
 70
     1
102
RTVSPropertyOp20
 70
     1
102
RTVSPropertyOp21
 70
     1
102
RTVSPropertyOp22
 70
     1
102
RTVSPropertyOp23
 70
     1
102
RTVSPropertyOp24
 70
     1
102
RTVSPropertyOp25
 70
     1
102
RTVSPropertyOp26
 70
     1
102
RTVSPropertyOp27
 70
     1
102
RTVSPropertyOp28
 70
     1
102
RTVSPropertyOp29
 70
     1
102
RTVSPropertyOp30
 70
     1
102
RTVSPropertyOp31
 70
     1
102
RTVSPropertyOp32
 70
     1
  0
XRECORD
  5
E63
102
{ACAD_REACTORS
330
E62
102
}
330
E62
100
AcDbXrecord
280
     1
102
RTVSPropertyOp0
 70
     1
102
RTVSPropertyOp1
 70
     1
102
RTVSPropertyOp2
 70
     1
102
RTVSPropertyOp3
 70
     1
102
RTVSPropertyOp4
 70
     1
102
RTVSPropertyOp5
 70
     1
102
RTVSPropertyOp6
 70
     1
102
RTVSPropertyOp7
 70
     1
102
RTVSPropertyOp8
 70
     1
102
RTVSPropertyOp9
 70
     1
102
RTVSPropertyOp10
 70
     1
102
RTVSPropertyOp11
 70
     1
102
RTVSPropertyOp12
 70
     1
102
RTVSPropertyOp13
 70
     1
102
RTVSPropertyOp14
 70
     1
102
RTVSPropertyOp15
 70
     1
102
RTVSPropertyOp16
 70
     1
102
RTVSPropertyOp17
 70
     1
102
RTVSPropertyOp18
 70
     1
102
RTVSPropertyOp19
 70
     1
102
RTVSPropertyOp20
 70
     1
102
RTVSPropertyOp21
 70
     1
102
RTVSPropertyOp22
 70
     1
102
RTVSPropertyOp23
 70
     1
102
RTVSPropertyOp24
 70
     1
102
RTVSPropertyOp25
 70
     1
102
RTVSPropertyOp26
 70
     1
102
RTVSPropertyOp27
 70
     1
102
RTVSPropertyOp28
 70
     1
102
RTVSPropertyOp29
 70
     1
102
RTVSPropertyOp30
 70
     1
102
RTVSPropertyOp31
 70
     1
102
RTVSPropertyOp32
 70
     1
  0
XRECORD
  5
E6B
102
{ACAD_REACTORS
330
E6A
102
}
330
E6A
100
AcDbXrecord
280
     1
102
RTVSPropertyOp0
 70
     1
102
RTVSPropertyOp1
 70
     1
102
RTVSPropertyOp2
 70
     1
102
RTVSPropertyOp3
 70
     1
102
RTVSPropertyOp4
 70
     1
102
RTVSPropertyOp5
 70
     1
102
RTVSPropertyOp6
 70
     1
102
RTVSPropertyOp7
 70
     1
102
RTVSPropertyOp8
 70
     1
102
RTVSPropertyOp9
 70
     1
102
RTVSPropertyOp10
 70
     1
102
RTVSPropertyOp11
 70
     1
102
RTVSPropertyOp12
 70
     1
102
RTVSPropertyOp13
 70
     1
102
RTVSPropertyOp14
 70
     1
102
RTVSPropertyOp15
 70
     1
102
RTVSPropertyOp16
 70
     1
102
RTVSPropertyOp17
 70
     1
102
RTVSPropertyOp18
 70
     1
102
RTVSPropertyOp19
 70
     1
102
RTVSPropertyOp20
 70
     1
102
RTVSPropertyOp21
 70
     1
102
RTVSPropertyOp22
 70
     1
102
RTVSPropertyOp23
 70
     1
102
RTVSPropertyOp24
 70
     1
102
RTVSPropertyOp25
 70
     1
102
RTVSPropertyOp26
 70
     1
102
RTVSPropertyOp27
 70
     1
102
RTVSPropertyOp28
 70
     1
102
RTVSPropertyOp29
 70
     1
102
RTVSPropertyOp30
 70
     1
102
RTVSPropertyOp31
 70
     1
102
RTVSPropertyOp32
 70
     1
  0
XRECORD
  5
E87
102
{ACAD_REACTORS
330
E86
102
}
330
E86
100
AcDbXrecord
280
     1
102
RTVSPropertyOp0
 70
     0
102
RTVSPropertyOp1
 70
     0
102
RTVSPropertyOp2
 70
     0
102
RTVSPropertyOp3
 70
     0
102
RTVSPropertyOp4
 70
     0
102
RTVSPropertyOp5
 70
     0
102
RTVSPropertyOp6
 70
     0
102
RTVSPropertyOp7
 70
     0
102
RTVSPropertyOp8
 70
     0
102
RTVSPropertyOp9
 70
     0
102
RTVSPropertyOp10
 70
     0
102
RTVSPropertyOp11
 70
     0
102
RTVSPropertyOp12
 70
     0
102
RTVSPropertyOp13
 70
     0
102
RTVSPropertyOp14
 70
     2
102
RTVSPropertyOp15
 70
     0
102
RTVSPropertyOp16
 70
     0
102
RTVSPropertyOp17
 70
     0
102
RTVSPropertyOp18
 70
     0
102
RTVSPropertyOp19
 70
     0
102
RTVSPropertyOp20
 70
     0
102
RTVSPropertyOp21
 70
     0
102
RTVSPropertyOp22
 70
     0
102
RTVSPropertyOp23
 70
     0
102
RTVSPropertyOp24
 70
     0
102
RTVSPropertyOp25
 70
     0
102
RTVSPropertyOp26
 70
     0
102
RTVSPropertyOp27
 70
     0
102
RTVSPropertyOp28
 70
     0
102
RTVSPropertyOp29
 70
     0
102
RTVSPropertyOp30
 70
     0
102
RTVSPropertyOp31
 70
     0
102
RTVSPropertyOp32
 70
     0
  0
XRECORD
  5
E77
102
{ACAD_REACTORS
330
E76
102
}
330
E76
100
AcDbXrecord
280
     1
102
RTVSPropertyOp0
 70
     1
102
RTVSPropertyOp1
 70
     1
102
RTVSPropertyOp2
 70
     1
102
RTVSPropertyOp3
 70
     1
102
RTVSPropertyOp4
 70
     1
102
RTVSPropertyOp5
 70
     1
102
RTVSPropertyOp6
 70
     1
102
RTVSPropertyOp7
 70
     1
102
RTVSPropertyOp8
 70
     1
102
RTVSPropertyOp9
 70
     1
102
RTVSPropertyOp10
 70
     1
102
RTVSPropertyOp11
 70
     1
102
RTVSPropertyOp12
 70
     1
102
RTVSPropertyOp13
 70
     1
102
RTVSPropertyOp14
 70
     1
102
RTVSPropertyOp15
 70
     1
102
RTVSPropertyOp16
 70
     1
102
RTVSPropertyOp17
 70
     1
102
RTVSPropertyOp18
 70
     1
102
RTVSPropertyOp19
 70
     1
102
RTVSPropertyOp20
 70
     1
102
RTVSPropertyOp21
 70
     1
102
RTVSPropertyOp22
 70
     1
102
RTVSPropertyOp23
 70
     1
102
RTVSPropertyOp24
 70
     1
102
RTVSPropertyOp25
 70
     1
102
RTVSPropertyOp26
 70
     1
102
RTVSPropertyOp27
 70
     1
102
RTVSPropertyOp28
 70
     1
102
RTVSPropertyOp29
 70
     1
102
RTVSPropertyOp30
 70
     1
102
RTVSPropertyOp31
 70
     1
102
RTVSPropertyOp32
 70
     1
  0
XRECORD
  5
E89
102
{ACAD_REACTORS
330
E88
102
}
330
E88
100
AcDbXrecord
280
     1
102
RTVSPropertyOp0
 70
     0
102
RTVSPropertyOp1
 70
     0
102
RTVSPropertyOp2
 70
     0
102
RTVSPropertyOp3
 70
     0
102
RTVSPropertyOp4
 70
     0
102
RTVSPropertyOp5
 70
     0
102
RTVSPropertyOp6
 70
     0
102
RTVSPropertyOp7
 70
     0
102
RTVSPropertyOp8
 70
     0
102
RTVSPropertyOp9
 70
     0
102
RTVSPropertyOp10
 70
     0
102
RTVSPropertyOp11
 70
     0
102
RTVSPropertyOp12
 70
     0
102
RTVSPropertyOp13
 70
     0
102
RTVSPropertyOp14
 70
     2
102
RTVSPropertyOp15
 70
     0
102
RTVSPropertyOp16
 70
     0
102
RTVSPropertyOp17
 70
     0
102
RTVSPropertyOp18
 70
     0
102
RTVSPropertyOp19
 70
     0
102
RTVSPropertyOp20
 70
     0
102
RTVSPropertyOp21
 70
     0
102
RTVSPropertyOp22
 70
     0
102
RTVSPropertyOp23
 70
     0
102
RTVSPropertyOp24
 70
     0
102
RTVSPropertyOp25
 70
     0
102
RTVSPropertyOp26
 70
     0
102
RTVSPropertyOp27
 70
     0
102
RTVSPropertyOp28
 70
     0
102
RTVSPropertyOp29
 70
     0
102
RTVSPropertyOp30
 70
     0
102
RTVSPropertyOp31
 70
     0
102
RTVSPropertyOp32
 70
     0
  0
XRECORD
  5
E6F
102
{ACAD_REACTORS
330
E6E
102
}
330
E6E
100
AcDbXrecord
280
     1
102
RTVSPropertyOp0
 70
     1
102
RTVSPropertyOp1
 70
     1
102
RTVSPropertyOp2
 70
     1
102
RTVSPropertyOp3
 70
     1
102
RTVSPropertyOp4
 70
     1
102
RTVSPropertyOp5
 70
     1
102
RTVSPropertyOp6
 70
     1
102
RTVSPropertyOp7
 70
     1
102
RTVSPropertyOp8
 70
     1
102
RTVSPropertyOp9
 70
     1
102
RTVSPropertyOp10
 70
     1
102
RTVSPropertyOp11
 70
     1
102
RTVSPropertyOp12
 70
     1
102
RTVSPropertyOp13
 70
     1
102
RTVSPropertyOp14
 70
     1
102
RTVSPropertyOp15
 70
     1
102
RTVSPropertyOp16
 70
     1
102
RTVSPropertyOp17
 70
     1
102
RTVSPropertyOp18
 70
     1
102
RTVSPropertyOp19
 70
     1
102
RTVSPropertyOp20
 70
     1
102
RTVSPropertyOp21
 70
     1
102
RTVSPropertyOp22
 70
     1
102
RTVSPropertyOp23
 70
     1
102
RTVSPropertyOp24
 70
     1
102
RTVSPropertyOp25
 70
     1
102
RTVSPropertyOp26
 70
     1
102
RTVSPropertyOp27
 70
     1
102
RTVSPropertyOp28
 70
     1
102
RTVSPropertyOp29
 70
     1
102
RTVSPropertyOp30
 70
     1
102
RTVSPropertyOp31
 70
     1
102
RTVSPropertyOp32
 70
     1
  0
XRECORD
  5
E85
102
{ACAD_REACTORS
330
E84
102
}
330
E84
100
AcDbXrecord
280
     1
102
RTVSPropertyOp0
 70
     1
102
RTVSPropertyOp1
 70
     1
102
RTVSPropertyOp2
 70
     1
102
RTVSPropertyOp3
 70
     1
102
RTVSPropertyOp4
 70
     1
102
RTVSPropertyOp5
 70
     1
102
RTVSPropertyOp6
 70
     1
102
RTVSPropertyOp7
 70
     1
102
RTVSPropertyOp8
 70
     1
102
RTVSPropertyOp9
 70
     1
102
RTVSPropertyOp10
 70
     1
102
RTVSPropertyOp11
 70
     1
102
RTVSPropertyOp12
 70
     1
102
RTVSPropertyOp13
 70
     1
102
RTVSPropertyOp14
 70
     1
102
RTVSPropertyOp15
 70
     1
102
RTVSPropertyOp16
 70
     1
102
RTVSPropertyOp17
 70
     1
102
RTVSPropertyOp18
 70
     1
102
RTVSPropertyOp19
 70
     1
102
RTVSPropertyOp20
 70
     1
102
RTVSPropertyOp21
 70
     1
102
RTVSPropertyOp22
 70
     1
102
RTVSPropertyOp23
 70
     1
102
RTVSPropertyOp24
 70
     1
102
RTVSPropertyOp25
 70
     1
102
RTVSPropertyOp26
 70
     1
102
RTVSPropertyOp27
 70
     1
102
RTVSPropertyOp28
 70
     1
102
RTVSPropertyOp29
 70
     1
102
RTVSPropertyOp30
 70
     1
102
RTVSPropertyOp31
 70
     1
102
RTVSPropertyOp32
 70
     1
  0
XRECORD
  5
E83
102
{ACAD_REACTORS
330
E82
102
}
330
E82
100
AcDbXrecord
280
     1
102
RTVSPropertyOp0
 70
     1
102
RTVSPropertyOp1
 70
     1
102
RTVSPropertyOp2
 70
     1
102
RTVSPropertyOp3
 70
     1
102
RTVSPropertyOp4
 70
     1
102
RTVSPropertyOp5
 70
     1
102
RTVSPropertyOp6
 70
     1
102
RTVSPropertyOp7
 70
     1
102
RTVSPropertyOp8
 70
     1
102
RTVSPropertyOp9
 70
     1
102
RTVSPropertyOp10
 70
     1
102
RTVSPropertyOp11
 70
     1
102
RTVSPropertyOp12
 70
     1
102
RTVSPropertyOp13
 70
     1
102
RTVSPropertyOp14
 70
     1
102
RTVSPropertyOp15
 70
     1
102
RTVSPropertyOp16
 70
     1
102
RTVSPropertyOp17
 70
     1
102
RTVSPropertyOp18
 70
     1
102
RTVSPropertyOp19
 70
     1
102
RTVSPropertyOp20
 70
     1
102
RTVSPropertyOp21
 70
     1
102
RTVSPropertyOp22
 70
     1
102
RTVSPropertyOp23
 70
     1
102
RTVSPropertyOp24
 70
     1
102
RTVSPropertyOp25
 70
     1
102
RTVSPropertyOp26
 70
     1
102
RTVSPropertyOp27
 70
     1
102
RTVSPropertyOp28
 70
     1
102
RTVSPropertyOp29
 70
     1
102
RTVSPropertyOp30
 70
     1
102
RTVSPropertyOp31
 70
     1
102
RTVSPropertyOp32
 70
     1
  0
XRECORD
  5
E7D
102
{ACAD_REACTORS
330
E7C
102
}
330
E7C
100
AcDbXrecord
280
     1
102
RTVSPropertyOp0
 70
     1
102
RTVSPropertyOp1
 70
     1
102
RTVSPropertyOp2
 70
     1
102
RTVSPropertyOp3
 70
     1
102
RTVSPropertyOp4
 70
     1
102
RTVSPropertyOp5
 70
     1
102
RTVSPropertyOp6
 70
     1
102
RTVSPropertyOp7
 70
     1
102
RTVSPropertyOp8
 70
     1
102
RTVSPropertyOp9
 70
     1
102
RTVSPropertyOp10
 70
     1
102
RTVSPropertyOp11
 70
     1
102
RTVSPropertyOp12
 70
     1
102
RTVSPropertyOp13
 70
     1
102
RTVSPropertyOp14
 70
     1
102
RTVSPropertyOp15
 70
     1
102
RTVSPropertyOp16
 70
     1
102
RTVSPropertyOp17
 70
     1
102
RTVSPropertyOp18
 70
     1
102
RTVSPropertyOp19
 70
     1
102
RTVSPropertyOp20
 70
     1
102
RTVSPropertyOp21
 70
     1
102
RTVSPropertyOp22
 70
     1
102
RTVSPropertyOp23
 70
     1
102
RTVSPropertyOp24
 70
     1
102
RTVSPropertyOp25
 70
     1
102
RTVSPropertyOp26
 70
     1
102
RTVSPropertyOp27
 70
     1
102
RTVSPropertyOp28
 70
     1
102
RTVSPropertyOp29
 70
     1
102
RTVSPropertyOp30
 70
     1
102
RTVSPropertyOp31
 70
     1
102
RTVSPropertyOp32
 70
     1
  0
XRECORD
  5
E7F
102
{ACAD_REACTORS
330
E7E
102
}
330
E7E
100
AcDbXrecord
280
     1
102
RTVSPropertyOp0
 70
     1
102
RTVSPropertyOp1
 70
     1
102
RTVSPropertyOp2
 70
     1
102
RTVSPropertyOp3
 70
     1
102
RTVSPropertyOp4
 70
     1
102
RTVSPropertyOp5
 70
     1
102
RTVSPropertyOp6
 70
     1
102
RTVSPropertyOp7
 70
     1
102
RTVSPropertyOp8
 70
     1
102
RTVSPropertyOp9
 70
     1
102
RTVSPropertyOp10
 70
     1
102
RTVSPropertyOp11
 70
     1
102
RTVSPropertyOp12
 70
     1
102
RTVSPropertyOp13
 70
     1
102
RTVSPropertyOp14
 70
     1
102
RTVSPropertyOp15
 70
     1
102
RTVSPropertyOp16
 70
     1
102
RTVSPropertyOp17
 70
     1
102
RTVSPropertyOp18
 70
     1
102
RTVSPropertyOp19
 70
     1
102
RTVSPropertyOp20
 70
     1
102
RTVSPropertyOp21
 70
     1
102
RTVSPropertyOp22
 70
     1
102
RTVSPropertyOp23
 70
     1
102
RTVSPropertyOp24
 70
     1
102
RTVSPropertyOp25
 70
     1
102
RTVSPropertyOp26
 70
     1
102
RTVSPropertyOp27
 70
     1
102
RTVSPropertyOp28
 70
     1
102
RTVSPropertyOp29
 70
     1
102
RTVSPropertyOp30
 70
     1
102
RTVSPropertyOp31
 70
     1
102
RTVSPropertyOp32
 70
     1
  0
XRECORD
  5
E75
102
{ACAD_REACTORS
330
E74
102
}
330
E74
100
AcDbXrecord
280
     1
102
RTVSPropertyOp0
 70
     1
102
RTVSPropertyOp1
 70
     1
102
RTVSPropertyOp2
 70
     1
102
RTVSPropertyOp3
 70
     1
102
RTVSPropertyOp4
 70
     1
102
RTVSPropertyOp5
 70
     1
102
RTVSPropertyOp6
 70
     1
102
RTVSPropertyOp7
 70
     1
102
RTVSPropertyOp8
 70
     1
102
RTVSPropertyOp9
 70
     1
102
RTVSPropertyOp10
 70
     1
102
RTVSPropertyOp11
 70
     1
102
RTVSPropertyOp12
 70
     1
102
RTVSPropertyOp13
 70
     1
102
RTVSPropertyOp14
 70
     1
102
RTVSPropertyOp15
 70
     1
102
RTVSPropertyOp16
 70
     1
102
RTVSPropertyOp17
 70
     1
102
RTVSPropertyOp18
 70
     1
102
RTVSPropertyOp19
 70
     1
102
RTVSPropertyOp20
 70
     1
102
RTVSPropertyOp21
 70
     1
102
RTVSPropertyOp22
 70
     1
102
RTVSPropertyOp23
 70
     1
102
RTVSPropertyOp24
 70
     1
102
RTVSPropertyOp25
 70
     1
102
RTVSPropertyOp26
 70
     1
102
RTVSPropertyOp27
 70
     1
102
RTVSPropertyOp28
 70
     1
102
RTVSPropertyOp29
 70
     1
102
RTVSPropertyOp30
 70
     1
102
RTVSPropertyOp31
 70
     1
102
RTVSPropertyOp32
 70
     1
  0
XRECORD
  5
E69
102
{ACAD_REACTORS
330
E68
102
}
330
E68
100
AcDbXrecord
280
     1
102
RTVSPropertyOp0
 70
     1
102
RTVSPropertyOp1
 70
     1
102
RTVSPropertyOp2
 70
     1
102
RTVSPropertyOp3
 70
     1
102
RTVSPropertyOp4
 70
     1
102
RTVSPropertyOp5
 70
     1
102
RTVSPropertyOp6
 70
     1
102
RTVSPropertyOp7
 70
     1
102
RTVSPropertyOp8
 70
     1
102
RTVSPropertyOp9
 70
     1
102
RTVSPropertyOp10
 70
     1
102
RTVSPropertyOp11
 70
     1
102
RTVSPropertyOp12
 70
     1
102
RTVSPropertyOp13
 70
     1
102
RTVSPropertyOp14
 70
     1
102
RTVSPropertyOp15
 70
     1
102
RTVSPropertyOp16
 70
     1
102
RTVSPropertyOp17
 70
     1
102
RTVSPropertyOp18
 70
     1
102
RTVSPropertyOp19
 70
     1
102
RTVSPropertyOp20
 70
     1
102
RTVSPropertyOp21
 70
     1
102
RTVSPropertyOp22
 70
     1
102
RTVSPropertyOp23
 70
     1
102
RTVSPropertyOp24
 70
     1
102
RTVSPropertyOp25
 70
     1
102
RTVSPropertyOp26
 70
     1
102
RTVSPropertyOp27
 70
     1
102
RTVSPropertyOp28
 70
     1
102
RTVSPropertyOp29
 70
     1
102
RTVSPropertyOp30
 70
     1
102
RTVSPropertyOp31
 70
     1
102
RTVSPropertyOp32
 70
     1
  0
XRECORD
  5
E81
102
{ACAD_REACTORS
330
E80
102
}
330
E80
100
AcDbXrecord
280
     1
102
RTVSPropertyOp0
 70
     1
102
RTVSPropertyOp1
 70
     1
102
RTVSPropertyOp2
 70
     1
102
RTVSPropertyOp3
 70
     1
102
RTVSPropertyOp4
 70
     1
102
RTVSPropertyOp5
 70
     1
102
RTVSPropertyOp6
 70
     1
102
RTVSPropertyOp7
 70
     1
102
RTVSPropertyOp8
 70
     1
102
RTVSPropertyOp9
 70
     1
102
RTVSPropertyOp10
 70
     1
102
RTVSPropertyOp11
 70
     1
102
RTVSPropertyOp12
 70
     1
102
RTVSPropertyOp13
 70
     1
102
RTVSPropertyOp14
 70
     1
102
RTVSPropertyOp15
 70
     1
102
RTVSPropertyOp16
 70
     1
102
RTVSPropertyOp17
 70
     1
102
RTVSPropertyOp18
 70
     1
102
RTVSPropertyOp19
 70
     1
102
RTVSPropertyOp20
 70
     1
102
RTVSPropertyOp21
 70
     1
102
RTVSPropertyOp22
 70
     1
102
RTVSPropertyOp23
 70
     1
102
RTVSPropertyOp24
 70
     1
102
RTVSPropertyOp25
 70
     1
102
RTVSPropertyOp26
 70
     1
102
RTVSPropertyOp27
 70
     1
102
RTVSPropertyOp28
 70
     1
102
RTVSPropertyOp29
 70
     1
102
RTVSPropertyOp30
 70
     1
102
RTVSPropertyOp31
 70
     1
102
RTVSPropertyOp32
 70
     1
  0
ENDSEC
  0
EOF
