  0
SECTION
  2
HEADER
  9
$ACADVER
  1
AC1015
  9
$ACADMAINTVER
 70
    20
  9
$DWGCODEPAGE
  3
ANSI_1250
  9
$INSBASE
 10
0.0
 20
0.0
 30
0.0
  9
$EXTMIN
 10
28674.60583371146
 20
-104.1414819789571
 30
0.0
  9
$EXTMAX
 10
39681.04305621036
 20
16434.87340313773
 30
0.0
  9
$LIMMIN
 10
0.0
 20
0.0
  9
$LIMMAX
 10
29700.0
 20
21000.0
  9
$ORTHOMODE
 70
     0
  9
$REGENMODE
 70
     1
  9
$FILLMODE
 70
     1
  9
$QTEXTMODE
 70
     0
  9
$MIRRTEXT
 70
     0
  9
$LTSCALE
 40
100.0
  9
$ATTMODE
 70
     1
  9
$TEXTSIZE
 40
0.2
  9
$TRACEWID
 40
0.05
  9
$TEXTSTYLE
  7
Standard
  9
$CLAYER
  8
0
  9
$CELTYPE
  6
ByLayer
  9
$CECOLOR
 62
   256
  9
$CELTSCALE
 40
1.0
  9
$DISPSILH
 70
     0
  9
$DIMSCALE
 40
1.0
  9
$DIMASZ
 40
1.799999999999999
  9
$DIMEXO
 40
0.0625
  9
$DIMDLI
 40
0.38
  9
$DIMRND
 40
0.0
  9
$DIMDLE
 40
0.0
  9
$DIMEXE
 40
0.18
  9
$DIMTP
 40
0.0
  9
$DIMTM
 40
0.0
  9
$DIMTXT
 40
0.25
  9
$DIMCEN
 40
0.09
  9
$DIMTSZ
 40
0.0
  9
$DIMTOL
 70
     0
  9
$DIMLIM
 70
     0
  9
$DIMTIH
 70
     1
  9
$DIMTOH
 70
     1
  9
$DIMSE1
 70
     0
  9
$DIMSE2
 70
     0
  9
$DIMTAD
 70
     0
  9
$DIMZIN
 70
     0
  9
$DIMBLK
  1

  9
$DIMASO
 70
     1
  9
$DIMSHO
 70
     1
  9
$DIMPOST
  1

  9
$DIMAPOST
  1

  9
$DIMALT
 70
     0
  9
$DIMALTD
 70
     2
  9
$DIMALTF
 40
25.4
  9
$DIMLFAC
 40
1.0
  9
$DIMTOFL
 70
     0
  9
$DIMTVP
 40
0.0
  9
$DIMTIX
 70
     0
  9
$DIMSOXD
 70
     0
  9
$DIMSAH
 70
     0
  9
$DIMBLK1
  1

  9
$DIMBLK2
  1

  9
$DIMSTYLE
  2
Standard
  9
$DIMCLRD
 70
     0
  9
$DIMCLRE
 70
     0
  9
$DIMCLRT
 70
     0
  9
$DIMTFAC
 40
1.0
  9
$DIMGAP
 40
0.09
  9
$DIMJUST
 70
     0
  9
$DIMSD1
 70
     0
  9
$DIMSD2
 70
     0
  9
$DIMTOLJ
 70
     1
  9
$DIMTZIN
 70
     0
  9
$DIMALTZ
 70
     0
  9
$DIMALTTZ
 70
     0
  9
$DIMUPT
 70
     0
  9
$DIMDEC
 70
     4
  9
$DIMTDEC
 70
     4
  9
$DIMALTU
 70
     2
  9
$DIMALTTD
 70
     2
  9
$DIMTXSTY
  7
Standard
  9
$DIMAUNIT
 70
     0
  9
$DIMADEC
 70
     0
  9
$DIMALTRND
 40
0.0
  9
$DIMAZIN
 70
     0
  9
$DIMDSEP
 70
    46
  9
$DIMATFIT
 70
     3
  9
$DIMFRAC
 70
     0
  9
$DIMLDRBLK
  1

  9
$DIMLUNIT
 70
     2
  9
$DIMLWD
 70
    -2
  9
$DIMLWE
 70
    -2
  9
$DIMTMOVE
 70
     0
  9
$LUNITS
 70
     2
  9
$LUPREC
 70
     4
  9
$SKETCHINC
 40
0.1
  9
$FILLETRAD
 40
0.0
  9
$AUNITS
 70
     0
  9
$AUPREC
 70
     0
  9
$MENU
  1
.
  9
$ELEVATION
 40
0.0
  9
$PELEVATION
 40
0.0
  9
$THICKNESS
 40
0.0
  9
$LIMCHECK
 70
     0
  9
$CHAMFERA
 40
0.0
  9
$CHAMFERB
 40
0.0
  9
$CHAMFERC
 40
0.0
  9
$CHAMFERD
 40
0.0
  9
$SKPOLY
 70
     0
  9
$TDCREATE
 40
2458569.351350127
  9
$TDUCREATE
 40
2458569.268016794
  9
$TDUPDATE
 40
2458621.602505926
  9
$TDUUPDATE
 40
2458621.519172593
  9
$TDINDWG
 40
0.0005374653
  9
$TDUSRTIMER
 40
0.0005374653
  9
$USRTIMER
 70
     1
  9
$ANGBASE
 50
0.0
  9
$ANGDIR
 70
     0
  9
$PDMODE
 70
     0
  9
$PDSIZE
 40
0.0
  9
$PLINEWID
 40
0.0
  9
$SPLFRAME
 70
     0
  9
$SPLINETYPE
 70
     6
  9
$SPLINESEGS
 70
     8
  9
$HANDSEED
  5
F50
  9
$SURFTAB1
 70
     6
  9
$SURFTAB2
 70
     6
  9
$SURFTYPE
 70
     6
  9
$SURFU
 70
     6
  9
$SURFV
 70
     6
  9
$UCSBASE
  2

  9
$UCSNAME
  2

  9
$UCSORG
 10
0.0
 20
0.0
 30
0.0
  9
$UCSXDIR
 10
1.0
 20
0.0
 30
0.0
  9
$UCSYDIR
 10
0.0
 20
1.0
 30
0.0
  9
$UCSORTHOREF
  2

  9
$UCSORTHOVIEW
 70
     0
  9
$UCSORGTOP
 10
0.0
 20
0.0
 30
0.0
  9
$UCSORGBOTTOM
 10
0.0
 20
0.0
 30
0.0
  9
$UCSORGLEFT
 10
0.0
 20
0.0
 30
0.0
  9
$UCSORGRIGHT
 10
0.0
 20
0.0
 30
0.0
  9
$UCSORGFRONT
 10
0.0
 20
0.0
 30
0.0
  9
$UCSORGBACK
 10
0.0
 20
0.0
 30
0.0
  9
$PUCSBASE
  2

  9
$PUCSNAME
  2

  9
$PUCSORG
 10
0.0
 20
0.0
 30
0.0
  9
$PUCSXDIR
 10
1.0
 20
0.0
 30
0.0
  9
$PUCSYDIR
 10
0.0
 20
1.0
 30
0.0
  9
$PUCSORTHOREF
  2

  9
$PUCSORTHOVIEW
 70
     0
  9
$PUCSORGTOP
 10
0.0
 20
0.0
 30
0.0
  9
$PUCSORGBOTTOM
 10
0.0
 20
0.0
 30
0.0
  9
$PUCSORGLEFT
 10
0.0
 20
0.0
 30
0.0
  9
$PUCSORGRIGHT
 10
0.0
 20
0.0
 30
0.0
  9
$PUCSORGFRONT
 10
0.0
 20
0.0
 30
0.0
  9
$PUCSORGBACK
 10
0.0
 20
0.0
 30
0.0
  9
$USERI1
 70
     0
  9
$USERI2
 70
     0
  9
$USERI3
 70
     0
  9
$USERI4
 70
     0
  9
$USERI5
 70
     0
  9
$USERR1
 40
0.0
  9
$USERR2
 40
0.0
  9
$USERR3
 40
0.0
  9
$USERR4
 40
0.0
  9
$USERR5
 40
0.0
  9
$WORLDVIEW
 70
     1
  9
$SHADEDGE
 70
     3
  9
$SHADEDIF
 70
    70
  9
$TILEMODE
 70
     1
  9
$MAXACTVP
 70
    64
  9
$PINSBASE
 10
0.0
 20
0.0
 30
0.0
  9
$PLIMCHECK
 70
     0
  9
$PEXTMIN
 10
0.0
 20
0.0
 30
0.0
  9
$PEXTMAX
 10
29700.0
 20
21000.0
 30
0.0
  9
$PLIMMIN
 10
0.0
 20
0.0
  9
$PLIMMAX
 10
29700.0
 20
21000.0
  9
$UNITMODE
 70
     0
  9
$VISRETAIN
 70
     1
  9
$PLINEGEN
 70
     0
  9
$PSLTSCALE
 70
     1
  9
$TREEDEPTH
 70
  3020
  9
$CMLSTYLE
  2
Standard
  9
$CMLJUST
 70
     0
  9
$CMLSCALE
 40
1.0
  9
$PROXYGRAPHICS
 70
     1
  9
$MEASUREMENT
 70
     1
  9
$CELWEIGHT
370
    -1
  9
$ENDCAPS
280
     0
  9
$JOINSTYLE
280
     0
  9
$LWDISPLAY
290
     0
  9
$INSUNITS
 70
     4
  9
$HYPERLINKBASE
  1
www.muller.com.pl
  9
$STYLESHEET
  1

  9
$XEDIT
290
     1
  9
$CEPSNTYPE
380
     0
  9
$PSTYLEMODE
290
     1
  9
$FINGERPRINTGUID
  2
{200A0356-07AE-480C-B959-81664956AC17}
  9
$VERSIONGUID
  2
{1FA84472-7E69-4A6C-8E2D-922476AC68CF}
  9
$EXTNAMES
290
     1
  9
$PSVPSCALE
 40
0.0
  9
$OLESTARTUP
290
     0
  0
ENDSEC
  0
SECTION
  2
CLASSES
  0
CLASS
  1
ACDBDICTIONARYWDFLT
  2
AcDbDictionaryWithDefault
  3
ObjectDBX Classes
 90
        0
280
     0
281
     0
  0
CLASS
  1
MATERIAL
  2
AcDbMaterial
  3
ObjectDBX Classes
 90
     1153
280
     0
281
     0
  0
CLASS
  1
VISUALSTYLE
  2
AcDbVisualStyle
  3
ObjectDBX Classes
 90
     4095
280
     0
281
     0
  0
CLASS
  1
SCALE
  2
AcDbScale
  3
ObjectDBX Classes
 90
     1153
280
     0
281
     0
  0
CLASS
  1
TABLESTYLE
  2
AcDbTableStyle
  3
ObjectDBX Classes
 90
     4095
280
     0
281
     0
  0
CLASS
  1
MLEADERSTYLE
  2
AcDbMLeaderStyle
  3
ACDB_MLEADERSTYLE_CLASS
 90
     4095
280
     0
281
     0
  0
CLASS
  1
CELLSTYLEMAP
  2
AcDbCellStyleMap
  3
ObjectDBX Classes
 90
     1152
280
     0
281
     0
  0
CLASS
  1
DICTIONARYVAR
  2
AcDbDictionaryVar
  3
ObjectDBX Classes
 90
        0
280
     0
281
     0
  0
CLASS
  1
ACDBPLACEHOLDER
  2
AcDbPlaceHolder
  3
ObjectDBX Classes
 90
        0
280
     0
281
     0
  0
CLASS
  1
LAYOUT
  2
AcDbLayout
  3
ObjectDBX Classes
 90
        0
280
     0
281
     0
  0
CLASS
  1
EXACXREFPANELOBJECT
  2
ExAcXREFPanelObject
  3
EXAC_ESW
 90
     1025
280
     0
281
     0
  0
CLASS
  1
NPOCOLLECTION
  2
AcDbImpNonPersistentObjectsCollection
  3
ObjectDBX Classes
 90
     1153
280
     0
281
     0
  0
ENDSEC
  0
SECTION
  2
TABLES
  0
TABLE
  2
VPORT
  5
8
102
{ACAD_XDICTIONARY
360
D4E
102
}
330
0
100
AcDbSymbolTable
 70
     1
  0
VPORT
  5
57
330
8
100
AcDbSymbolTableRecord
100
AcDbViewportTableRecord
  2
*Active
 70
     0
 10
0.0
 20
0.0
 11
1.0
 21
1.0
 12
32042.84078068977
 22
8657.577249833913
 13
0.0
 23
0.0
 14
1.0
 24
1.0
 15
0.0
 25
0.0
 16
0.0
 26
0.0
 36
1.0
 17
0.0
 27
0.0
 37
0.0
 40
18147.86417470121
 41
2.430203045685279
 42
50.0
 43
0.0
 44
0.0
 50
0.0
 51
0.0
 71
     0
 72
   100
 73
     1
 74
     1
 75
     0
 76
     0
 77
     0
 78
     0
281
     0
 65
     1
110
0.0
120
0.0
130
0.0
111
1.0
121
0.0
131
0.0
112
0.0
122
1.0
132
0.0
 79
     0
146
0.0
  0
ENDTAB
  0
TABLE
  2
LTYPE
  5
5
330
0
100
AcDbSymbolTable
 70
    59
  0
LTYPE
  5
5B
330
5
100
AcDbSymbolTableRecord
100
AcDbLinetypeTableRecord
  2
ByBlock
 70
     0
  3

 72
    65
 73
     0
 40
0.0
  0
LTYPE
  5
5C
330
5
100
AcDbSymbolTableRecord
100
AcDbLinetypeTableRecord
  2
ByLayer
 70
     0
  3

 72
    65
 73
     0
 40
0.0
  0
LTYPE
  5
5D
330
5
100
AcDbSymbolTableRecord
100
AcDbLinetypeTableRecord
  2
Continuous
 70
     0
  3
Solid line
 72
    65
 73
     0
 40
0.0
  0
ENDTAB
  0
TABLE
  2
LAYER
  5
2
330
0
100
AcDbSymbolTable
 70
     8
  0
LAYER
  5
54
330
2
100
AcDbSymbolTableRecord
100
AcDbLayerTableRecord
  2
0
 70
     0
 62
     7
  6
Continuous
370
    -3
390
F
  0
LAYER
  5
BA
330
2
100
AcDbSymbolTableRecord
100
AcDbLayerTableRecord
  2
Dimension (ISO)
 70
     0
 62
   161
  6
Continuous
370
    18
390
F
  0
LAYER
  5
C5
330
2
100
AcDbSymbolTableRecord
100
AcDbLayerTableRecord
  2
Title (ISO)
 70
     0
 62
     7
  6
Continuous
370
    30
390
F
  0
LAYER
  5
C8
330
2
100
AcDbSymbolTableRecord
100
AcDbLayerTableRecord
  2
Visible (ISO)
 70
     0
 62
     7
  6
Continuous
370
    35
390
F
  0
LAYER
  5
519
330
2
100
AcDbSymbolTableRecord
100
AcDbLayerTableRecord
  2
Defpoints
 70
     0
 62
     7
  6
Continuous
290
     0
370
    -3
390
F
  0
ENDTAB
  0
TABLE
  2
STYLE
  5
3
330
0
100
AcDbSymbolTable
 70
     7
  0
STYLE
  5
55
330
3
100
AcDbSymbolTableRecord
100
AcDbTextStyleTableRecord
  2
Standard
 70
     0
 40
0.0
 41
1.0
 50
0.0
 71
     0
 42
0.2
  3
tahoma.ttf
  4

1001
ACAD
1000
Tahoma
1071
      256
  0
STYLE
  5
CD
330
3
100
AcDbSymbolTableRecord
100
AcDbTextStyleTableRecord
  2
Label Text (ISO)
 70
     0
 40
0.0
 41
1.0
 50
0.0
 71
     0
 42
0.2
  3
tahoma.ttf
  4

1001
ACAD
1000
Tahoma
1071
      256
  0
STYLE
  5
CE
330
3
100
AcDbSymbolTableRecord
100
AcDbTextStyleTableRecord
  2
Note Text (ISO)
 70
     0
 40
0.0
 41
1.0
 50
0.0
 71
     0
 42
0.2
  3
tahoma.ttf
  4

1001
ACAD
1000
Tahoma
1071
      256
  0
ENDTAB
  0
TABLE
  2
VIEW
  5
6
330
0
100
AcDbSymbolTable
 70
     0
  0
ENDTAB
  0
TABLE
  2
UCS
  5
7
330
0
100
AcDbSymbolTable
 70
     0
  0
ENDTAB
  0
TABLE
  2
APPID
  5
9
330
0
100
AcDbSymbolTable
 70
     4
  0
APPID
  5
56
330
9
100
AcDbSymbolTableRecord
100
AcDbRegAppTableRecord
  2
ACAD
 70
     0
  0
APPID
  5
5E
330
9
100
AcDbSymbolTableRecord
100
AcDbRegAppTableRecord
  2
AcadAnnotative
 70
     0
  0
APPID
  5
511
330
9
100
AcDbSymbolTableRecord
100
AcDbRegAppTableRecord
  2
AcadAnnoPO
 70
     0
  0
APPID
  5
D84
330
9
100
AcDbSymbolTableRecord
100
AcDbRegAppTableRecord
  2
ACAD_MLEADERVER
 70
     0
  0
ENDTAB
  0
TABLE
  2
DIMSTYLE
  5
A
330
0
100
AcDbSymbolTable
 70
    12
100
AcDbDimStyleTable
 71
     2
340
D5
340
58
  0
DIMSTYLE
105
58
330
A
100
AcDbSymbolTableRecord
100
AcDbDimStyleTableRecord
  2
Standard
 70
     0
340
55
  0
DIMSTYLE
105
D5
102
{ACAD_REACTORS
330
518
330
5FB
330
6E3
330
7CB
330
8AD
330
992
330
A77
330
B74
330
C59
102
}
330
A
100
AcDbSymbolTableRecord
100
AcDbDimStyleTableRecord
  2
Default (ISO)
 70
     0
 40
100.0
 41
2.5
 42
0.5
 43
5.999999999999999
 44
1.0
 45
0.00000001
 46
10.0
 73
     0
 77
     1
 78
     8
 79
     2
140
3.5
143
0.03937
146
0.7142857313156128
147
0.762
171
     3
172
     1
176
   256
177
   256
178
   256
271
     2
272
     2
274
     3
278
    44
340
CD
371
    -1
372
    -1
  0
ENDTAB
  0
TABLE
  2
BLOCK_RECORD
  5
1
330
0
100
AcDbSymbolTable
 70
    18
  0
BLOCK_RECORD
  5
6C
330
1
100
AcDbSymbolTableRecord
100
AcDbBlockTableRecord
  2
*Model_Space
340
6F
  0
BLOCK_RECORD
  5
68
330
1
100
AcDbSymbolTableRecord
100
AcDbBlockTableRecord
  2
*Paper_Space
340
6B
  0
BLOCK_RECORD
  5
70
330
1
100
AcDbSymbolTableRecord
100
AcDbBlockTableRecord
  2
*Paper_Space0
340
73
  0
BLOCK_RECORD
  5
509
330
1
100
AcDbSymbolTableRecord
100
AcDbBlockTableRecord
  2
Tabelki rysunkowe Rzut
340
0
102
{BLKREFS
331
514
102
}
  0
BLOCK_RECORD
  5
51A
330
1
100
AcDbSymbolTableRecord
100
AcDbBlockTableRecord
  2
*D8
340
0
  0
BLOCK_RECORD
  5
5FC
330
1
100
AcDbSymbolTableRecord
100
AcDbBlockTableRecord
  2
*D9
340
0
  0
BLOCK_RECORD
  5
6E4
330
1
100
AcDbSymbolTableRecord
100
AcDbBlockTableRecord
  2
*D10
340
0
  0
BLOCK_RECORD
  5
7CC
330
1
100
AcDbSymbolTableRecord
100
AcDbBlockTableRecord
  2
*D11
340
0
  0
BLOCK_RECORD
  5
8AE
330
1
100
AcDbSymbolTableRecord
100
AcDbBlockTableRecord
  2
*D12
340
0
  0
BLOCK_RECORD
  5
993
330
1
100
AcDbSymbolTableRecord
100
AcDbBlockTableRecord
  2
*D13
340
0
  0
BLOCK_RECORD
  5
A78
330
1
100
AcDbSymbolTableRecord
100
AcDbBlockTableRecord
  2
*D14
340
0
  0
BLOCK_RECORD
  5
B75
330
1
100
AcDbSymbolTableRecord
100
AcDbBlockTableRecord
  2
*D15
340
0
  0
BLOCK_RECORD
  5
C5A
330
1
100
AcDbSymbolTableRecord
100
AcDbBlockTableRecord
  2
*D16
340
0
  0
BLOCK_RECORD
  5
DA4
330
1
100
AcDbSymbolTableRecord
100
AcDbBlockTableRecord
  2
88503_Street-workout-parkour-3
340
0
310
2800000020000000200000000100080000000000000400000000000000000000000000000000000000000000000080000080000000808000800000008000800080800000C0C0C000C0DCC000F0CAA6000020400000206000002080000020A0000020C0000020E00000400000004020000040400000406000004080000040A0
310
000040C0000040E00000600000006020000060400000606000006080000060A0000060C0000060E00000800000008020000080400000806000008080000080A0000080C0000080E00000A0000000A0200000A0400000A0600000A0800000A0A00000A0C00000A0E00000C0000000C0200000C0400000C0600000C0800000C0
310
A00000C0C00000C0E00000E0000000E0200000E0400000E0600000E0800000E0A00000E0C00000E0E00040000000400020004000400040006000400080004000A0004000C0004000E00040200000402020004020400040206000402080004020A0004020C0004020E000404000004040200040404000404060004040800040
310
40A0004040C0004040E00040600000406020004060400040606000406080004060A0004060C0004060E00040800000408020004080400040806000408080004080A0004080C0004080E00040A0000040A0200040A0400040A0600040A0800040A0A00040A0C00040A0E00040C0000040C0200040C0400040C0600040C08000
310
40C0A00040C0C00040C0E00040E0000040E0200040E0400040E0600040E0800040E0A00040E0C00040E0E00080000000800020008000400080006000800080008000A0008000C0008000E00080200000802020008020400080206000802080008020A0008020C0008020E00080400000804020008040400080406000804080
310
008040A0008040C0008040E00080600000806020008060400080606000806080008060A0008060C0008060E00080800000808020008080400080806000808080008080A0008080C0008080E00080A0000080A0200080A0400080A0600080A0800080A0A00080A0C00080A0E00080C0000080C0200080C0400080C0600080C0
310
800080C0A00080C0C00080C0E00080E0000080E0200080E0400080E0600080E0800080E0A00080E0C00080E0E000C0000000C0002000C0004000C0006000C0008000C000A000C000C000C000E000C0200000C0202000C0204000C0206000C0208000C020A000C020C000C020E000C0400000C0402000C0404000C0406000C0
310
408000C040A000C040C000C040E000C0600000C0602000C0604000C0606000C0608000C060A000C060C000C060E000C0800000C0802000C0804000C0806000C0808000C080A000C080C000C080E000C0A00000C0A02000C0A04000C0A06000C0A08000C0A0A000C0A0C000C0A0E000C0C00000C0C02000C0C04000C0C06000
310
C0C08000C0C0A000F0FBFF00A4A0A000808080000000FF0000FF000000FFFF00FF000000FF00FF00FFFF0000FFFFFF0049494949494949494949494949494949494949494949494949494949494949494949494949494949494949494949494949494949494949494949494949494949494949494949494949494949494949
310
49494949494949494949494949494949494949494949494949494949494949494949494949494949494949494949494949494949FFFFFFFFFFFFFFFFFFFFFFFFFFFFFFFFFF4949494949494949494949494949FFFF494949494949494949494949494949FFFF49494949494949494949494949FF4949494949494949494949
310
494949494949FF494949494949494949494949FFFF494949494949494949494949494949494949FF4949494949494949494949FF4949494949494949FFFFFFFFFFFFFFFF494949FF4949494949494949494949FF4949494949494949FFFFFFFFFFFFFFFF494949FFFFFFFFFFFFFF4949494949FF4949494949494949494949
310
FFFF49494949494949494949494949FFFF494949FF49494949FF494949494949FFFF4949494949494949494949494949FF494949FF49494949FF494949494949FFFF4949494949494949494949494949FFFF4949FF49494949FF494949494949FFFFFFFFFFFF4949494949494949494949FF4949FF49494949FF4949494949
310
49FFFF4949FFFF494949494949FF49494949FF4949FF49494949FF49494949494949FF4949FFFF494949494949FF49494949FF4949FF49494949FF494949494949FFFF4949FFFF494949494949FF49494949FF4949FF4949494949494949494949FFFF4949FFFF494949494949FF49494949FF494949FF4949494949494949
310
4949FFFF4949FFFF494949494949FF49494949FF494949FF49494949494949FFFFFFFFFFFFFFFFFFFFFFFFFFFFFFFF49494949FF49494949FFFF494949494949494949FF4949FFFF49FFFFFFFFFFFF49494949FF494949494949FFFFFF494949494949FF4949FFFF49FFFFFFFFFFFF49494949FF4949494949494949FF4949
310
49494949FF4949FFFF49FFFFFFFFFFFF49494949FF494949494949494949FFFF494949FFFFFFFFFFFFFFFFFFFFFFFFFF49494949FF49494949494949494949FF49494949494949494949494949494949494949FFFF4949494949494949494949FF494949494949494949494949494949494949FF4949494949494949494949
310
4949FF49494949494949494949494949494949FFFF4949494949494949494949494949FFFFFFFFFFFFFFFFFFFFFFFFFFFFFFFFFF494949494949494949494949494949494949494949494949494949494949494949494949494949494949494949494949494949494949494949494949494949494949494949494949494949
310
4949494949494949494949494949494949494949494949494949494949494949494949494949494949494949494949494949494949494949
102
{BLKREFS
331
F09
102
}
1001
ACAD
1000
DesignCenter Data
1002
{
1070
     1
1070
     4
1002
}
  0
ENDTAB
  0
ENDSEC
  0
SECTION
  2
BLOCKS
  0
BLOCK
  5
6D
330
6C
100
AcDbEntity
  8
0
100
AcDbBlockBegin
  2
*Model_Space
 70
     0
 10
0.0
 20
0.0
 30
0.0
  3
*Model_Space
  1

  0
ENDBLK
  5
6E
330
6C
100
AcDbEntity
  8
0
100
AcDbBlockEnd
  0
BLOCK
  5
69
330
68
100
AcDbEntity
 67
     1
  8
0
100
AcDbBlockBegin
  2
*Paper_Space
 70
     0
 10
0.0
 20
0.0
 30
0.0
  3
*Paper_Space
  1

  0
ENDBLK
  5
6A
330
68
100
AcDbEntity
 67
     1
  8
0
100
AcDbBlockEnd
  0
BLOCK
  5
71
330
70
100
AcDbEntity
 67
     1
  8
0
100
AcDbBlockBegin
  2
*Paper_Space0
 70
     0
 10
0.0
 20
0.0
 30
0.0
  3
*Paper_Space0
  1

  0
ENDBLK
  5
72
330
70
100
AcDbEntity
 67
     1
  8
0
100
AcDbBlockEnd
  0
BLOCK
  5
50A
330
509
100
AcDbEntity
  8
0
100
AcDbBlockBegin
  2
Tabelki rysunkowe Rzut
 70
     2
 10
0.0
 20
0.0
 30
0.0
  3
Tabelki rysunkowe Rzut
  1

  0
TEXT
  5
50C
330
509
100
AcDbEntity
  8
Title (ISO)
100
AcDbText
 10
166.7768162971836
 20
11.24130542460445
 30
0.0
 40
2.5
  1
Obowiązuje od:
  7
Note Text (ISO)
 11
166.7768162971836
 21
13.74130542460445
 31
0.0
100
AcDbText
 73
     3
  0
TEXT
  5
50E
330
509
100
AcDbEntity
  8
Title (ISO)
100
AcDbText
 10
166.7768162971836
 20
18.24130542460445
 30
0.0
 40
2.5
  1
Nr kat.:
  7
Note Text (ISO)
 11
166.7768162971836
 21
20.74130542460446
 31
0.0
100
AcDbText
 73
     3
  0
TEXT
  5
50F
330
509
100
AcDbEntity
  8
Title (ISO)
100
AcDbText
 10
166.7768162971836
 20
14.74130542460445
 30
0.0
 40
2.5
  1
Nazwa:
  7
Note Text (ISO)
 11
166.7768162971836
 21
17.24130542460445
 31
0.0
100
AcDbText
 73
     3
  0
ATTDEF
  5
510
102
{ACAD_XDICTIONARY
360
D40
102
}
330
509
100
AcDbEntity
  8
Title (ISO)
100
AcDbText
 10
178.5283273792489
 20
18.12713485684115
 30
0.0
 40
2.5
  1
88503
  7
Note Text (ISO)
100
AcDbAttributeDefinition
  3
Numer katalogowy
  2
Numer_katalogowy_001
 70
     0
  0
ATTDEF
  5
512
102
{ACAD_XDICTIONARY
360
D43
102
}
330
509
100
AcDbEntity
  8
Title (ISO)
100
AcDbText
 10
190.4107988369825
 20
11.13720873189256
 30
0.0
 40
2.5
  1
2019-03-26
  7
Note Text (ISO)
100
AcDbAttributeDefinition
  3
DATA UTWORZENIA
  2
DATA_UTWORZENIA_001
 70
     0
  0
MTEXT
  5
513
330
509
100
AcDbEntity
  8
Title (ISO)
100
AcDbMText
 10
178.7768162971835
 20
17.24130542460445
 30
0.0
 40
2.5
 41
38.632931107587
 71
     1
 72
     1
  1
Street workout - parkour 3
  7
Note Text (ISO)
 73
     1
 44
1.0
1001
ACAD
1000
MTEXTBEGIN
1070
    73
1070
     1
1070
    44
1040
1.0
1070
    74
1070
     0
1000
MTEXTEND
  0
ENDBLK
  5
50B
330
509
100
AcDbEntity
  8
0
100
AcDbBlockEnd
  0
BLOCK
  5
51B
330
51A
100
AcDbEntity
  8
0
100
AcDbBlockBegin
  2
*D8
 70
     1
 10
0.0
 20
0.0
 30
0.0
  3
*D8
  1

  0
LINE
  5
5F2
330
51A
100
AcDbEntity
  8
Dimension (ISO)
100
AcDbLine
 10
28674.60583371146
 20
4036.524376167743
 30
0.0
 11
28674.60583371146
 21
1571.925446458739
 31
0.0
  0
LINE
  5
5F3
330
51A
100
AcDbEntity
  8
Dimension (ISO)
100
AcDbLine
 10
38799.6058337114
 20
5861.524376169048
 30
0.0
 11
38799.6058337114
 21
1571.925446458739
 31
0.0
  0
LINE
  5
5F4
330
51A
100
AcDbEntity
  8
Dimension (ISO)
100
AcDbLine
 10
28924.60583371146
 20
1671.925446458739
 30
0.0
 11
38549.6058337114
 21
1671.925446458739
 31
0.0
  0
SOLID
  5
5F5
330
51A
100
AcDbEntity
  8
Dimension (ISO)
100
AcDbTrace
 10
28924.60583371146
 20
1713.592113125406
 30
0.0
 11
28924.60583371146
 21
1630.258779792072
 31
0.0
 12
28674.60583371146
 22
1671.925446458739
 32
0.0
 13
28674.60583371146
 23
1671.925446458739
 33
0.0
  0
SOLID
  5
5F6
330
51A
100
AcDbEntity
  8
Dimension (ISO)
100
AcDbTrace
 10
38549.6058337114
 20
1713.592113125406
 30
0.0
 11
38549.6058337114
 21
1630.258779792072
 31
0.0
 12
38799.6058337114
 22
1671.925446458739
 32
0.0
 13
38799.6058337114
 23
1671.925446458739
 33
0.0
  0
MTEXT
  5
5F7
330
51A
100
AcDbEntity
  8
Dimension (ISO)
100
AcDbMText
 10
33737.10583371143
 20
2112.698983391324
 30
0.0
 40
350.0
 41
0.0
 71
     2
 72
     1
  1
\A1;10125
  7
Label Text (ISO)
 73
     1
 44
1.0
1001
ACAD
1000
MTEXTBEGIN
1070
    73
1070
     1
1070
    44
1040
1.0
1070
    74
1070
     0
1000
MTEXTEND
  0
POINT
  5
5F8
330
51A
100
AcDbEntity
  8
Defpoints
 62
     0
100
AcDbPoint
 10
28674.60583371146
 20
4086.524376167743
 30
0.0
  0
POINT
  5
5F9
330
51A
100
AcDbEntity
  8
Defpoints
 62
     0
100
AcDbPoint
 10
38799.6058337114
 20
5911.524376169047
 30
0.0
  0
POINT
  5
5FA
330
51A
100
AcDbEntity
  8
Defpoints
 62
     0
100
AcDbPoint
 10
38799.6058337114
 20
1671.925446458739
 30
0.0
  0
ENDBLK
  5
51C
330
51A
100
AcDbEntity
  8
0
100
AcDbBlockEnd
  0
BLOCK
  5
5FD
330
5FC
100
AcDbEntity
  8
0
100
AcDbBlockBegin
  2
*D9
 70
     1
 10
0.0
 20
0.0
 30
0.0
  3
*D9
  1

  0
LINE
  5
6DA
330
5FC
100
AcDbEntity
  8
Dimension (ISO)
100
AcDbLine
 10
37349.6058337114
 20
10911.52437616776
 30
0.0
 11
39681.04305621036
 21
10911.52437616776
 31
0.0
  0
LINE
  5
6DB
330
5FC
100
AcDbEntity
  8
Dimension (ISO)
100
AcDbLine
 10
34224.60583371146
 20
2586.524376167741
 30
0.0
 11
39681.04305621036
 21
2586.52437616774
 31
0.0
  0
LINE
  5
6DC
330
5FC
100
AcDbEntity
  8
Dimension (ISO)
100
AcDbLine
 10
39581.04305621036
 20
10661.52437616775
 30
0.0
 11
39581.04305621036
 21
2836.52437616774
 31
0.0
  0
SOLID
  5
6DD
330
5FC
100
AcDbEntity
  8
Dimension (ISO)
100
AcDbTrace
 10
39539.3763895437
 20
10661.52437616775
 30
0.0
 11
39622.70972287702
 21
10661.52437616775
 31
0.0
 12
39581.04305621036
 22
10911.52437616776
 32
0.0
 13
39581.04305621036
 23
10911.52437616776
 33
0.0
  0
SOLID
  5
6DE
330
5FC
100
AcDbEntity
  8
Dimension (ISO)
100
AcDbTrace
 10
39539.3763895437
 20
2836.52437616774
 30
0.0
 11
39622.70972287702
 21
2836.52437616774
 31
0.0
 12
39581.04305621036
 22
2586.52437616774
 32
0.0
 13
39581.04305621036
 23
2586.52437616774
 33
0.0
  0
MTEXT
  5
6DF
330
5FC
100
AcDbEntity
  8
Dimension (ISO)
100
AcDbMText
 10
39138.85917677514
 20
6749.024376167749
 30
0.0
 40
350.0
 41
0.0
 71
     2
 72
     1
  1
\A1;8325
  7
Label Text (ISO)
 11
0.0000000000000001
 21
1.0
 31
0.0
 73
     1
 44
1.0
1001
ACAD
1000
MTEXTBEGIN
1070
    73
1070
     1
1070
    44
1040
1.0
1070
    74
1070
     0
1000
MTEXTEND
  0
POINT
  5
6E0
330
5FC
100
AcDbEntity
  8
Defpoints
 62
     0
100
AcDbPoint
 10
37299.6058337114
 20
10911.52437616776
 30
0.0
  0
POINT
  5
6E1
330
5FC
100
AcDbEntity
  8
Defpoints
 62
     0
100
AcDbPoint
 10
34174.60583371146
 20
2586.524376167741
 30
0.0
  0
POINT
  5
6E2
330
5FC
100
AcDbEntity
  8
Defpoints
 62
     0
100
AcDbPoint
 10
39581.04305621036
 20
2586.52437616774
 30
0.0
  0
ENDBLK
  5
5FE
330
5FC
100
AcDbEntity
  8
0
100
AcDbBlockEnd
  0
BLOCK
  5
6E5
330
6E4
100
AcDbEntity
  8
0
100
AcDbBlockBegin
  2
*D10
 70
     1
 10
0.0
 20
0.0
 30
0.0
  3
*D10
  1

  0
LINE
  5
7C2
330
6E4
100
AcDbEntity
  8
Dimension (ISO)
100
AcDbLine
 10
32952.60583371142
 20
9411.524376168406
 30
0.0
 11
31207.10342494331
 21
9411.524376168406
 31
0.0
  0
LINE
  5
7C3
330
6E4
100
AcDbEntity
  8
Dimension (ISO)
100
AcDbLine
 10
31878.60583371147
 20
4086.524376168155
 30
0.0
 11
31207.1034249433
 21
4086.524376168156
 31
0.0
  0
LINE
  5
7C4
330
6E4
100
AcDbEntity
  8
Dimension (ISO)
100
AcDbLine
 10
31307.10342494331
 20
9161.524376168406
 30
0.0
 11
31307.1034249433
 21
4336.524376168155
 31
0.0
  0
SOLID
  5
7C5
330
6E4
100
AcDbEntity
  8
Dimension (ISO)
100
AcDbTrace
 10
31265.43675827664
 20
9161.524376168406
 30
0.0
 11
31348.77009160998
 21
9161.524376168406
 31
0.0
 12
31307.10342494331
 22
9411.524376168406
 32
0.0
 13
31307.10342494331
 23
9411.524376168406
 33
0.0
  0
SOLID
  5
7C6
330
6E4
100
AcDbEntity
  8
Dimension (ISO)
100
AcDbTrace
 10
31265.43675827664
 20
4336.524376168155
 30
0.0
 11
31348.77009160997
 21
4336.524376168155
 31
0.0
 12
31307.1034249433
 22
4086.524376168156
 32
0.0
 13
31307.1034249433
 23
4086.524376168156
 33
0.0
  0
MTEXT
  5
7C7
330
6E4
100
AcDbEntity
  8
Dimension (ISO)
100
AcDbMText
 10
30866.32988801072
 20
6749.024376168282
 30
0.0
 40
350.0
 41
0.0
 71
     2
 72
     1
  1
\A1;5325
  7
Label Text (ISO)
 11
0.0000000000000001
 21
1.0
 31
0.0
 73
     1
 44
1.0
1001
ACAD
1000
MTEXTBEGIN
1070
    73
1070
     1
1070
    44
1040
1.0
1070
    74
1070
     0
1000
MTEXTEND
  0
POINT
  5
7C8
330
6E4
100
AcDbEntity
  8
Defpoints
 62
     0
100
AcDbPoint
 10
33002.60583371142
 20
9411.524376168406
 30
0.0
  0
POINT
  5
7C9
330
6E4
100
AcDbEntity
  8
Defpoints
 62
     0
100
AcDbPoint
 10
31928.60583371147
 20
4086.524376168155
 30
0.0
  0
POINT
  5
7CA
330
6E4
100
AcDbEntity
  8
Defpoints
 62
     0
100
AcDbPoint
 10
31307.1034249433
 20
4086.524376168156
 30
0.0
  0
ENDBLK
  5
6E6
330
6E4
100
AcDbEntity
  8
0
100
AcDbBlockEnd
  0
BLOCK
  5
7CD
330
7CC
100
AcDbEntity
  8
0
100
AcDbBlockBegin
  2
*D11
 70
     1
 10
0.0
 20
0.0
 30
0.0
  3
*D11
  1

  0
LINE
  5
8A4
330
7CC
100
AcDbEntity
  8
Dimension (ISO)
100
AcDbLine
 10
30174.60583371146
 20
7132.524376168013
 30
0.0
 11
30174.60583371146
 21
10063.50125907589
 31
0.0
  0
LINE
  5
8A5
330
7CC
100
AcDbEntity
  8
Dimension (ISO)
100
AcDbLine
 10
37299.6058337114
 20
9458.524376168412
 30
0.0
 11
37299.6058337114
 21
10063.50125907589
 31
0.0
  0
LINE
  5
8A6
330
7CC
100
AcDbEntity
  8
Dimension (ISO)
100
AcDbLine
 10
30424.60583371146
 20
9963.501259075897
 30
0.0
 11
37049.6058337114
 21
9963.501259075897
 31
0.0
  0
SOLID
  5
8A7
330
7CC
100
AcDbEntity
  8
Dimension (ISO)
100
AcDbTrace
 10
30424.60583371146
 20
10005.16792574256
 30
0.0
 11
30424.60583371146
 21
9921.834592409231
 31
0.0
 12
30174.60583371146
 22
9963.501259075897
 32
0.0
 13
30174.60583371146
 23
9963.501259075897
 33
0.0
  0
SOLID
  5
8A8
330
7CC
100
AcDbEntity
  8
Dimension (ISO)
100
AcDbTrace
 10
37049.6058337114
 20
10005.16792574256
 30
0.0
 11
37049.6058337114
 21
9921.834592409231
 31
0.0
 12
37299.6058337114
 22
9963.501259075897
 32
0.0
 13
37299.6058337114
 23
9963.501259075897
 33
0.0
  0
MTEXT
  5
8A9
330
7CC
100
AcDbEntity
  8
Dimension (ISO)
100
AcDbMText
 10
33737.10583371142
 20
10404.27479600848
 30
0.0
 40
350.0
 41
0.0
 71
     2
 72
     1
  1
\A1;7125
  7
Label Text (ISO)
 73
     1
 44
1.0
1001
ACAD
1000
MTEXTBEGIN
1070
    73
1070
     1
1070
    44
1040
1.0
1070
    74
1070
     0
1000
MTEXTEND
  0
POINT
  5
8AA
330
7CC
100
AcDbEntity
  8
Defpoints
 62
     0
100
AcDbPoint
 10
30174.60583371146
 20
7082.524376168013
 30
0.0
  0
POINT
  5
8AB
330
7CC
100
AcDbEntity
  8
Defpoints
 62
     0
100
AcDbPoint
 10
37299.6058337114
 20
9408.524376168413
 30
0.0
  0
POINT
  5
8AC
330
7CC
100
AcDbEntity
  8
Defpoints
 62
     0
100
AcDbPoint
 10
37299.6058337114
 20
9963.501259075897
 30
0.0
  0
ENDBLK
  5
7CE
330
7CC
100
AcDbEntity
  8
0
100
AcDbBlockEnd
  0
BLOCK
  5
8AF
330
8AE
100
AcDbEntity
  8
0
100
AcDbBlockBegin
  2
*D12
 70
     1
 10
0.0
 20
0.0
 30
0.0
  3
*D12
  1

  0
LINE
  5
98A
330
8AE
100
AcDbEntity
  8
Dimension (ISO)
100
AcDbLine
 10
30134.60583371391
 20
13490.73562648656
 30
0.0
 11
29176.81143646063
 21
13490.73562648656
 31
0.0
  0
LINE
  5
98B
330
8AE
100
AcDbEntity
  8
Dimension (ISO)
100
AcDbLine
 10
29276.81143646062
 20
13240.73562648656
 30
0.0
 11
29276.81143646062
 21
12780.73562648657
 31
0.0
  0
SOLID
  5
98C
330
8AE
100
AcDbEntity
  8
Dimension (ISO)
100
AcDbTrace
 10
29235.14476979395
 20
13240.73562648656
 30
0.0
 11
29318.47810312729
 21
13240.73562648656
 31
0.0
 12
29276.81143646062
 22
13490.73562648656
 32
0.0
 13
29276.81143646062
 23
13490.73562648656
 33
0.0
  0
SOLID
  5
98D
330
8AE
100
AcDbEntity
  8
Dimension (ISO)
100
AcDbTrace
 10
29235.14476979395
 20
12780.73562648657
 30
0.0
 11
29318.47810312729
 21
12780.73562648657
 31
0.0
 12
29276.81143646062
 22
12530.73562648657
 32
0.0
 13
29276.81143646062
 23
12530.73562648657
 33
0.0
  0
MTEXT
  5
98E
330
8AE
100
AcDbEntity
  8
Dimension (ISO)
100
AcDbMText
 10
28836.27295661181
 20
13010.73562648657
 30
0.0
 40
350.0
 41
0.0
 71
     2
 72
     1
  1
\A1;960
  7
Label Text (ISO)
 11
0.0000000000000001
 21
1.0
 31
0.0
 73
     1
 44
1.0
1001
ACAD
1000
MTEXTBEGIN
1070
    73
1070
     1
1070
    44
1040
1.0
1070
    74
1070
     0
1000
MTEXTEND
  0
POINT
  5
98F
330
8AE
100
AcDbEntity
  8
Defpoints
 62
     0
100
AcDbPoint
 10
30184.60583371392
 20
13490.73562648656
 30
0.0
  0
POINT
  5
990
330
8AE
100
AcDbEntity
  8
Defpoints
 62
     0
100
AcDbPoint
 10
29276.81143646062
 20
12530.73562648657
 30
0.0
  0
POINT
  5
991
330
8AE
100
AcDbEntity
  8
Defpoints
 62
     0
100
AcDbPoint
 10
29276.81143646062
 20
12530.73562648657
 30
0.0
  0
ENDBLK
  5
8B0
330
8AE
100
AcDbEntity
  8
0
100
AcDbBlockEnd
  0
BLOCK
  5
994
330
993
100
AcDbEntity
  8
0
100
AcDbBlockBegin
  2
*D13
 70
     1
 10
0.0
 20
0.0
 30
0.0
  3
*D13
  1

  0
LINE
  5
A6F
330
993
100
AcDbEntity
  8
Dimension (ISO)
100
AcDbLine
 10
31884.60583371392
 20
13930.73562648657
 30
0.0
 11
31134.79788405002
 21
13930.73562648657
 31
0.0
  0
LINE
  5
A70
330
993
100
AcDbEntity
  8
Dimension (ISO)
100
AcDbLine
 10
31234.79788405001
 20
13680.73562648657
 30
0.0
 11
31234.79788405001
 21
12780.73562648657
 31
0.0
  0
SOLID
  5
A71
330
993
100
AcDbEntity
  8
Dimension (ISO)
100
AcDbTrace
 10
31193.13121738335
 20
13680.73562648657
 30
0.0
 11
31276.46455071668
 21
13680.73562648657
 31
0.0
 12
31234.79788405001
 22
13930.73562648657
 32
0.0
 13
31234.79788405001
 23
13930.73562648657
 33
0.0
  0
SOLID
  5
A72
330
993
100
AcDbEntity
  8
Dimension (ISO)
100
AcDbTrace
 10
31193.13121738335
 20
12780.73562648657
 30
0.0
 11
31276.46455071668
 21
12780.73562648657
 31
0.0
 12
31234.79788405001
 22
12530.73562648656
 32
0.0
 13
31234.79788405001
 23
12530.73562648656
 33
0.0
  0
MTEXT
  5
A73
330
993
100
AcDbEntity
  8
Dimension (ISO)
100
AcDbMText
 10
30794.2594042012
 20
13230.73562648657
 30
0.0
 40
350.0
 41
0.0
 71
     2
 72
     1
  1
\A1;1400
  7
Label Text (ISO)
 11
0.0000000000000001
 21
1.0
 31
0.0
 73
     1
 44
1.0
1001
ACAD
1000
MTEXTBEGIN
1070
    73
1070
     1
1070
    44
1040
1.0
1070
    74
1070
     0
1000
MTEXTEND
  0
POINT
  5
A74
330
993
100
AcDbEntity
  8
Defpoints
 62
     0
100
AcDbPoint
 10
31934.60583371392
 20
13930.73562648657
 30
0.0
  0
POINT
  5
A75
330
993
100
AcDbEntity
  8
Defpoints
 62
     0
100
AcDbPoint
 10
31234.79788405001
 20
12530.73562648656
 30
0.0
  0
POINT
  5
A76
330
993
100
AcDbEntity
  8
Defpoints
 62
     0
100
AcDbPoint
 10
31234.79788405001
 20
12530.73562648656
 30
0.0
  0
ENDBLK
  5
995
330
993
100
AcDbEntity
  8
0
100
AcDbBlockEnd
  0
BLOCK
  5
A79
330
A78
100
AcDbEntity
  8
0
100
AcDbBlockBegin
  2
*D14
 70
     1
 10
0.0
 20
0.0
 30
0.0
  3
*D14
  1

  0
LINE
  5
B6B
330
A78
100
AcDbEntity
  8
Dimension (ISO)
100
AcDbLine
 10
32884.60583371391
 20
14810.73562648657
 30
0.0
 11
32323.57537045783
 21
14810.73562648657
 31
0.0
  0
LINE
  5
B6C
330
A78
100
AcDbEntity
  8
Dimension (ISO)
100
AcDbLine
 10
32423.57537045783
 20
12780.73562648657
 30
0.0
 11
32423.57537045783
 21
14560.73562648657
 31
0.0
  0
LINE
  5
B6D
330
A78
100
AcDbEntity
  8
Dimension (ISO)
100
AcDbLine
 10
32423.57537045783
 20
14810.73562648657
 30
0.0
 11
32423.57537045783
 21
16219.17994503683
 31
0.0
  0
SOLID
  5
B6E
330
A78
100
AcDbEntity
  8
Dimension (ISO)
100
AcDbTrace
 10
32381.90870379117
 20
12780.73562648657
 30
0.0
 11
32465.2420371245
 21
12780.73562648657
 31
0.0
 12
32423.57537045783
 22
12530.73562648656
 32
0.0
 13
32423.57537045783
 23
12530.73562648656
 33
0.0
  0
SOLID
  5
B6F
330
A78
100
AcDbEntity
  8
Dimension (ISO)
100
AcDbTrace
 10
32381.90870379117
 20
14560.73562648657
 30
0.0
 11
32465.2420371245
 21
14560.73562648657
 31
0.0
 12
32423.57537045783
 22
14810.73562648657
 32
0.0
 13
32423.57537045783
 23
14810.73562648657
 33
0.0
  0
MTEXT
  5
B70
330
A78
100
AcDbEntity
  8
Dimension (ISO)
100
AcDbMText
 10
31981.3914910226
 20
15639.95778576171
 30
0.0
 40
350.0
 41
0.0
 71
     2
 72
     1
  1
\A1;2280
  7
Label Text (ISO)
 11
0.0000000000000001
 21
1.0
 31
0.0
 73
     1
 44
1.0
1001
ACAD
1000
MTEXTBEGIN
1070
    73
1070
     1
1070
    44
1040
1.0
1070
    74
1070
     0
1000
MTEXTEND
  0
POINT
  5
B71
330
A78
100
AcDbEntity
  8
Defpoints
 62
     0
100
AcDbPoint
 10
32934.60583371391
 20
14810.73562648657
 30
0.0
  0
POINT
  5
B72
330
A78
100
AcDbEntity
  8
Defpoints
 62
     0
100
AcDbPoint
 10
32578.97111989511
 20
12530.73562648656
 30
0.0
  0
POINT
  5
B73
330
A78
100
AcDbEntity
  8
Defpoints
 62
     0
100
AcDbPoint
 10
32423.57537045783
 20
12530.73562648656
 30
0.0
  0
ENDBLK
  5
A7A
330
A78
100
AcDbEntity
  8
0
100
AcDbBlockEnd
  0
BLOCK
  5
B76
330
B75
100
AcDbEntity
  8
0
100
AcDbBlockBegin
  2
*D15
 70
     1
 10
0.0
 20
0.0
 30
0.0
  3
*D15
  1

  0
LINE
  5
C51
330
B75
100
AcDbEntity
  8
Dimension (ISO)
100
AcDbLine
 10
34546.6058337139
 20
14830.73562648653
 30
0.0
 11
35323.08880277883
 21
14830.73562648653
 31
0.0
  0
LINE
  5
C52
330
B75
100
AcDbEntity
  8
Dimension (ISO)
100
AcDbLine
 10
35223.08880277883
 20
14580.73562648653
 30
0.0
 11
35223.08880277883
 21
12780.73562648657
 31
0.0
  0
SOLID
  5
C53
330
B75
100
AcDbEntity
  8
Dimension (ISO)
100
AcDbTrace
 10
35181.42213611217
 20
14580.73562648653
 30
0.0
 11
35264.7554694455
 21
14580.73562648653
 31
0.0
 12
35223.08880277883
 22
14830.73562648653
 32
0.0
 13
35223.08880277883
 23
14830.73562648653
 33
0.0
  0
SOLID
  5
C54
330
B75
100
AcDbEntity
  8
Dimension (ISO)
100
AcDbTrace
 10
35181.42213611217
 20
12780.73562648657
 30
0.0
 11
35264.7554694455
 21
12780.73562648657
 31
0.0
 12
35223.08880277883
 22
12530.73562648656
 32
0.0
 13
35223.08880277883
 23
12530.73562648656
 33
0.0
  0
MTEXT
  5
C55
330
B75
100
AcDbEntity
  8
Dimension (ISO)
100
AcDbMText
 10
34782.31526584625
 20
13680.73562648655
 30
0.0
 40
350.0
 41
0.0
 71
     2
 72
     1
  1
\A1;2300
  7
Label Text (ISO)
 11
0.0000000000000001
 21
1.0
 31
0.0
 73
     1
 44
1.0
1001
ACAD
1000
MTEXTBEGIN
1070
    73
1070
     1
1070
    44
1040
1.0
1070
    74
1070
     0
1000
MTEXTEND
  0
POINT
  5
C56
330
B75
100
AcDbEntity
  8
Defpoints
 62
     0
100
AcDbPoint
 10
34496.6058337139
 20
14830.73562648653
 30
0.0
  0
POINT
  5
C57
330
B75
100
AcDbEntity
  8
Defpoints
 62
     0
100
AcDbPoint
 10
35223.08880277883
 20
12530.73562648656
 30
0.0
  0
POINT
  5
C58
330
B75
100
AcDbEntity
  8
Defpoints
 62
     0
100
AcDbPoint
 10
35223.08880277883
 20
12530.73562648656
 30
0.0
  0
ENDBLK
  5
B77
330
B75
100
AcDbEntity
  8
0
100
AcDbBlockEnd
  0
BLOCK
  5
C5B
330
C5A
100
AcDbEntity
  8
0
100
AcDbBlockBegin
  2
*D16
 70
     1
 10
0.0
 20
0.0
 30
0.0
  3
*D16
  1

  0
LINE
  5
D36
330
C5A
100
AcDbEntity
  8
Dimension (ISO)
100
AcDbLine
 10
37344.60583371384
 20
16431.87340313768
 30
0.0
 11
38521.59413103221
 21
16431.87340313768
 31
0.0
  0
LINE
  5
D37
330
C5A
100
AcDbEntity
  8
Dimension (ISO)
100
AcDbLine
 10
38421.5941310322
 20
16181.87340313768
 30
0.0
 11
38421.5941310322
 21
12780.73562648657
 31
0.0
  0
SOLID
  5
D38
330
C5A
100
AcDbEntity
  8
Dimension (ISO)
100
AcDbTrace
 10
38379.92746436554
 20
16181.87340313768
 30
0.0
 11
38463.26079769887
 21
16181.87340313768
 31
0.0
 12
38421.59413103221
 22
16431.87340313768
 32
0.0
 13
38421.59413103221
 23
16431.87340313768
 33
0.0
  0
SOLID
  5
D39
330
C5A
100
AcDbEntity
  8
Dimension (ISO)
100
AcDbTrace
 10
38379.92746436554
 20
12780.73562648657
 30
0.0
 11
38463.26079769887
 21
12780.73562648657
 31
0.0
 12
38421.5941310322
 22
12530.73562648656
 32
0.0
 13
38421.5941310322
 23
12530.73562648656
 33
0.0
  0
MTEXT
  5
D3A
330
C5A
100
AcDbEntity
  8
Dimension (ISO)
100
AcDbMText
 10
37980.82059409962
 20
14481.30451481212
 30
0.0
 40
350.0
 41
0.0
 71
     2
 72
     1
  1
\A1;3901
  7
Label Text (ISO)
 11
0.0000000000000001
 21
1.0
 31
0.0
 73
     1
 44
1.0
1001
ACAD
1000
MTEXTBEGIN
1070
    73
1070
     1
1070
    44
1040
1.0
1070
    74
1070
     0
1000
MTEXTEND
  0
POINT
  5
D3B
330
C5A
100
AcDbEntity
  8
Defpoints
 62
     0
100
AcDbPoint
 10
37294.60583371384
 20
16431.87340313768
 30
0.0
  0
POINT
  5
D3C
330
C5A
100
AcDbEntity
  8
Defpoints
 62
     0
100
AcDbPoint
 10
38421.5941310322
 20
12530.73562648656
 30
0.0
  0
POINT
  5
D3D
330
C5A
100
AcDbEntity
  8
Defpoints
 62
     0
100
AcDbPoint
 10
38421.5941310322
 20
12530.73562648656
 30
0.0
  0
ENDBLK
  5
C5C
330
C5A
100
AcDbEntity
  8
0
100
AcDbBlockEnd
  0
BLOCK
  5
DA5
330
DA4
100
AcDbEntity
  8
0
100
AcDbBlockBegin
  2
88503_Street-workout-parkour-3
 70
     0
 10
0.0
 20
0.0
 30
0.0
  3
88503_Street-workout-parkour-3
  1

  0
ARC
  5
DA7
330
DA4
100
AcDbEntity
  8
Visible (ISO)
100
AcDbCircle
 10
-1537.849999999999
 20
-1879.000000000222
 30
0.0
 40
4.000000000000112
100
AcDbArc
 50
90.0
 51
180.0
  0
ARC
  5
DA8
330
DA4
100
AcDbEntity
  8
Visible (ISO)
100
AcDbCircle
 10
-1295.849999999999
 20
-1879.000000000221
 30
0.0
 40
3.99999999999997
100
AcDbArc
 50
0.0
 51
90.0
  0
ARC
  5
DA9
330
DA4
100
AcDbEntity
  8
Visible (ISO)
100
AcDbCircle
 10
-1537.849999999999
 20
-2871.000000000218
 30
0.0
 40
3.999999999999685
100
AcDbArc
 50
180.0
 51
270.0
  0
ARC
  5
DAA
330
DA4
100
AcDbEntity
  8
Visible (ISO)
100
AcDbCircle
 10
-1295.849999999999
 20
-2871.000000000218
 30
0.0
 40
4.00000000000029
100
AcDbArc
 50
270.0
 51
0.0
  0
LINE
  5
DAB
330
DA4
100
AcDbEntity
  8
Visible (ISO)
100
AcDbLine
 10
-1541.849999999998
 20
-2871.000000000218
 30
0.0
 11
-1541.849999999998
 21
-1879.000000000221
 31
0.0
  0
LINE
  5
DAC
330
DA4
100
AcDbEntity
  8
Visible (ISO)
100
AcDbLine
 10
-1295.849999999999
 20
-2875.000000000218
 30
0.0
 11
-1537.849999999999
 21
-2875.000000000218
 31
0.0
  0
LINE
  5
DAD
330
DA4
100
AcDbEntity
  8
Visible (ISO)
100
AcDbLine
 10
-1291.849999999998
 20
-1879.000000000221
 30
0.0
 11
-1291.849999999998
 21
-2871.000000000217
 31
0.0
  0
LINE
  5
DAE
330
DA4
100
AcDbEntity
  8
Visible (ISO)
100
AcDbLine
 10
-1526.849999999998
 20
-2860.000000000214
 30
0.0
 11
-1526.849999999998
 21
-1890.000000000218
 31
0.0
  0
LINE
  5
DAF
330
DA4
100
AcDbEntity
  8
Visible (ISO)
100
AcDbLine
 10
-1306.849999999998
 20
-2860.000000000214
 30
0.0
 11
-1526.849999999998
 21
-2860.000000000214
 31
0.0
  0
LINE
  5
DB0
330
DA4
100
AcDbEntity
  8
Visible (ISO)
100
AcDbLine
 10
-1526.849999999998
 20
-1890.000000000218
 30
0.0
 11
-1306.849999999998
 21
-1890.000000000218
 31
0.0
  0
LINE
  5
DB1
330
DA4
100
AcDbEntity
  8
Visible (ISO)
100
AcDbLine
 10
-1306.849999999998
 20
-1890.000000000218
 30
0.0
 11
-1306.849999999998
 21
-2860.000000000214
 31
0.0
  0
ARC
  5
DB2
330
DA4
100
AcDbEntity
  8
Visible (ISO)
100
AcDbCircle
 10
-1537.849999999999
 20
-878.9999999999608
 30
0.0
 40
4.000000000000112
100
AcDbArc
 50
90.0
 51
180.0
  0
ARC
  5
DB3
330
DA4
100
AcDbEntity
  8
Visible (ISO)
100
AcDbCircle
 10
-1295.849999999999
 20
-878.9999999999599
 30
0.0
 40
3.99999999999997
100
AcDbArc
 50
0.0
 51
90.0
  0
ARC
  5
DB4
330
DA4
100
AcDbEntity
  8
Visible (ISO)
100
AcDbCircle
 10
-1537.849999999999
 20
-1870.999999999956
 30
0.0
 40
3.999999999999685
100
AcDbArc
 50
180.0
 51
270.0
  0
ARC
  5
DB5
330
DA4
100
AcDbEntity
  8
Visible (ISO)
100
AcDbCircle
 10
-1295.849999999999
 20
-1870.999999999956
 30
0.0
 40
4.000000000000289
100
AcDbArc
 50
270.0
 51
0.0
  0
LINE
  5
DB6
330
DA4
100
AcDbEntity
  8
Visible (ISO)
100
AcDbLine
 10
-1537.849999999999
 20
-874.9999999999609
 30
0.0
 11
-1295.849999999999
 21
-874.9999999999609
 31
0.0
  0
LINE
  5
DB7
330
DA4
100
AcDbEntity
  8
Visible (ISO)
100
AcDbLine
 10
-1541.849999999998
 20
-1870.999999999956
 30
0.0
 11
-1541.849999999998
 21
-878.9999999999608
 31
0.0
  0
LINE
  5
DB8
330
DA4
100
AcDbEntity
  8
Visible (ISO)
100
AcDbLine
 10
-1295.849999999999
 20
-1874.999999999956
 30
0.0
 11
-1537.849999999999
 21
-1874.999999999956
 31
0.0
  0
LINE
  5
DB9
330
DA4
100
AcDbEntity
  8
Visible (ISO)
100
AcDbLine
 10
-1291.849999999998
 20
-878.9999999999599
 30
0.0
 11
-1291.849999999998
 21
-1870.999999999956
 31
0.0
  0
LINE
  5
DBA
330
DA4
100
AcDbEntity
  8
Visible (ISO)
100
AcDbLine
 10
-1526.849999999998
 20
-1859.999999999953
 30
0.0
 11
-1526.849999999998
 21
-889.9999999999572
 31
0.0
  0
LINE
  5
DBB
330
DA4
100
AcDbEntity
  8
Visible (ISO)
100
AcDbLine
 10
-1306.849999999998
 20
-1859.999999999953
 30
0.0
 11
-1526.849999999998
 21
-1859.999999999953
 31
0.0
  0
LINE
  5
DBC
330
DA4
100
AcDbEntity
  8
Visible (ISO)
100
AcDbLine
 10
-1526.849999999998
 20
-889.9999999999572
 30
0.0
 11
-1306.849999999998
 21
-889.9999999999572
 31
0.0
  0
LINE
  5
DBD
330
DA4
100
AcDbEntity
  8
Visible (ISO)
100
AcDbLine
 10
-1306.849999999998
 20
-889.9999999999572
 30
0.0
 11
-1306.849999999998
 21
-1859.999999999953
 31
0.0
  0
ARC
  5
DBE
330
DA4
100
AcDbEntity
  8
Visible (ISO)
100
AcDbCircle
 10
-1287.849999999991
 20
-2871.000000000217
 30
0.0
 40
4.000000000000119
100
AcDbArc
 50
180.0
 51
270.0
  0
ARC
  5
DBF
330
DA4
100
AcDbEntity
  8
Visible (ISO)
100
AcDbCircle
 10
-1287.849999999999
 20
-2629.000000000218
 30
0.0
 40
3.999999999999977
100
AcDbArc
 50
90.0
 51
180.0
  0
ARC
  5
DC0
330
DA4
100
AcDbEntity
  8
Visible (ISO)
100
AcDbCircle
 10
-295.8499999999986
 20
-2871.000000000217
 30
0.0
 40
3.999999999999693
100
AcDbArc
 50
270.0
 51
0.0
  0
ARC
  5
DC1
330
DA4
100
AcDbEntity
  8
Visible (ISO)
100
AcDbCircle
 10
-295.8499999999986
 20
-2629.000000000218
 30
0.0
 40
4.000000000000296
100
AcDbArc
 50
0.0
 51
90.0
  0
LINE
  5
DC2
330
DA4
100
AcDbEntity
  8
Visible (ISO)
100
AcDbLine
 10
-1291.849999999998
 20
-2871.000000000217
 30
0.0
 11
-1291.849999999998
 21
-2629.000000000217
 31
0.0
  0
LINE
  5
DC3
330
DA4
100
AcDbEntity
  8
Visible (ISO)
100
AcDbLine
 10
-295.8499999999986
 20
-2875.000000000217
 30
0.0
 11
-1287.849999999991
 21
-2875.000000000217
 31
0.0
  0
LINE
  5
DC4
330
DA4
100
AcDbEntity
  8
Visible (ISO)
100
AcDbLine
 10
-291.8499999999986
 20
-2629.000000000217
 30
0.0
 11
-291.8499999999986
 21
-2871.000000000217
 31
0.0
  0
LINE
  5
DC5
330
DA4
100
AcDbEntity
  8
Visible (ISO)
100
AcDbLine
 10
-1287.849999999991
 20
-2625.000000000218
 30
0.0
 11
-295.8499999999986
 21
-2625.000000000218
 31
0.0
  0
LINE
  5
DC6
330
DA4
100
AcDbEntity
  8
Visible (ISO)
100
AcDbLine
 10
-306.8499999999986
 20
-2860.000000000213
 30
0.0
 11
-1276.849999999998
 21
-2860.000000000213
 31
0.0
  0
LINE
  5
DC7
330
DA4
100
AcDbEntity
  8
Visible (ISO)
100
AcDbLine
 10
-306.8499999999986
 20
-2640.000000000215
 30
0.0
 11
-306.8499999999986
 21
-2860.000000000213
 31
0.0
  0
LINE
  5
DC8
330
DA4
100
AcDbEntity
  8
Visible (ISO)
100
AcDbLine
 10
-1276.849999999998
 20
-2860.000000000213
 30
0.0
 11
-1276.849999999998
 21
-2640.000000000215
 31
0.0
  0
LINE
  5
DC9
330
DA4
100
AcDbEntity
  8
Visible (ISO)
100
AcDbLine
 10
-1276.849999999998
 20
-2640.000000000215
 30
0.0
 11
-306.8499999999986
 21
-2640.000000000215
 31
0.0
  0
ARC
  5
DCA
330
DA4
100
AcDbEntity
  8
Visible (ISO)
100
AcDbCircle
 10
-2537.849999999995
 20
-2871.000000000215
 30
0.0
 40
4.000000000000111
100
AcDbArc
 50
180.0
 51
270.0
  0
ARC
  5
DCB
330
DA4
100
AcDbEntity
  8
Visible (ISO)
100
AcDbCircle
 10
-2537.849999999995
 20
-2629.000000000216
 30
0.0
 40
3.999999999999969
100
AcDbArc
 50
90.0
 51
180.0
  0
ARC
  5
DCC
330
DA4
100
AcDbEntity
  8
Visible (ISO)
100
AcDbCircle
 10
-1545.849999999999
 20
-2871.000000000215
 30
0.0
 40
3.999999999999685
100
AcDbArc
 50
270.0
 51
0.0
  0
ARC
  5
DCD
330
DA4
100
AcDbEntity
  8
Visible (ISO)
100
AcDbCircle
 10
-1545.849999999999
 20
-2629.000000000216
 30
0.0
 40
4.000000000000288
100
AcDbArc
 50
0.0
 51
90.0
  0
LINE
  5
DCE
330
DA4
100
AcDbEntity
  8
Visible (ISO)
100
AcDbLine
 10
-2541.849999999995
 20
-2871.000000000215
 30
0.0
 11
-2541.849999999995
 21
-2629.000000000215
 31
0.0
  0
LINE
  5
DCF
330
DA4
100
AcDbEntity
  8
Visible (ISO)
100
AcDbLine
 10
-1545.849999999999
 20
-2875.000000000215
 30
0.0
 11
-2537.849999999995
 21
-2875.000000000215
 31
0.0
  0
LINE
  5
DD0
330
DA4
100
AcDbEntity
  8
Visible (ISO)
100
AcDbLine
 10
-1541.849999999998
 20
-2629.000000000216
 30
0.0
 11
-1541.849999999998
 21
-2871.000000000215
 31
0.0
  0
LINE
  5
DD1
330
DA4
100
AcDbEntity
  8
Visible (ISO)
100
AcDbLine
 10
-2537.849999999995
 20
-2625.000000000216
 30
0.0
 11
-1545.849999999999
 21
-2625.000000000216
 31
0.0
  0
LINE
  5
DD2
330
DA4
100
AcDbEntity
  8
Visible (ISO)
100
AcDbLine
 10
-1556.849999999998
 20
-2860.000000000211
 30
0.0
 11
-2526.849999999995
 21
-2860.000000000211
 31
0.0
  0
LINE
  5
DD3
330
DA4
100
AcDbEntity
  8
Visible (ISO)
100
AcDbLine
 10
-1556.849999999998
 20
-2640.000000000214
 30
0.0
 11
-1556.849999999998
 21
-2860.000000000211
 31
0.0
  0
LINE
  5
DD4
330
DA4
100
AcDbEntity
  8
Visible (ISO)
100
AcDbLine
 10
-2526.849999999995
 20
-2860.000000000211
 30
0.0
 11
-2526.849999999995
 21
-2640.000000000213
 31
0.0
  0
LINE
  5
DD5
330
DA4
100
AcDbEntity
  8
Visible (ISO)
100
AcDbLine
 10
-2526.849999999995
 20
-2640.000000000213
 30
0.0
 11
-1556.849999999998
 21
-2640.000000000213
 31
0.0
  0
ARC
  5
DD6
330
DA4
100
AcDbEntity
  8
Visible (ISO)
100
AcDbCircle
 10
-2537.849999999995
 20
878.999999999778
 30
0.0
 40
4.000000000000125
100
AcDbArc
 50
180.0
 51
270.0
  0
ARC
  5
DD7
330
DA4
100
AcDbEntity
  8
Visible (ISO)
100
AcDbCircle
 10
-2537.849999999995
 20
1120.999999999778
 30
0.0
 40
3.999999999999983
100
AcDbArc
 50
90.0
 51
180.0
  0
ARC
  5
DD8
330
DA4
100
AcDbEntity
  8
Visible (ISO)
100
AcDbCircle
 10
-1545.849999999999
 20
878.999999999778
 30
0.0
 40
3.999999999999698
100
AcDbArc
 50
270.0
 51
0.0
  0
ARC
  5
DD9
330
DA4
100
AcDbEntity
  8
Visible (ISO)
100
AcDbCircle
 10
-1545.849999999999
 20
1120.999999999778
 30
0.0
 40
4.000000000000302
100
AcDbArc
 50
0.0
 51
90.0
  0
LINE
  5
DDA
330
DA4
100
AcDbEntity
  8
Visible (ISO)
100
AcDbLine
 10
-2541.849999999999
 20
878.999999999778
 30
0.0
 11
-2541.849999999999
 21
1120.999999999778
 31
0.0
  0
LINE
  5
DDB
330
DA4
100
AcDbEntity
  8
Visible (ISO)
100
AcDbLine
 10
-1545.849999999999
 20
874.9999999997781
 30
0.0
 11
-2537.849999999995
 21
874.9999999997772
 31
0.0
  0
LINE
  5
DDC
330
DA4
100
AcDbEntity
  8
Visible (ISO)
100
AcDbLine
 10
-2537.849999999995
 20
1124.999999999777
 30
0.0
 11
-1545.849999999999
 21
1124.999999999777
 31
0.0
  0
LINE
  5
DDD
330
DA4
100
AcDbEntity
  8
Visible (ISO)
100
AcDbLine
 10
-1556.849999999998
 20
889.9999999997817
 30
0.0
 11
-2526.849999999995
 21
889.9999999997808
 31
0.0
  0
LINE
  5
DDE
330
DA4
100
AcDbEntity
  8
Visible (ISO)
100
AcDbLine
 10
-1556.849999999998
 20
1109.99999999978
 30
0.0
 11
-1556.849999999998
 21
889.9999999997817
 31
0.0
  0
LINE
  5
DDF
330
DA4
100
AcDbEntity
  8
Visible (ISO)
100
AcDbLine
 10
-2526.849999999995
 20
889.9999999997808
 30
0.0
 11
-2526.849999999995
 21
1109.99999999978
 31
0.0
  0
LINE
  5
DE0
330
DA4
100
AcDbEntity
  8
Visible (ISO)
100
AcDbLine
 10
-2526.849999999995
 20
1109.99999999978
 30
0.0
 11
-1556.849999999998
 21
1109.99999999978
 31
0.0
  0
ARC
  5
DE1
330
DA4
100
AcDbEntity
  8
Visible (ISO)
100
AcDbCircle
 10
-1537.849999999999
 20
1121.000000000033
 30
0.0
 40
4.000000000000116
100
AcDbArc
 50
90.0
 51
180.0
  0
ARC
  5
DE2
330
DA4
100
AcDbEntity
  8
Visible (ISO)
100
AcDbCircle
 10
-1295.849999999999
 20
1121.000000000035
 30
0.0
 40
3.999999999999974
100
AcDbArc
 50
0.0
 51
90.0
  0
ARC
  5
DE3
330
DA4
100
AcDbEntity
  8
Visible (ISO)
100
AcDbCircle
 10
-1537.849999999999
 20
129.0000000000373
 30
0.0
 40
3.999999999999689
100
AcDbArc
 50
180.0
 51
270.0
  0
ARC
  5
DE4
330
DA4
100
AcDbEntity
  8
Visible (ISO)
100
AcDbCircle
 10
-1295.849999999999
 20
129.0000000000382
 30
0.0
 40
4.000000000000293
100
AcDbArc
 50
270.0
 51
0.0
  0
LINE
  5
DE5
330
DA4
100
AcDbEntity
  8
Visible (ISO)
100
AcDbLine
 10
-1537.849999999999
 20
1125.000000000035
 30
0.0
 11
-1295.849999999999
 21
1125.000000000035
 31
0.0
  0
LINE
  5
DE6
330
DA4
100
AcDbEntity
  8
Visible (ISO)
100
AcDbLine
 10
-1541.849999999998
 20
129.0000000000382
 30
0.0
 11
-1541.849999999998
 21
1121.000000000033
 31
0.0
  0
LINE
  5
DE7
330
DA4
100
AcDbEntity
  8
Visible (ISO)
100
AcDbLine
 10
-1295.849999999999
 20
125.0000000000382
 30
0.0
 11
-1537.849999999999
 21
125.0000000000373
 31
0.0
  0
LINE
  5
DE8
330
DA4
100
AcDbEntity
  8
Visible (ISO)
100
AcDbLine
 10
-1291.849999999998
 20
1121.000000000035
 30
0.0
 11
-1291.849999999998
 21
129.0000000000382
 31
0.0
  0
LINE
  5
DE9
330
DA4
100
AcDbEntity
  8
Visible (ISO)
100
AcDbLine
 10
-1526.849999999998
 20
140.0000000000409
 30
0.0
 11
-1526.849999999998
 21
1110.000000000038
 31
0.0
  0
LINE
  5
DEA
330
DA4
100
AcDbEntity
  8
Visible (ISO)
100
AcDbLine
 10
-1306.849999999998
 20
140.0000000000418
 30
0.0
 11
-1526.849999999998
 21
140.0000000000409
 31
0.0
  0
LINE
  5
DEB
330
DA4
100
AcDbEntity
  8
Visible (ISO)
100
AcDbLine
 10
-1526.849999999998
 20
1110.000000000038
 30
0.0
 11
-1306.849999999998
 21
1110.000000000038
 31
0.0
  0
LINE
  5
DEC
330
DA4
100
AcDbEntity
  8
Visible (ISO)
100
AcDbLine
 10
-1306.849999999998
 20
1110.000000000038
 30
0.0
 11
-1306.849999999998
 21
140.0000000000418
 31
0.0
  0
ARC
  5
DED
330
DA4
100
AcDbEntity
  8
Visible (ISO)
100
AcDbCircle
 10
-4287.849999999995
 20
120.9999999996425
 30
0.0
 40
4.000000000000112
100
AcDbArc
 50
90.0
 51
180.0
  0
ARC
  5
DEE
330
DA4
100
AcDbEntity
  8
Visible (ISO)
100
AcDbCircle
 10
-4045.849999999998
 20
120.9999999996435
 30
0.0
 40
3.99999999999997
100
AcDbArc
 50
0.0
 51
90.0
  0
ARC
  5
DEF
330
DA4
100
AcDbEntity
  8
Visible (ISO)
100
AcDbCircle
 10
-4287.849999999995
 20
-871.0000000003528
 30
0.0
 40
3.999999999999685
100
AcDbArc
 50
180.0
 51
270.0
  0
ARC
  5
DF0
330
DA4
100
AcDbEntity
  8
Visible (ISO)
100
AcDbCircle
 10
-4045.849999999998
 20
-871.0000000003519
 30
0.0
 40
4.00000000000029
100
AcDbArc
 50
270.0
 51
0.0
  0
LINE
  5
DF1
330
DA4
100
AcDbEntity
  8
Visible (ISO)
100
AcDbLine
 10
-4287.849999999995
 20
124.9999999996435
 30
0.0
 11
-4045.849999999998
 21
124.9999999996444
 31
0.0
  0
LINE
  5
DF2
330
DA4
100
AcDbEntity
  8
Visible (ISO)
100
AcDbLine
 10
-4291.849999999999
 20
-871.0000000003528
 30
0.0
 11
-4291.849999999999
 21
120.9999999996425
 31
0.0
  0
LINE
  5
DF3
330
DA4
100
AcDbEntity
  8
Visible (ISO)
100
AcDbLine
 10
-4045.849999999998
 20
-875.000000000352
 30
0.0
 11
-4287.849999999995
 21
-875.000000000352
 31
0.0
  0
LINE
  5
DF4
330
DA4
100
AcDbEntity
  8
Visible (ISO)
100
AcDbLine
 10
-4041.849999999999
 20
120.9999999996435
 30
0.0
 11
-4041.849999999999
 21
-871.0000000003519
 31
0.0
  0
LINE
  5
DF5
330
DA4
100
AcDbEntity
  8
Visible (ISO)
100
AcDbLine
 10
-4276.849999999995
 20
-860.0000000003502
 30
0.0
 11
-4276.849999999995
 21
109.9999999996462
 31
0.0
  0
LINE
  5
DF6
330
DA4
100
AcDbEntity
  8
Visible (ISO)
100
AcDbLine
 10
-4056.849999999998
 20
-860.0000000003491
 30
0.0
 11
-4276.849999999995
 21
-860.0000000003502
 31
0.0
  0
LINE
  5
DF7
330
DA4
100
AcDbEntity
  8
Visible (ISO)
100
AcDbLine
 10
-4276.849999999995
 20
109.9999999996462
 30
0.0
 11
-4056.849999999998
 21
109.9999999996471
 31
0.0
  0
LINE
  5
DF8
330
DA4
100
AcDbEntity
  8
Visible (ISO)
100
AcDbLine
 10
-4056.849999999998
 20
109.9999999996471
 30
0.0
 11
-4056.849999999998
 21
-860.0000000003491
 31
0.0
  0
ARC
  5
DF9
330
DA4
100
AcDbEntity
  8
Visible (ISO)
100
AcDbCircle
 10
-4287.849999999995
 20
-879.0000000003601
 30
0.0
 40
4.00000000000013
100
AcDbArc
 50
90.0
 51
180.0
  0
ARC
  5
DFA
330
DA4
100
AcDbEntity
  8
Visible (ISO)
100
AcDbCircle
 10
-4045.849999999998
 20
-879.0000000003592
 30
0.0
 40
3.999999999999987
100
AcDbArc
 50
0.0
 51
90.0
  0
ARC
  5
DFB
330
DA4
100
AcDbEntity
  8
Visible (ISO)
100
AcDbCircle
 10
-4287.849999999995
 20
-1871.000000000352
 30
0.0
 40
3.999999999999703
100
AcDbArc
 50
180.0
 51
270.0
  0
ARC
  5
DFC
330
DA4
100
AcDbEntity
  8
Visible (ISO)
100
AcDbCircle
 10
-4045.849999999998
 20
-1871.000000000351
 30
0.0
 40
4.000000000000308
100
AcDbArc
 50
270.0
 51
0.0
  0
LINE
  5
DFD
330
DA4
100
AcDbEntity
  8
Visible (ISO)
100
AcDbLine
 10
-4287.849999999995
 20
-875.0000000003593
 30
0.0
 11
-4045.849999999998
 21
-875.0000000003593
 31
0.0
  0
LINE
  5
DFE
330
DA4
100
AcDbEntity
  8
Visible (ISO)
100
AcDbLine
 10
-4291.849999999999
 20
-1871.000000000352
 30
0.0
 11
-4291.849999999999
 21
-879.0000000003601
 31
0.0
  0
LINE
  5
DFF
330
DA4
100
AcDbEntity
  8
Visible (ISO)
100
AcDbLine
 10
-4045.849999999998
 20
-1875.00000000035
 30
0.0
 11
-4287.849999999995
 21
-1875.000000000351
 31
0.0
  0
LINE
  5
E00
330
DA4
100
AcDbEntity
  8
Visible (ISO)
100
AcDbLine
 10
-4041.849999999999
 20
-879.0000000003592
 30
0.0
 11
-4041.849999999999
 21
-1871.000000000351
 31
0.0
  0
LINE
  5
E01
330
DA4
100
AcDbEntity
  8
Visible (ISO)
100
AcDbLine
 10
-4276.849999999995
 20
-1860.000000000349
 30
0.0
 11
-4276.849999999995
 21
-890.0000000003565
 31
0.0
  0
LINE
  5
E02
330
DA4
100
AcDbEntity
  8
Visible (ISO)
100
AcDbLine
 10
-4056.849999999998
 20
-1860.000000000348
 30
0.0
 11
-4276.849999999995
 21
-1860.000000000348
 31
0.0
  0
LINE
  5
E03
330
DA4
100
AcDbEntity
  8
Visible (ISO)
100
AcDbLine
 10
-4276.849999999995
 20
-890.0000000003565
 30
0.0
 11
-4056.849999999998
 21
-890.0000000003556
 31
0.0
  0
LINE
  5
E04
330
DA4
100
AcDbEntity
  8
Visible (ISO)
100
AcDbLine
 10
-4056.849999999998
 20
-890.0000000003556
 30
0.0
 11
-4056.849999999998
 21
-1860.000000000348
 31
0.0
  0
LINE
  5
E05
330
DA4
100
AcDbEntity
  8
Visible (ISO)
100
AcDbLine
 10
-1526.849999999998
 20
-2860.000000000216
 30
0.0
 11
-1306.849999999998
 21
-2860.000000000215
 31
0.0
  0
LINE
  5
E06
330
DA4
100
AcDbEntity
  8
Visible (ISO)
100
AcDbLine
 10
-1306.849999999998
 20
-2860.000000000216
 30
0.0
 11
-1306.849999999998
 21
-1890.000000000215
 31
0.0
  0
LINE
  5
E07
330
DA4
100
AcDbEntity
  8
Visible (ISO)
100
AcDbLine
 10
-1526.849999999998
 20
-1890.000000000215
 30
0.0
 11
-1526.849999999998
 21
-2860.000000000216
 31
0.0
  0
LINE
  5
E08
330
DA4
100
AcDbEntity
  8
Visible (ISO)
100
AcDbLine
 10
-1306.849999999998
 20
-1890.000000000215
 30
0.0
 11
-1526.849999999998
 21
-1890.000000000215
 31
0.0
  0
LINE
  5
E09
330
DA4
100
AcDbEntity
  8
Visible (ISO)
100
AcDbLine
 10
-1526.849999999998
 20
-1859.999999999955
 30
0.0
 11
-1306.849999999998
 21
-1859.999999999955
 31
0.0
  0
LINE
  5
E0A
330
DA4
100
AcDbEntity
  8
Visible (ISO)
100
AcDbLine
 10
-1306.849999999998
 20
-1859.999999999955
 30
0.0
 11
-1306.849999999998
 21
-889.9999999999554
 31
0.0
  0
LINE
  5
E0B
330
DA4
100
AcDbEntity
  8
Visible (ISO)
100
AcDbLine
 10
-1526.849999999998
 20
-889.9999999999554
 30
0.0
 11
-1526.849999999998
 21
-1859.999999999955
 31
0.0
  0
LINE
  5
E0C
330
DA4
100
AcDbEntity
  8
Visible (ISO)
100
AcDbLine
 10
-1306.849999999998
 20
-889.9999999999554
 30
0.0
 11
-1526.849999999998
 21
-889.9999999999554
 31
0.0
  0
LINE
  5
E0D
330
DA4
100
AcDbEntity
  8
Visible (ISO)
100
AcDbLine
 10
-306.8499999999986
 20
-2860.000000000212
 30
0.0
 11
-306.8499999999986
 21
-2640.000000000212
 31
0.0
  0
LINE
  5
E0E
330
DA4
100
AcDbEntity
  8
Visible (ISO)
100
AcDbLine
 10
-306.8499999999986
 20
-2640.000000000212
 30
0.0
 11
-1276.849999999998
 21
-2640.000000000213
 31
0.0
  0
LINE
  5
E0F
330
DA4
100
AcDbEntity
  8
Visible (ISO)
100
AcDbLine
 10
-1276.849999999998
 20
-2860.000000000212
 30
0.0
 11
-306.8499999999986
 21
-2860.000000000212
 31
0.0
  0
LINE
  5
E10
330
DA4
100
AcDbEntity
  8
Visible (ISO)
100
AcDbLine
 10
-1276.849999999998
 20
-2640.000000000213
 30
0.0
 11
-1276.849999999998
 21
-2860.000000000212
 31
0.0
  0
LINE
  5
E11
330
DA4
100
AcDbEntity
  8
Visible (ISO)
100
AcDbLine
 10
-1556.849999999998
 20
-2860.000000000213
 30
0.0
 11
-1556.849999999998
 21
-2640.000000000213
 31
0.0
  0
LINE
  5
E12
330
DA4
100
AcDbEntity
  8
Visible (ISO)
100
AcDbLine
 10
-1556.849999999998
 20
-2640.000000000213
 30
0.0
 11
-2526.849999999995
 21
-2640.000000000213
 31
0.0
  0
LINE
  5
E13
330
DA4
100
AcDbEntity
  8
Visible (ISO)
100
AcDbLine
 10
-2526.849999999995
 20
-2860.000000000212
 30
0.0
 11
-1556.849999999998
 21
-2860.000000000213
 31
0.0
  0
LINE
  5
E14
330
DA4
100
AcDbEntity
  8
Visible (ISO)
100
AcDbLine
 10
-2526.849999999995
 20
-2640.000000000213
 30
0.0
 11
-2526.849999999995
 21
-2860.000000000212
 31
0.0
  0
LINE
  5
E15
330
DA4
100
AcDbEntity
  8
Visible (ISO)
100
AcDbLine
 10
-1556.849999999998
 20
889.9999999997817
 30
0.0
 11
-1556.849999999998
 21
1109.999999999782
 31
0.0
  0
LINE
  5
E16
330
DA4
100
AcDbEntity
  8
Visible (ISO)
100
AcDbLine
 10
-1556.849999999998
 20
1109.999999999782
 30
0.0
 11
-2526.849999999995
 21
1109.99999999978
 31
0.0
  0
LINE
  5
E17
330
DA4
100
AcDbEntity
  8
Visible (ISO)
100
AcDbLine
 10
-2526.849999999995
 20
889.9999999997808
 30
0.0
 11
-1556.849999999998
 21
889.9999999997817
 31
0.0
  0
LINE
  5
E18
330
DA4
100
AcDbEntity
  8
Visible (ISO)
100
AcDbLine
 10
-2526.849999999995
 20
1109.99999999978
 30
0.0
 11
-2526.849999999995
 21
889.9999999997808
 31
0.0
  0
LINE
  5
E19
330
DA4
100
AcDbEntity
  8
Visible (ISO)
100
AcDbLine
 10
-1526.849999999998
 20
140.00000000004
 30
0.0
 11
-1306.849999999998
 21
140.00000000004
 31
0.0
  0
LINE
  5
E1A
330
DA4
100
AcDbEntity
  8
Visible (ISO)
100
AcDbLine
 10
-1306.849999999998
 20
140.00000000004
 30
0.0
 11
-1306.849999999998
 21
1110.00000000004
 31
0.0
  0
LINE
  5
E1B
330
DA4
100
AcDbEntity
  8
Visible (ISO)
100
AcDbLine
 10
-1526.849999999998
 20
1110.00000000004
 30
0.0
 11
-1526.849999999998
 21
140.0000000000391
 31
0.0
  0
LINE
  5
E1C
330
DA4
100
AcDbEntity
  8
Visible (ISO)
100
AcDbLine
 10
-1306.849999999998
 20
1110.00000000004
 30
0.0
 11
-1526.849999999998
 21
1110.00000000004
 31
0.0
  0
LINE
  5
E1D
330
DA4
100
AcDbEntity
  8
Visible (ISO)
100
AcDbLine
 10
-4276.849999999995
 20
-860.0000000003511
 30
0.0
 11
-4056.849999999998
 21
-860.0000000003502
 31
0.0
  0
LINE
  5
E1E
330
DA4
100
AcDbEntity
  8
Visible (ISO)
100
AcDbLine
 10
-4056.849999999998
 20
-860.0000000003502
 30
0.0
 11
-4056.849999999998
 21
109.9999999996489
 31
0.0
  0
LINE
  5
E1F
330
DA4
100
AcDbEntity
  8
Visible (ISO)
100
AcDbLine
 10
-4276.849999999995
 20
109.999999999648
 30
0.0
 11
-4276.849999999995
 21
-860.0000000003511
 31
0.0
  0
LINE
  5
E20
330
DA4
100
AcDbEntity
  8
Visible (ISO)
100
AcDbLine
 10
-4056.849999999998
 20
109.9999999996489
 30
0.0
 11
-4276.849999999995
 21
109.999999999648
 31
0.0
  0
LINE
  5
E21
330
DA4
100
AcDbEntity
  8
Visible (ISO)
100
AcDbLine
 10
-4276.849999999995
 20
-1860.000000000351
 30
0.0
 11
-4056.849999999998
 21
-1860.000000000351
 31
0.0
  0
LINE
  5
E22
330
DA4
100
AcDbEntity
  8
Visible (ISO)
100
AcDbLine
 10
-4056.849999999998
 20
-1860.000000000351
 30
0.0
 11
-4056.849999999998
 21
-890.0000000003547
 31
0.0
  0
LINE
  5
E23
330
DA4
100
AcDbEntity
  8
Visible (ISO)
100
AcDbLine
 10
-4276.849999999995
 20
-890.0000000003556
 30
0.0
 11
-4276.849999999995
 21
-1860.000000000351
 31
0.0
  0
LINE
  5
E24
330
DA4
100
AcDbEntity
  8
Visible (ISO)
100
AcDbLine
 10
-4056.849999999998
 20
-890.0000000003547
 30
0.0
 11
-4276.849999999995
 21
-890.0000000003556
 31
0.0
  0
LINE
  5
E25
330
DA4
100
AcDbEntity
  8
Visible (ISO)
100
AcDbLine
 10
-1400.0
 20
124.9999999999199
 30
0.0
 11
-1400.0
 21
-875.0000000000763
 31
0.0
  0
LINE
  5
E26
330
DA4
100
AcDbEntity
  8
Visible (ISO)
100
AcDbLine
 10
-1433.699999999997
 20
124.9999999999209
 30
0.0
 11
-1433.699999999997
 21
-875.0000000000763
 31
0.0
  0
LINE
  5
E27
330
DA4
100
AcDbEntity
  8
Visible (ISO)
100
AcDbLine
 10
-1291.849999999998
 20
-983.1500000000142
 30
0.0
 11
-71.84999999999854
 21
-983.1500000000142
 31
0.0
  0
LINE
  5
E28
330
DA4
100
AcDbEntity
  8
Visible (ISO)
100
AcDbLine
 10
-1291.849999999998
 20
-1016.850000000014
 30
0.0
 11
-71.84999999999854
 21
-1016.850000000014
 31
0.0
  0
LINE
  5
E29
330
DA4
100
AcDbEntity
  8
Visible (ISO)
100
AcDbLine
 10
-1291.849999999998
 20
1016.84999999992
 30
0.0
 11
-71.84999999999854
 21
1016.84999999992
 31
0.0
  0
LINE
  5
E2A
330
DA4
100
AcDbEntity
  8
Visible (ISO)
100
AcDbLine
 10
-1291.849999999998
 20
983.1499999999206
 30
0.0
 11
-71.84999999999854
 21
983.1499999999206
 31
0.0
  0
LINE
  5
E2B
330
DA4
100
AcDbEntity
  8
Visible (ISO)
100
AcDbLine
 10
-1433.699999999997
 20
1124.999999999985
 30
0.0
 11
-1433.699999999997
 21
2344.999999999985
 31
0.0
  0
LINE
  5
E2C
330
DA4
100
AcDbEntity
  8
Visible (ISO)
100
AcDbLine
 10
-1400.0
 20
1124.999999999985
 30
0.0
 11
-1400.0
 21
2344.999999999987
 31
0.0
  0
LINE
  5
E2D
330
DA4
100
AcDbEntity
  8
Visible (ISO)
100
AcDbLine
 10
-71.84999999999854
 20
-972.5000000000608
 30
0.0
 11
-71.84999999999854
 21
-962.5000000000518
 31
0.0
  0
LINE
  5
E2E
330
DA4
100
AcDbEntity
  8
Visible (ISO)
100
AcDbLine
 10
-66.85000000000582
 20
-962.5000000000518
 30
0.0
 11
-71.84999999999854
 21
-962.5000000000518
 31
0.0
  0
LINE
  5
E2F
330
DA4
100
AcDbEntity
  8
Visible (ISO)
100
AcDbLine
 10
-71.84999999999854
 20
-1037.500000000051
 30
0.0
 11
-71.84999999999854
 21
-1027.500000000061
 31
0.0
  0
LINE
  5
E30
330
DA4
100
AcDbEntity
  8
Visible (ISO)
100
AcDbLine
 10
-71.84999999999854
 20
-1037.500000000051
 30
0.0
 11
-66.85000000000582
 21
-1037.500000000051
 31
0.0
  0
LINE
  5
E31
330
DA4
100
AcDbEntity
  8
Visible (ISO)
100
AcDbLine
 10
-71.84999999999854
 20
-972.5000000000617
 30
0.0
 11
-71.84999999999854
 21
-1027.500000000061
 31
0.0
  0
LINE
  5
E32
330
DA4
100
AcDbEntity
  8
Visible (ISO)
100
AcDbLine
 10
-71.84999999999854
 20
1027.499999999945
 30
0.0
 11
-71.84999999999854
 21
1037.49999999994
 31
0.0
  0
LINE
  5
E33
330
DA4
100
AcDbEntity
  8
Visible (ISO)
100
AcDbLine
 10
-66.85000000000582
 20
1037.49999999994
 30
0.0
 11
-71.84999999999854
 21
1037.49999999994
 31
0.0
  0
LINE
  5
E34
330
DA4
100
AcDbEntity
  8
Visible (ISO)
100
AcDbLine
 10
-71.84999999999854
 20
962.499999999939
 30
0.0
 11
-71.84999999999854
 21
972.4999999999445
 31
0.0
  0
LINE
  5
E35
330
DA4
100
AcDbEntity
  8
Visible (ISO)
100
AcDbLine
 10
-71.84999999999854
 20
962.499999999939
 30
0.0
 11
-66.85000000000582
 21
962.499999999939
 31
0.0
  0
LINE
  5
E36
330
DA4
100
AcDbEntity
  8
Visible (ISO)
100
AcDbLine
 10
-71.84999999999854
 20
1027.499999999944
 30
0.0
 11
-71.84999999999854
 21
972.4999999999445
 31
0.0
  0
LINE
  5
E37
330
DA4
100
AcDbEntity
  8
Visible (ISO)
100
AcDbLine
 10
-1444.349999999926
 20
2345.0
 30
0.0
 11
-1454.349999999933
 21
2344.999999999997
 31
0.0
  0
LINE
  5
E38
330
DA4
100
AcDbEntity
  8
Visible (ISO)
100
AcDbLine
 10
-1454.34999999994
 20
2349.999999999998
 30
0.0
 11
-1454.34999999994
 21
2344.999999999997
 31
0.0
  0
LINE
  5
E39
330
DA4
100
AcDbEntity
  8
Visible (ISO)
100
AcDbLine
 10
-1379.34999999994
 20
2344.999999999997
 30
0.0
 11
-1389.349999999926
 21
2345.0
 31
0.0
  0
LINE
  5
E3A
330
DA4
100
AcDbEntity
  8
Visible (ISO)
100
AcDbLine
 10
-1379.34999999994
 20
2344.999999999997
 30
0.0
 11
-1379.34999999994
 21
2349.999999999998
 31
0.0
  0
LINE
  5
E3B
330
DA4
100
AcDbEntity
  8
Visible (ISO)
100
AcDbLine
 10
-1444.349999999926
 20
2345.0
 30
0.0
 11
-1389.349999999926
 21
2345.0
 31
0.0
  0
LINE
  5
E3C
330
DA4
100
AcDbEntity
  8
Visible (ISO)
100
AcDbLine
 10
-44.34999999999854
 20
945.0000000000136
 30
0.0
 11
-54.34999999999854
 21
945.0000000000155
 31
0.0
  0
LINE
  5
E3D
330
DA4
100
AcDbEntity
  8
Visible (ISO)
100
AcDbLine
 10
-54.34999999999854
 20
950.0000000000154
 30
0.0
 11
-54.34999999999854
 21
945.0000000000155
 31
0.0
  0
LINE
  5
E3E
330
DA4
100
AcDbEntity
  8
Visible (ISO)
100
AcDbLine
 10
20.64999999999418
 20
945.0000000000155
 30
0.0
 11
10.64999999999418
 21
945.0000000000136
 31
0.0
  0
LINE
  5
E3F
330
DA4
100
AcDbEntity
  8
Visible (ISO)
100
AcDbLine
 10
20.65000000000146
 20
945.0000000000155
 30
0.0
 11
20.65000000000146
 21
950.0000000000154
 31
0.0
  0
LINE
  5
E40
330
DA4
100
AcDbEntity
  8
Visible (ISO)
100
AcDbLine
 10
-44.34999999999854
 20
945.0000000000136
 30
0.0
 11
10.64999999999418
 21
945.0000000000136
 31
0.0
  0
LINE
  5
E41
330
DA4
100
AcDbEntity
  8
Visible (ISO)
100
AcDbLine
 10
10.64999999999418
 20
-944.9999999999864
 30
0.0
 11
20.64999999999418
 21
-944.9999999999844
 31
0.0
  0
LINE
  5
E42
330
DA4
100
AcDbEntity
  8
Visible (ISO)
100
AcDbLine
 10
20.65000000000146
 20
-949.9999999999845
 30
0.0
 11
20.65000000000146
 21
-944.9999999999844
 31
0.0
  0
LINE
  5
E43
330
DA4
100
AcDbEntity
  8
Visible (ISO)
100
AcDbLine
 10
-54.34999999999854
 20
-944.9999999999844
 30
0.0
 11
-44.34999999999854
 21
-944.9999999999864
 31
0.0
  0
LINE
  5
E44
330
DA4
100
AcDbEntity
  8
Visible (ISO)
100
AcDbLine
 10
-54.34999999999854
 20
-944.9999999999844
 30
0.0
 11
-54.34999999999854
 21
-949.9999999999845
 31
0.0
  0
LINE
  5
E45
330
DA4
100
AcDbEntity
  8
Visible (ISO)
100
AcDbLine
 10
10.64999999999418
 20
-944.9999999999864
 30
0.0
 11
-44.34999999999854
 21
-944.9999999999864
 31
0.0
  0
LINE
  5
E46
330
DA4
100
AcDbEntity
  8
Visible (ISO)
100
AcDbLine
 10
-44.34999999999854
 20
2344.999999999954
 30
0.0
 11
-54.34999999999854
 21
2344.999999999964
 31
0.0
  0
LINE
  5
E47
330
DA4
100
AcDbEntity
  8
Visible (ISO)
100
AcDbLine
 10
-54.34999999999854
 20
2349.999999999964
 30
0.0
 11
-54.34999999999854
 21
2344.999999999964
 31
0.0
  0
LINE
  5
E48
330
DA4
100
AcDbEntity
  8
Visible (ISO)
100
AcDbLine
 10
20.65000000000146
 20
2344.999999999964
 30
0.0
 11
10.65000000000145
 21
2344.999999999954
 31
0.0
  0
LINE
  5
E49
330
DA4
100
AcDbEntity
  8
Visible (ISO)
100
AcDbLine
 10
20.65000000000146
 20
2344.999999999964
 30
0.0
 11
20.65000000000146
 21
2349.999999999964
 31
0.0
  0
LINE
  5
E4A
330
DA4
100
AcDbEntity
  8
Visible (ISO)
100
AcDbLine
 10
-44.34999999999854
 20
2344.999999999954
 30
0.0
 11
10.65000000000145
 21
2344.999999999954
 31
0.0
  0
LINE
  5
E4B
330
DA4
100
AcDbEntity
  8
Visible (ISO)
100
AcDbLine
 10
10.65000000000145
 20
1054.999999999954
 30
0.0
 11
20.65000000000146
 21
1054.999999999963
 31
0.0
  0
LINE
  5
E4C
330
DA4
100
AcDbEntity
  8
Visible (ISO)
100
AcDbLine
 10
20.65000000000146
 20
1049.999999999962
 30
0.0
 11
20.65000000000146
 21
1054.999999999963
 31
0.0
  0
LINE
  5
E4D
330
DA4
100
AcDbEntity
  8
Visible (ISO)
100
AcDbLine
 10
-54.34999999999854
 20
1054.999999999963
 30
0.0
 11
-44.34999999999854
 21
1054.999999999954
 31
0.0
  0
LINE
  5
E4E
330
DA4
100
AcDbEntity
  8
Visible (ISO)
100
AcDbLine
 10
-54.34999999999854
 20
1054.999999999963
 30
0.0
 11
-54.34999999999854
 21
1049.999999999962
 31
0.0
  0
LINE
  5
E4F
330
DA4
100
AcDbEntity
  8
Visible (ISO)
100
AcDbLine
 10
10.65000000000145
 20
1054.999999999954
 30
0.0
 11
-44.34999999999854
 21
1054.999999999954
 31
0.0
  0
LINE
  5
E50
330
DA4
100
AcDbEntity
  8
Visible (ISO)
100
AcDbLine
 10
2755.649999999936
 20
2345.000000000045
 30
0.0
 11
2745.649999999943
 21
2345.000000000044
 31
0.0
  0
LINE
  5
E51
330
DA4
100
AcDbEntity
  8
Visible (ISO)
100
AcDbLine
 10
2745.649999999943
 20
2350.000000000042
 30
0.0
 11
2745.649999999943
 21
2345.000000000044
 31
0.0
  0
LINE
  5
E52
330
DA4
100
AcDbEntity
  8
Visible (ISO)
100
AcDbLine
 10
2820.649999999944
 20
2345.000000000044
 30
0.0
 11
2810.649999999943
 21
2345.000000000045
 31
0.0
  0
LINE
  5
E53
330
DA4
100
AcDbEntity
  8
Visible (ISO)
100
AcDbLine
 10
2820.649999999944
 20
2345.000000000044
 30
0.0
 11
2820.649999999944
 21
2350.000000000042
 31
0.0
  0
LINE
  5
E54
330
DA4
100
AcDbEntity
  8
Visible (ISO)
100
AcDbLine
 10
2755.649999999936
 20
2345.000000000045
 30
0.0
 11
2810.649999999943
 21
2345.000000000045
 31
0.0
  0
LINE
  5
E55
330
DA4
100
AcDbEntity
  8
Visible (ISO)
100
AcDbLine
 10
2810.649999999943
 20
1055.000000000043
 30
0.0
 11
2820.649999999944
 21
1055.000000000042
 31
0.0
  0
LINE
  5
E56
330
DA4
100
AcDbEntity
  8
Visible (ISO)
100
AcDbLine
 10
2820.649999999944
 20
1050.000000000043
 30
0.0
 11
2820.649999999944
 21
1055.000000000042
 31
0.0
  0
LINE
  5
E57
330
DA4
100
AcDbEntity
  8
Visible (ISO)
100
AcDbLine
 10
2745.649999999943
 20
1055.000000000042
 30
0.0
 11
2755.649999999936
 21
1055.000000000043
 31
0.0
  0
LINE
  5
E58
330
DA4
100
AcDbEntity
  8
Visible (ISO)
100
AcDbLine
 10
2745.649999999943
 20
1055.000000000042
 30
0.0
 11
2745.649999999943
 21
1050.000000000043
 31
0.0
  0
LINE
  5
E59
330
DA4
100
AcDbEntity
  8
Visible (ISO)
100
AcDbLine
 10
2810.649999999943
 20
1055.000000000045
 30
0.0
 11
2755.649999999936
 21
1055.000000000045
 31
0.0
  0
ARC
  5
E5A
330
DA4
100
AcDbEntity
  8
Visible (ISO)
100
AcDbCircle
 10
-63.84999999999855
 20
-1046.999999999988
 30
0.0
 40
3.000000000000007
100
AcDbArc
 50
180.0
 51
270.0
  0
ARC
  5
E5B
330
DA4
100
AcDbEntity
  8
Visible (ISO)
100
AcDbCircle
 10
-63.84999999999855
 20
-952.9999999999891
 30
0.0
 40
3.000000000000007
100
AcDbArc
 50
90.0
 51
180.0
  0
LINE
  5
E5C
330
DA4
100
AcDbEntity
  8
Visible (ISO)
100
AcDbLine
 10
-66.84999999999854
 20
-952.9999999999891
 30
0.0
 11
-66.84999999999854
 21
-1046.999999999988
 31
0.0
  0
ARC
  5
E5D
330
DA4
100
AcDbEntity
  8
Visible (ISO)
100
AcDbCircle
 10
30.15000000000146
 20
-1046.999999999988
 30
0.0
 40
2.999999999999989
100
AcDbArc
 50
270.0
 51
0.0
  0
ARC
  5
E5E
330
DA4
100
AcDbEntity
  8
Visible (ISO)
100
AcDbCircle
 10
30.15000000000146
 20
-952.9999999999891
 30
0.0
 40
3.000000000000007
100
AcDbArc
 50
0.0
 51
90.0
  0
LINE
  5
E5F
330
DA4
100
AcDbEntity
  8
Visible (ISO)
100
AcDbLine
 10
30.15000000000146
 20
-949.9999999999891
 30
0.0
 11
-63.84999999999855
 21
-949.9999999999891
 31
0.0
  0
LINE
  5
E60
330
DA4
100
AcDbEntity
  8
Visible (ISO)
100
AcDbLine
 10
33.15000000000146
 20
-1046.999999999988
 30
0.0
 11
33.15000000000146
 21
-952.9999999999891
 31
0.0
  0
LINE
  5
E61
330
DA4
100
AcDbEntity
  8
Visible (ISO)
100
AcDbLine
 10
-63.84999999999855
 20
-1049.999999999989
 30
0.0
 11
30.15000000000146
 21
-1049.999999999989
 31
0.0
  0
ARC
  5
E62
330
DA4
100
AcDbEntity
  8
Visible (ISO)
100
AcDbCircle
 10
-63.84999999999855
 20
953.0000000000573
 30
0.0
 40
3.000000000000006
100
AcDbArc
 50
180.0
 51
270.0
  0
ARC
  5
E63
330
DA4
100
AcDbEntity
  8
Visible (ISO)
100
AcDbCircle
 10
-63.84999999999855
 20
1047.000000000057
 30
0.0
 40
3.000000000000006
100
AcDbArc
 50
90.0
 51
180.0
  0
LINE
  5
E64
330
DA4
100
AcDbEntity
  8
Visible (ISO)
100
AcDbLine
 10
-66.84999999999854
 20
1047.000000000057
 30
0.0
 11
-66.84999999999854
 21
953.0000000000573
 31
0.0
  0
ARC
  5
E65
330
DA4
100
AcDbEntity
  8
Visible (ISO)
100
AcDbCircle
 10
30.15000000000146
 20
953.0000000000573
 30
0.0
 40
2.999999999999988
100
AcDbArc
 50
270.0
 51
0.0
  0
ARC
  5
E66
330
DA4
100
AcDbEntity
  8
Visible (ISO)
100
AcDbCircle
 10
30.15000000000146
 20
1047.000000000057
 30
0.0
 40
3.000000000000006
100
AcDbArc
 50
0.0
 51
90.0
  0
LINE
  5
E67
330
DA4
100
AcDbEntity
  8
Visible (ISO)
100
AcDbLine
 10
30.15000000000146
 20
1050.000000000057
 30
0.0
 11
-63.84999999999855
 21
1050.000000000057
 31
0.0
  0
LINE
  5
E68
330
DA4
100
AcDbEntity
  8
Visible (ISO)
100
AcDbLine
 10
33.15000000000146
 20
953.0000000000573
 30
0.0
 11
33.15000000000146
 21
1047.000000000057
 31
0.0
  0
LINE
  5
E69
330
DA4
100
AcDbEntity
  8
Visible (ISO)
100
AcDbLine
 10
-63.84999999999855
 20
950.0000000000573
 30
0.0
 11
30.15000000000146
 21
950.0000000000573
 31
0.0
  0
ARC
  5
E6A
330
DA4
100
AcDbEntity
  8
Visible (ISO)
100
AcDbCircle
 10
-1463.850000000049
 20
2353.000000000033
 30
0.0
 40
3.000000000000005
100
AcDbArc
 50
180.0
 51
270.0
  0
ARC
  5
E6B
330
DA4
100
AcDbEntity
  8
Visible (ISO)
100
AcDbCircle
 10
-1463.850000000049
 20
2447.000000000035
 30
0.0
 40
3.000000000000006
100
AcDbArc
 50
90.0
 51
180.0
  0
LINE
  5
E6C
330
DA4
100
AcDbEntity
  8
Visible (ISO)
100
AcDbLine
 10
-1466.850000000049
 20
2447.000000000035
 30
0.0
 11
-1466.850000000049
 21
2353.000000000033
 31
0.0
  0
ARC
  5
E6D
330
DA4
100
AcDbEntity
  8
Visible (ISO)
100
AcDbCircle
 10
-1369.850000000057
 20
2353.000000000033
 30
0.0
 40
2.999999999999988
100
AcDbArc
 50
270.0
 51
0.0
  0
ARC
  5
E6E
330
DA4
100
AcDbEntity
  8
Visible (ISO)
100
AcDbCircle
 10
-1369.850000000057
 20
2447.000000000035
 30
0.0
 40
3.000000000000005
100
AcDbArc
 50
0.0
 51
90.0
  0
LINE
  5
E6F
330
DA4
100
AcDbEntity
  8
Visible (ISO)
100
AcDbLine
 10
-1369.850000000057
 20
2450.000000000035
 30
0.0
 11
-1463.850000000049
 21
2450.000000000035
 31
0.0
  0
LINE
  5
E70
330
DA4
100
AcDbEntity
  8
Visible (ISO)
100
AcDbLine
 10
-1366.850000000057
 20
2353.000000000033
 30
0.0
 11
-1366.850000000057
 21
2447.000000000035
 31
0.0
  0
LINE
  5
E71
330
DA4
100
AcDbEntity
  8
Visible (ISO)
100
AcDbLine
 10
-1463.850000000049
 20
2350.000000000033
 30
0.0
 11
-1369.850000000057
 21
2350.000000000033
 31
0.0
  0
ARC
  5
E72
330
DA4
100
AcDbEntity
  8
Visible (ISO)
100
AcDbCircle
 10
30.14999999995052
 20
2447.000000000056
 30
0.0
 40
3.000000000000005
100
AcDbArc
 50
0.0
 51
90.0
  0
ARC
  5
E73
330
DA4
100
AcDbEntity
  8
Visible (ISO)
100
AcDbCircle
 10
30.14999999995052
 20
2353.000000000057
 30
0.0
 40
3.000000000000005
100
AcDbArc
 50
270.0
 51
0.0
  0
LINE
  5
E74
330
DA4
100
AcDbEntity
  8
Visible (ISO)
100
AcDbLine
 10
33.14999999995052
 20
2353.000000000057
 30
0.0
 11
33.14999999995052
 21
2447.000000000056
 31
0.0
  0
ARC
  5
E75
330
DA4
100
AcDbEntity
  8
Visible (ISO)
100
AcDbCircle
 10
-63.8500000000422
 20
2447.000000000056
 30
0.0
 40
2.999999999999987
100
AcDbArc
 50
90.0
 51
180.0
  0
ARC
  5
E76
330
DA4
100
AcDbEntity
  8
Visible (ISO)
100
AcDbCircle
 10
-63.8500000000422
 20
2353.000000000057
 30
0.0
 40
3.000000000000005
100
AcDbArc
 50
180.0
 51
270.0
  0
LINE
  5
E77
330
DA4
100
AcDbEntity
  8
Visible (ISO)
100
AcDbLine
 10
-63.8500000000422
 20
2350.000000000056
 30
0.0
 11
30.14999999995052
 21
2350.000000000056
 31
0.0
  0
LINE
  5
E78
330
DA4
100
AcDbEntity
  8
Visible (ISO)
100
AcDbLine
 10
-66.8500000000422
 20
2447.000000000056
 30
0.0
 11
-66.8500000000422
 21
2353.000000000057
 31
0.0
  0
LINE
  5
E79
330
DA4
100
AcDbEntity
  8
Visible (ISO)
100
AcDbLine
 10
30.14999999995052
 20
2450.000000000057
 30
0.0
 11
-63.8500000000422
 21
2450.000000000057
 31
0.0
  0
ARC
  5
E7A
330
DA4
100
AcDbEntity
  8
Visible (ISO)
100
AcDbCircle
 10
2830.149999999936
 20
2353.000000000042
 30
0.0
 40
3.000000000000005
100
AcDbArc
 50
270.0
 51
0.0
  0
ARC
  5
E7B
330
DA4
100
AcDbEntity
  8
Visible (ISO)
100
AcDbCircle
 10
2736.149999999943
 20
2353.000000000042
 30
0.0
 40
3.000000000000006
100
AcDbArc
 50
180.0
 51
270.0
  0
LINE
  5
E7C
330
DA4
100
AcDbEntity
  8
Visible (ISO)
100
AcDbLine
 10
2736.149999999943
 20
2350.000000000042
 30
0.0
 11
2830.149999999936
 21
2350.000000000042
 31
0.0
  0
ARC
  5
E7D
330
DA4
100
AcDbEntity
  8
Visible (ISO)
100
AcDbCircle
 10
2830.149999999936
 20
2447.000000000042
 30
0.0
 40
2.999999999999988
100
AcDbArc
 50
0.0
 51
90.0
  0
ARC
  5
E7E
330
DA4
100
AcDbEntity
  8
Visible (ISO)
100
AcDbCircle
 10
2736.149999999943
 20
2447.000000000042
 30
0.0
 40
3.000000000000005
100
AcDbArc
 50
90.0
 51
180.0
  0
LINE
  5
E7F
330
DA4
100
AcDbEntity
  8
Visible (ISO)
100
AcDbLine
 10
2733.149999999943
 20
2447.000000000042
 30
0.0
 11
2733.149999999943
 21
2353.000000000042
 31
0.0
  0
LINE
  5
E80
330
DA4
100
AcDbEntity
  8
Visible (ISO)
100
AcDbLine
 10
2830.149999999936
 20
2450.000000000042
 30
0.0
 11
2736.149999999943
 21
2450.000000000042
 31
0.0
  0
LINE
  5
E81
330
DA4
100
AcDbEntity
  8
Visible (ISO)
100
AcDbLine
 10
2833.149999999936
 20
2353.000000000042
 30
0.0
 11
2833.149999999936
 21
2447.000000000042
 31
0.0
  0
LINE
  5
E82
330
DA4
100
AcDbEntity
  8
Visible (ISO)
100
AcDbLine
 10
0.0
 20
945.0000000000009
 30
0.0
 11
0.0
 21
-945.0
 31
0.0
  0
LINE
  5
E83
330
DA4
100
AcDbEntity
  8
Visible (ISO)
100
AcDbLine
 10
-33.69999999999709
 20
945.0
 30
0.0
 11
-33.69999999999709
 21
-945.0
 31
0.0
  0
LINE
  5
E84
330
DA4
100
AcDbEntity
  8
Visible (ISO)
100
AcDbLine
 10
0.0
 20
2344.99999999994
 30
0.0
 11
0.0
 21
1054.999999999939
 31
0.0
  0
LINE
  5
E85
330
DA4
100
AcDbEntity
  8
Visible (ISO)
100
AcDbLine
 10
-33.69999999999709
 20
2344.99999999994
 30
0.0
 11
-33.69999999999709
 21
1054.999999999939
 31
0.0
  0
LINE
  5
E86
330
DA4
100
AcDbEntity
  8
Visible (ISO)
100
AcDbLine
 10
2799.999999999942
 20
2345.000000000033
 30
0.0
 11
2799.999999999942
 21
1055.000000000031
 31
0.0
  0
LINE
  5
E87
330
DA4
100
AcDbEntity
  8
Visible (ISO)
100
AcDbLine
 10
2766.299999999945
 20
2345.000000000033
 30
0.0
 11
2766.299999999945
 21
1055.000000000031
 31
0.0
  0
LINE
  5
E88
330
DA4
100
AcDbEntity
  8
Visible (ISO)
100
AcDbLine
 10
-1361.850000000057
 20
2440.000000000037
 30
0.0
 11
-1361.850000000057
 21
2430.000000000041
 31
0.0
  0
LINE
  5
E89
330
DA4
100
AcDbEntity
  8
Visible (ISO)
100
AcDbLine
 10
-1361.850000000057
 20
2370.000000000042
 30
0.0
 11
-1361.850000000057
 21
2360.000000000038
 31
0.0
  0
LINE
  5
E8A
330
DA4
100
AcDbEntity
  8
Visible (ISO)
100
AcDbLine
 10
-1366.850000000049
 20
2360.000000000038
 30
0.0
 11
-1361.850000000057
 21
2360.000000000038
 31
0.0
  0
LINE
  5
E8B
330
DA4
100
AcDbEntity
  8
Visible (ISO)
100
AcDbLine
 10
-1361.850000000057
 20
2440.000000000037
 30
0.0
 11
-1366.850000000049
 21
2440.000000000037
 31
0.0
  0
LINE
  5
E8C
330
DA4
100
AcDbEntity
  8
Visible (ISO)
100
AcDbLine
 10
-1361.850000000057
 20
2370.00000000004
 30
0.0
 11
-1361.850000000057
 21
2430.000000000041
 31
0.0
  0
LINE
  5
E8D
330
DA4
100
AcDbEntity
  8
Visible (ISO)
100
AcDbLine
 10
-71.85000000004947
 20
2360.000000000036
 30
0.0
 11
-71.85000000004947
 21
2370.00000000004
 31
0.0
  0
LINE
  5
E8E
330
DA4
100
AcDbEntity
  8
Visible (ISO)
100
AcDbLine
 10
-71.85000000004947
 20
2430.000000000038
 30
0.0
 11
-71.85000000004947
 21
2440.000000000035
 31
0.0
  0
LINE
  5
E8F
330
DA4
100
AcDbEntity
  8
Visible (ISO)
100
AcDbLine
 10
-66.85000000004947
 20
2440.000000000035
 30
0.0
 11
-71.85000000004947
 21
2440.000000000035
 31
0.0
  0
LINE
  5
E90
330
DA4
100
AcDbEntity
  8
Visible (ISO)
100
AcDbLine
 10
-71.85000000004947
 20
2360.000000000036
 30
0.0
 11
-66.85000000004947
 21
2360.000000000036
 31
0.0
  0
LINE
  5
E91
330
DA4
100
AcDbEntity
  8
Visible (ISO)
100
AcDbLine
 10
-71.85000000004947
 20
2430.000000000038
 30
0.0
 11
-71.85000000004947
 21
2370.00000000004
 31
0.0
  0
LINE
  5
E92
330
DA4
100
AcDbEntity
  8
Visible (ISO)
100
AcDbLine
 10
-71.85000000004947
 20
2383.150000000027
 30
0.0
 11
-1361.850000000057
 21
2383.150000000027
 31
0.0
  0
LINE
  5
E93
330
DA4
100
AcDbEntity
  8
Visible (ISO)
100
AcDbLine
 10
-71.85000000004947
 20
2416.850000000026
 30
0.0
 11
-1361.850000000057
 21
2416.850000000026
 31
0.0
  0
LINE
  5
E94
330
DA4
100
AcDbEntity
  8
Visible (ISO)
100
AcDbLine
 10
2728.149999999951
 20
981.0000000000355
 30
0.0
 11
38.14999999990687
 21
981.0000000000382
 31
0.0
  0
LINE
  5
E95
330
DA4
100
AcDbEntity
  8
Visible (ISO)
100
AcDbLine
 10
2728.149999999951
 20
1019.000000000035
 30
0.0
 11
2486.999999999942
 21
1019.000000000035
 31
0.0
  0
LINE
  5
E96
330
DA4
100
AcDbEntity
  8
Visible (ISO)
100
AcDbLine
 10
2453.299999999945
 20
1019.000000000035
 30
0.0
 11
2206.999999999942
 21
1019.000000000036
 31
0.0
  0
LINE
  5
E97
330
DA4
100
AcDbEntity
  8
Visible (ISO)
100
AcDbLine
 10
2173.299999999945
 20
1019.000000000036
 30
0.0
 11
1926.999999999942
 21
1019.000000000036
 31
0.0
  0
LINE
  5
E98
330
DA4
100
AcDbEntity
  8
Visible (ISO)
100
AcDbLine
 10
1893.299999999945
 20
1019.000000000036
 30
0.0
 11
1646.999999999942
 21
1019.000000000036
 31
0.0
  0
LINE
  5
E99
330
DA4
100
AcDbEntity
  8
Visible (ISO)
100
AcDbLine
 10
1613.299999999945
 20
1019.000000000036
 30
0.0
 11
1366.999999999942
 21
1019.000000000037
 31
0.0
  0
LINE
  5
E9A
330
DA4
100
AcDbEntity
  8
Visible (ISO)
100
AcDbLine
 10
1333.299999999945
 20
1019.000000000037
 30
0.0
 11
1086.999999999942
 21
1019.000000000037
 31
0.0
  0
LINE
  5
E9B
330
DA4
100
AcDbEntity
  8
Visible (ISO)
100
AcDbLine
 10
1053.299999999945
 20
1019.000000000037
 30
0.0
 11
38.14999999990687
 21
1019.000000000038
 31
0.0
  0
LINE
  5
E9C
330
DA4
100
AcDbEntity
  8
Visible (ISO)
100
AcDbLine
 10
33.1499999999287
 20
962.50000000005
 30
0.0
 11
38.14999999992142
 21
962.50000000005
 31
0.0
  0
LINE
  5
E9D
330
DA4
100
AcDbEntity
  8
Visible (ISO)
100
AcDbLine
 10
38.14999999992142
 20
972.5000000000518
 30
0.0
 11
38.14999999992142
 21
962.50000000005
 31
0.0
  0
LINE
  5
E9E
330
DA4
100
AcDbEntity
  8
Visible (ISO)
100
AcDbLine
 10
38.14999999992142
 20
1037.500000000049
 30
0.0
 11
38.14999999992142
 21
1027.500000000052
 31
0.0
  0
LINE
  5
E9F
330
DA4
100
AcDbEntity
  8
Visible (ISO)
100
AcDbLine
 10
38.14999999992142
 20
1037.500000000049
 30
0.0
 11
33.1499999999287
 21
1037.500000000049
 31
0.0
  0
LINE
  5
EA0
330
DA4
100
AcDbEntity
  8
Visible (ISO)
100
AcDbLine
 10
38.14999999992142
 20
972.5000000000518
 30
0.0
 11
38.14999999992142
 21
1027.500000000052
 31
0.0
  0
LINE
  5
EA1
330
DA4
100
AcDbEntity
  8
Visible (ISO)
100
AcDbLine
 10
2728.149999999943
 20
1027.500000000048
 30
0.0
 11
2728.149999999943
 21
1037.500000000045
 31
0.0
  0
LINE
  5
EA2
330
DA4
100
AcDbEntity
  8
Visible (ISO)
100
AcDbLine
 10
2733.149999999936
 20
1037.500000000045
 30
0.0
 11
2728.149999999943
 21
1037.500000000045
 31
0.0
  0
LINE
  5
EA3
330
DA4
100
AcDbEntity
  8
Visible (ISO)
100
AcDbLine
 10
2728.149999999943
 20
962.5000000000463
 30
0.0
 11
2728.149999999943
 21
972.5000000000482
 31
0.0
  0
LINE
  5
EA4
330
DA4
100
AcDbEntity
  8
Visible (ISO)
100
AcDbLine
 10
2728.149999999943
 20
962.5000000000463
 30
0.0
 11
2733.149999999936
 21
962.5000000000463
 31
0.0
  0
LINE
  5
EA5
330
DA4
100
AcDbEntity
  8
Visible (ISO)
100
AcDbLine
 10
2728.149999999943
 20
1027.500000000048
 30
0.0
 11
2728.149999999943
 21
972.5000000000482
 31
0.0
  0
LINE
  5
EA6
330
DA4
100
AcDbEntity
  8
Visible (ISO)
100
AcDbLine
 10
38.14999999994325
 20
2372.500000000038
 30
0.0
 11
38.14999999994325
 21
2362.500000000034
 31
0.0
  0
LINE
  5
EA7
330
DA4
100
AcDbEntity
  8
Visible (ISO)
100
AcDbLine
 10
33.14999999995052
 20
2362.500000000034
 30
0.0
 11
38.14999999994325
 21
2362.500000000034
 31
0.0
  0
LINE
  5
EA8
330
DA4
100
AcDbEntity
  8
Visible (ISO)
100
AcDbLine
 10
38.14999999994325
 20
2437.500000000033
 30
0.0
 11
38.14999999994325
 21
2427.500000000037
 31
0.0
  0
LINE
  5
EA9
330
DA4
100
AcDbEntity
  8
Visible (ISO)
100
AcDbLine
 10
38.14999999994325
 20
2437.500000000033
 30
0.0
 11
33.14999999995052
 21
2437.500000000033
 31
0.0
  0
LINE
  5
EAA
330
DA4
100
AcDbEntity
  8
Visible (ISO)
100
AcDbLine
 10
38.14999999994325
 20
2372.500000000038
 30
0.0
 11
38.14999999994325
 21
2427.500000000037
 31
0.0
  0
LINE
  5
EAB
330
DA4
100
AcDbEntity
  8
Visible (ISO)
100
AcDbLine
 10
2728.149999999943
 20
2427.500000000033
 30
0.0
 11
2728.149999999943
 21
2437.500000000029
 31
0.0
  0
LINE
  5
EAC
330
DA4
100
AcDbEntity
  8
Visible (ISO)
100
AcDbLine
 10
2733.149999999936
 20
2437.500000000029
 30
0.0
 11
2728.149999999943
 21
2437.500000000029
 31
0.0
  0
LINE
  5
EAD
330
DA4
100
AcDbEntity
  8
Visible (ISO)
100
AcDbLine
 10
2728.149999999943
 20
2362.500000000031
 30
0.0
 11
2728.149999999943
 21
2372.500000000035
 31
0.0
  0
LINE
  5
EAE
330
DA4
100
AcDbEntity
  8
Visible (ISO)
100
AcDbLine
 10
2728.149999999943
 20
2362.500000000031
 30
0.0
 11
2733.149999999936
 21
2362.500000000031
 31
0.0
  0
LINE
  5
EAF
330
DA4
100
AcDbEntity
  8
Visible (ISO)
100
AcDbLine
 10
2728.149999999943
 20
2427.500000000031
 30
0.0
 11
2728.149999999943
 21
2372.500000000035
 31
0.0
  0
LINE
  5
EB0
330
DA4
100
AcDbEntity
  8
Visible (ISO)
100
AcDbLine
 10
2486.999999999935
 20
1019.000000000035
 30
0.0
 11
2453.299999999945
 21
1019.000000000035
 31
0.0
  0
LINE
  5
EB1
330
DA4
100
AcDbEntity
  8
Visible (ISO)
100
AcDbLine
 10
2453.299999999945
 20
2381.00000000004
 30
0.0
 11
2486.999999999935
 21
2381.00000000004
 31
0.0
  0
LINE
  5
EB2
330
DA4
100
AcDbEntity
  8
Visible (ISO)
100
AcDbLine
 10
2453.299999999945
 20
1019.000000000035
 30
0.0
 11
2453.299999999945
 21
2381.000000000042
 31
0.0
  0
LINE
  5
EB3
330
DA4
100
AcDbEntity
  8
Visible (ISO)
100
AcDbLine
 10
2486.999999999935
 20
1019.000000000035
 30
0.0
 11
2486.999999999935
 21
2381.000000000042
 31
0.0
  0
LINE
  5
EB4
330
DA4
100
AcDbEntity
  8
Visible (ISO)
100
AcDbLine
 10
2206.999999999942
 20
1019.000000000035
 30
0.0
 11
2173.299999999945
 21
1019.000000000035
 31
0.0
  0
LINE
  5
EB5
330
DA4
100
AcDbEntity
  8
Visible (ISO)
100
AcDbLine
 10
2173.299999999945
 20
2381.00000000004
 30
0.0
 11
2206.999999999942
 21
2381.00000000004
 31
0.0
  0
LINE
  5
EB6
330
DA4
100
AcDbEntity
  8
Visible (ISO)
100
AcDbLine
 10
2173.299999999945
 20
1019.000000000035
 30
0.0
 11
2173.299999999945
 21
2381.000000000042
 31
0.0
  0
LINE
  5
EB7
330
DA4
100
AcDbEntity
  8
Visible (ISO)
100
AcDbLine
 10
2206.999999999942
 20
1019.000000000035
 30
0.0
 11
2206.999999999942
 21
2381.000000000042
 31
0.0
  0
LINE
  5
EB8
330
DA4
100
AcDbEntity
  8
Visible (ISO)
100
AcDbLine
 10
1926.999999999942
 20
1019.000000000035
 30
0.0
 11
1893.299999999945
 21
1019.000000000035
 31
0.0
  0
LINE
  5
EB9
330
DA4
100
AcDbEntity
  8
Visible (ISO)
100
AcDbLine
 10
1893.299999999945
 20
2381.00000000004
 30
0.0
 11
1926.999999999942
 21
2381.00000000004
 31
0.0
  0
LINE
  5
EBA
330
DA4
100
AcDbEntity
  8
Visible (ISO)
100
AcDbLine
 10
1893.299999999945
 20
1019.000000000035
 30
0.0
 11
1893.299999999945
 21
2381.000000000042
 31
0.0
  0
LINE
  5
EBB
330
DA4
100
AcDbEntity
  8
Visible (ISO)
100
AcDbLine
 10
1926.999999999942
 20
1019.000000000035
 30
0.0
 11
1926.999999999942
 21
2381.000000000042
 31
0.0
  0
LINE
  5
EBC
330
DA4
100
AcDbEntity
  8
Visible (ISO)
100
AcDbLine
 10
1646.999999999942
 20
1019.000000000035
 30
0.0
 11
1613.299999999945
 21
1019.000000000035
 31
0.0
  0
LINE
  5
EBD
330
DA4
100
AcDbEntity
  8
Visible (ISO)
100
AcDbLine
 10
1613.299999999945
 20
2381.00000000004
 30
0.0
 11
1646.999999999942
 21
2381.00000000004
 31
0.0
  0
LINE
  5
EBE
330
DA4
100
AcDbEntity
  8
Visible (ISO)
100
AcDbLine
 10
1613.299999999945
 20
1019.000000000035
 30
0.0
 11
1613.299999999945
 21
2381.000000000042
 31
0.0
  0
LINE
  5
EBF
330
DA4
100
AcDbEntity
  8
Visible (ISO)
100
AcDbLine
 10
1646.999999999942
 20
1019.000000000035
 30
0.0
 11
1646.999999999942
 21
2381.000000000042
 31
0.0
  0
LINE
  5
EC0
330
DA4
100
AcDbEntity
  8
Visible (ISO)
100
AcDbLine
 10
1366.999999999949
 20
1019.000000000037
 30
0.0
 11
1333.299999999952
 21
1019.000000000037
 31
0.0
  0
LINE
  5
EC1
330
DA4
100
AcDbEntity
  8
Visible (ISO)
100
AcDbLine
 10
1333.299999999952
 20
2381.000000000042
 30
0.0
 11
1366.999999999949
 21
2381.000000000042
 31
0.0
  0
LINE
  5
EC2
330
DA4
100
AcDbEntity
  8
Visible (ISO)
100
AcDbLine
 10
1333.299999999952
 20
1019.000000000036
 30
0.0
 11
1333.299999999952
 21
2381.000000000042
 31
0.0
  0
LINE
  5
EC3
330
DA4
100
AcDbEntity
  8
Visible (ISO)
100
AcDbLine
 10
1366.999999999949
 20
1019.000000000037
 30
0.0
 11
1366.999999999949
 21
2381.000000000042
 31
0.0
  0
LINE
  5
EC4
330
DA4
100
AcDbEntity
  8
Visible (ISO)
100
AcDbLine
 10
1086.999999999949
 20
1019.000000000037
 30
0.0
 11
1053.299999999952
 21
1019.000000000037
 31
0.0
  0
LINE
  5
EC5
330
DA4
100
AcDbEntity
  8
Visible (ISO)
100
AcDbLine
 10
1053.299999999952
 20
2381.000000000042
 30
0.0
 11
1086.999999999949
 21
2381.000000000042
 31
0.0
  0
LINE
  5
EC6
330
DA4
100
AcDbEntity
  8
Visible (ISO)
100
AcDbLine
 10
1053.299999999952
 20
1019.000000000037
 30
0.0
 11
1053.299999999952
 21
2381.000000000042
 31
0.0
  0
LINE
  5
EC7
330
DA4
100
AcDbEntity
  8
Visible (ISO)
100
AcDbLine
 10
1086.999999999949
 20
1019.000000000037
 30
0.0
 11
1086.999999999949
 21
2381.000000000042
 31
0.0
  0
LINE
  5
EC8
330
DA4
100
AcDbEntity
  8
Visible (ISO)
100
AcDbLine
 10
2728.149999999936
 20
2381.000000000022
 30
0.0
 11
2486.999999999935
 21
2381.000000000022
 31
0.0
  0
LINE
  5
EC9
330
DA4
100
AcDbEntity
  8
Visible (ISO)
100
AcDbLine
 10
2453.299999999938
 20
2381.000000000022
 30
0.0
 11
2206.999999999935
 21
2381.000000000022
 31
0.0
  0
LINE
  5
ECA
330
DA4
100
AcDbEntity
  8
Visible (ISO)
100
AcDbLine
 10
2173.299999999938
 20
2381.000000000022
 30
0.0
 11
1926.999999999942
 21
2381.000000000022
 31
0.0
  0
LINE
  5
ECB
330
DA4
100
AcDbEntity
  8
Visible (ISO)
100
AcDbLine
 10
1893.299999999937
 20
2381.000000000022
 30
0.0
 11
1646.999999999942
 21
2381.000000000022
 31
0.0
  0
LINE
  5
ECC
330
DA4
100
AcDbEntity
  8
Visible (ISO)
100
AcDbLine
 10
1613.299999999937
 20
2381.000000000022
 30
0.0
 11
1366.999999999942
 21
2381.000000000022
 31
0.0
  0
LINE
  5
ECD
330
DA4
100
AcDbEntity
  8
Visible (ISO)
100
AcDbLine
 10
1333.299999999945
 20
2381.000000000022
 30
0.0
 11
1086.999999999949
 21
2381.000000000022
 31
0.0
  0
LINE
  5
ECE
330
DA4
100
AcDbEntity
  8
Visible (ISO)
100
AcDbLine
 10
1053.299999999945
 20
2381.000000000024
 30
0.0
 11
38.14999999995052
 21
2381.000000000024
 31
0.0
  0
LINE
  5
ECF
330
DA4
100
AcDbEntity
  8
Visible (ISO)
100
AcDbLine
 10
2728.149999999936
 20
2419.00000000002
 30
0.0
 11
38.14999999995052
 21
2419.000000000024
 31
0.0
  0
SPLINE
  5
ED0
330
DA4
100
AcDbEntity
  8
Visible (ISO)
100
AcDbSpline
210
0.0
220
0.0
230
1.0
 70
     8
 71
     3
 72
    12
 73
     8
 74
     0
 42
0.0000000001
 43
0.0000000001
 40
5.706643122748382
 40
5.706643122748382
 40
5.706643122748382
 40
5.706643122748382
 40
5.957418950191499
 40
5.957418950191499
 40
6.237048934640849
 40
6.237048934640849
 40
6.5166789190902
 40
6.5166789190902
 40
6.5166789190902
 40
6.5166789190902
 10
1257.671208524633
 20
2418.999890910618
 30
0.0
 10
1257.080945327296
 20
2419.41875569935
 30
0.0
 10
1256.398526641489
 20
2419.761503797941
 30
0.0
 10
1254.92936721944
 20
2420.311506889852
 30
0.0
 10
1254.014108872543
 20
2420.545622548603
 30
0.0
 10
1252.090469917057
 20
2420.846332588655
 30
0.0
 10
1251.082099948115
 20
2420.914513501412
 30
0.0
 10
1250.149999999951
 20
2420.914513501412
 30
0.0
  0
SPLINE
  5
ED1
330
DA4
100
AcDbEntity
  8
Visible (ISO)
100
AcDbSpline
210
0.0
220
0.0
230
1.0
 70
     8
 71
     3
 72
    12
 73
     8
 74
     0
 42
0.0000000001
 43
0.0000000001
 40
6.557403335943681
 40
6.557403335943681
 40
6.557403335943681
 40
6.557403335943681
 40
6.934526283449241
 40
6.934526283449241
 40
7.311649230954802
 40
7.311649230954802
 40
7.37723041624782
 40
7.37723041624782
 40
7.37723041624782
 40
7.37723041624782
 10
1250.149999999951
 20
2379.085486498623
 30
0.0
 10
1251.407076491632
 20
2379.085486498623
 30
0.0
 10
1252.74766095147
 20
2379.207740337015
 30
0.0
 10
1255.211910138598
 20
2379.746510946711
 30
0.0
 10
1256.33547950966
 20
2380.167837395819
 30
0.0
 10
1257.375070454509
 20
2380.797635494191
 30
0.0
 10
1257.525123158331
 20
2380.896465839706
 30
0.0
 10
1257.670586919062
 20
2381.00062924254
 30
0.0
  0
SPLINE
  5
ED2
330
DA4
100
AcDbEntity
  8
Visible (ISO)
100
AcDbSpline
210
0.0
220
0.0
230
1.0
 70
     8
 71
     3
 72
    12
 73
     8
 74
     0
 42
0.0000000001
 43
0.0000000001
 40
2.448303663203412
 40
2.448303663203412
 40
2.448303663203412
 40
2.448303663203412
 40
2.699079490646399
 40
2.699079490646399
 40
2.978709475095749
 40
2.978709475095749
 40
3.258339459545099
 40
3.258339459545099
 40
3.258339459545099
 40
3.258339459545099
 10
1162.628791475261
 20
2381.000109089415
 30
0.0
 10
1163.219054672605
 20
2380.581244300683
 30
0.0
 10
1163.901473358404
 20
2380.238496202093
 30
0.0
 10
1165.370632780461
 20
2379.688493110183
 30
0.0
 10
1166.28589112735
 20
2379.454377451433
 30
0.0
 10
1168.209530082837
 20
2379.15366741138
 30
0.0
 10
1169.217900051786
 20
2379.085486498623
 30
0.0
 10
1170.14999999995
 20
2379.085486498623
 30
0.0
  0
SPLINE
  5
ED3
330
DA4
100
AcDbEntity
  8
Visible (ISO)
100
AcDbSpline
210
0.0
220
0.0
230
1.0
 70
     8
 71
     3
 72
    12
 73
     8
 74
     0
 42
0.0000000001
 43
0.0000000001
 40
3.278701667971839
 40
3.278701667971839
 40
3.278701667971839
 40
3.278701667971839
 40
3.6558246154774
 40
3.6558246154774
 40
4.03294756298296
 40
4.03294756298296
 40
4.098528748276097
 40
4.098528748276097
 40
4.098528748276097
 40
4.098528748276097
 10
1170.14999999995
 20
2420.914513501412
 30
0.0
 10
1168.892923508269
 20
2420.914513501412
 30
0.0
 10
1167.552339048423
 20
2420.79225966302
 30
0.0
 10
1165.088089861296
 20
2420.253489053325
 30
0.0
 10
1163.964520490241
 20
2419.832162604216
 30
0.0
 10
1162.924929545392
 20
2419.202364505842
 30
0.0
 10
1162.774876841569
 20
2419.103534160328
 30
0.0
 10
1162.629413080838
 20
2418.99937075749
 30
0.0
  0
LINE
  5
ED4
330
DA4
100
AcDbEntity
  8
Visible (ISO)
100
AcDbLine
 10
1250.149999999951
 20
2379.085486498623
 30
0.0
 11
1170.14999999995
 21
2379.085486498623
 31
0.0
  0
LINE
  5
ED5
330
DA4
100
AcDbEntity
  8
Visible (ISO)
100
AcDbLine
 10
1170.14999999995
 20
2420.914513501412
 30
0.0
 11
1250.149999999951
 21
2420.914513501412
 31
0.0
  0
LINE
  5
ED6
330
DA4
100
AcDbEntity
  8
Visible (ISO)
100
AcDbLine
 10
2828.149999999922
 20
503.6305317669748
 30
0.0
 11
2738.149999999921
 21
503.6305317669757
 31
0.0
  0
ELLIPSE
  5
ED7
330
DA4
100
AcDbEntity
  8
Visible (ISO)
100
AcDbEllipse
 10
2738.149999999921
 20
501.298993476199
 30
0.0
 11
-4.999999999999992
 21
0.0000000000000131
 31
0.0
210
0.0
220
0.0
230
1.0
 40
0.4663076581552975
 41
4.71238898038469
 42
6.283185307179557
  0
ELLIPSE
  5
ED8
330
DA4
100
AcDbEntity
  8
Visible (ISO)
100
AcDbEllipse
 10
2828.149999999922
 20
501.298993476199
 30
0.0
 11
-4.999999999999992
 21
0.0000000000000135
 31
0.0
210
0.0
220
0.0
230
1.0
 40
0.4663076581552975
 41
3.141592653589766
 42
4.71238898038469
  0
LINE
  5
ED9
330
DA4
100
AcDbEntity
  8
Visible (ISO)
100
AcDbLine
 10
2833.149999999914
 20
338.6305317669731
 30
0.0
 11
2833.149999999914
 21
501.298993476199
 31
0.0
  0
LINE
  5
EDA
330
DA4
100
AcDbEntity
  8
Visible (ISO)
100
AcDbLine
 10
2733.149999999922
 20
501.298993476199
 30
0.0
 11
2733.149999999922
 21
338.6305317669721
 31
0.0
  0
LINE
  5
EDB
330
DA4
100
AcDbEntity
  8
Visible (ISO)
100
AcDbLine
 10
2738.149999999929
 20
-201.3694682330242
 30
0.0
 11
2828.149999999929
 21
-201.3694682330251
 31
0.0
  0
ELLIPSE
  5
EDC
330
DA4
100
AcDbEntity
  8
Visible (ISO)
100
AcDbEllipse
 10
2828.149999999929
 20
-199.0379299422511
 30
0.0
 11
4.999999999999995
 21
-0.0000000000000131
 31
0.0
210
0.0
220
0.0
230
1.0
 40
0.4663076581547054
 41
4.71238898038469
 42
6.283185307179611
  0
ELLIPSE
  5
EDD
330
DA4
100
AcDbEntity
  8
Visible (ISO)
100
AcDbEllipse
 10
2738.149999999929
 20
-199.0379299422511
 30
0.0
 11
4.999999999999995
 21
-0.0000000000000135
 31
0.0
210
0.0
220
0.0
230
1.0
 40
0.4663076581547054
 41
3.141592653589819
 42
4.71238898038469
  0
LINE
  5
EDE
330
DA4
100
AcDbEntity
  8
Visible (ISO)
100
AcDbLine
 10
2733.149999999929
 20
-36.36946823302788
 30
0.0
 11
2733.149999999929
 21
-199.0379299422502
 31
0.0
  0
LINE
  5
EDF
330
DA4
100
AcDbEntity
  8
Visible (ISO)
100
AcDbLine
 10
2833.149999999922
 20
-199.0379299422511
 30
0.0
 11
2833.149999999922
 21
-36.36946823302788
 31
0.0
  0
ARC
  5
EE0
330
DA4
100
AcDbEntity
  8
Visible (ISO)
100
AcDbCircle
 10
2738.149999999929
 20
1045.000000000337
 30
0.0
 40
5.000000000000544
100
AcDbArc
 50
90.0
 51
180.0
  0
LINE
  5
EE1
330
DA4
100
AcDbEntity
  8
Visible (ISO)
100
AcDbLine
 10
2828.149999999922
 20
1050.000000000337
 30
0.0
 11
2738.149999999929
 21
1050.000000000337
 31
0.0
  0
ARC
  5
EE2
330
DA4
100
AcDbEntity
  8
Visible (ISO)
100
AcDbCircle
 10
2828.149999999922
 20
1045.000000000337
 30
0.0
 40
5.000000000000544
100
AcDbArc
 50
0.0
 51
90.0
  0
LINE
  5
EE3
330
DA4
100
AcDbEntity
  8
Visible (ISO)
100
AcDbLine
 10
2833.149999999914
 20
501.2989934761971
 30
0.0
 11
2833.149999999922
 21
1045.000000000337
 31
0.0
  0
LINE
  5
EE4
330
DA4
100
AcDbEntity
  8
Visible (ISO)
100
AcDbLine
 10
2733.149999999922
 20
1045.000000000337
 30
0.0
 11
2733.149999999914
 21
501.2989934761971
 31
0.0
  0
ELLIPSE
  5
EE5
330
DA4
100
AcDbEntity
  8
Visible (ISO)
100
AcDbEllipse
 10
2828.149999999914
 20
501.2989934761981
 30
0.0
 11
5.000000000000012
 21
-0.0000000000000202
 31
0.0
210
0.0
220
0.0
230
1.0
 40
0.4663076581552963
 41
0.0
 42
1.570796326794898
  0
LINE
  5
EE6
330
DA4
100
AcDbEntity
  8
Visible (ISO)
100
AcDbLine
 10
2738.149999999921
 20
503.630531766973
 30
0.0
 11
2828.149999999914
 21
503.630531766973
 31
0.0
  0
ELLIPSE
  5
EE7
330
DA4
100
AcDbEntity
  8
Visible (ISO)
100
AcDbEllipse
 10
2738.149999999921
 20
501.2989934761981
 30
0.0
 11
5.000000000000012
 21
-0.0000000000000198
 31
0.0
210
0.0
220
0.0
230
1.0
 40
0.4663076581552963
 41
1.570796326794898
 42
3.141592653589764
  0
ARC
  5
EE8
330
DA4
100
AcDbEntity
  8
Visible (ISO)
100
AcDbCircle
 10
2828.149999999929
 20
-742.7389364667742
 30
0.0
 40
5.000000000000014
100
AcDbArc
 50
270.0
 51
0.0
  0
LINE
  5
EE9
330
DA4
100
AcDbEntity
  8
Visible (ISO)
100
AcDbLine
 10
2738.149999999929
 20
-747.7389364667733
 30
0.0
 11
2828.149999999929
 21
-747.7389364667733
 31
0.0
  0
ARC
  5
EEA
330
DA4
100
AcDbEntity
  8
Visible (ISO)
100
AcDbCircle
 10
2738.149999999929
 20
-742.7389364667742
 30
0.0
 40
5.000000000000014
100
AcDbArc
 50
180.0
 51
270.0
  0
LINE
  5
EEB
330
DA4
100
AcDbEntity
  8
Visible (ISO)
100
AcDbLine
 10
2733.149999999922
 20
-199.0379299422502
 30
0.0
 11
2733.149999999929
 21
-742.7389364667733
 31
0.0
  0
LINE
  5
EEC
330
DA4
100
AcDbEntity
  8
Visible (ISO)
100
AcDbLine
 10
2833.149999999929
 20
-742.7389364667742
 30
0.0
 11
2833.149999999922
 21
-199.037929942252
 31
0.0
  0
ELLIPSE
  5
EED
330
DA4
100
AcDbEntity
  8
Visible (ISO)
100
AcDbEllipse
 10
2738.149999999929
 20
-199.0379299422511
 30
0.0
 11
-5.000000000000015
 21
0.0000000000000202
 31
0.0
210
0.0
220
0.0
230
1.0
 40
0.4663076581547036
 41
0.0
 42
1.570796326794898
  0
LINE
  5
EEE
330
DA4
100
AcDbEntity
  8
Visible (ISO)
100
AcDbLine
 10
2828.149999999929
 20
-201.3694682330251
 30
0.0
 11
2738.149999999929
 21
-201.3694682330251
 31
0.0
  0
ELLIPSE
  5
EEF
330
DA4
100
AcDbEntity
  8
Visible (ISO)
100
AcDbEllipse
 10
2828.149999999929
 20
-199.0379299422511
 30
0.0
 11
-5.000000000000015
 21
0.0000000000000198
 31
0.0
210
0.0
220
0.0
230
1.0
 40
0.4663076581547036
 41
1.570796326794898
 42
3.141592653589825
  0
ARC
  5
EF0
330
DA4
100
AcDbEntity
  8
Visible (ISO)
100
AcDbCircle
 10
2738.149999999936
 20
-742.7389364667742
 30
0.0
 40
4.999999999999996
100
AcDbArc
 50
180.0
 51
270.0
  0
LINE
  5
EF1
330
DA4
100
AcDbEntity
  8
Visible (ISO)
100
AcDbLine
 10
2828.149999999929
 20
-747.7389364667742
 30
0.0
 11
2738.149999999936
 21
-747.7389364667742
 31
0.0
  0
ARC
  5
EF2
330
DA4
100
AcDbEntity
  8
Visible (ISO)
100
AcDbCircle
 10
2828.149999999929
 20
-742.7389364667742
 30
0.0
 40
4.999999999999996
100
AcDbArc
 50
270.0
 51
0.0
  0
LINE
  5
EF3
330
DA4
100
AcDbEntity
  8
Visible (ISO)
100
AcDbLine
 10
2837.149999999922
 20
338.6305317669731
 30
0.0
 11
2837.149999999922
 21
-36.36946823302697
 31
0.0
  0
LINE
  5
EF4
330
DA4
100
AcDbEntity
  8
Visible (ISO)
100
AcDbLine
 10
2837.149999999922
 20
338.6305317669731
 30
0.0
 11
2831.149999999921
 21
338.6305317669748
 31
0.0
  0
LINE
  5
EF5
330
DA4
100
AcDbEntity
  8
Visible (ISO)
100
AcDbLine
 10
2837.149999999922
 20
-36.36946823302697
 30
0.0
 11
2831.149999999921
 21
-36.36946823302515
 31
0.0
  0
LINE
  5
EF6
330
DA4
100
AcDbEntity
  8
Visible (ISO)
100
AcDbLine
 10
2735.149999999922
 20
338.6305317669748
 30
0.0
 11
2729.149999999922
 21
338.6305317669731
 31
0.0
  0
LINE
  5
EF7
330
DA4
100
AcDbEntity
  8
Visible (ISO)
100
AcDbLine
 10
2729.149999999922
 20
338.6305317669721
 30
0.0
 11
2729.149999999922
 21
-36.36946823302697
 31
0.0
  0
LINE
  5
EF8
330
DA4
100
AcDbEntity
  8
Visible (ISO)
100
AcDbLine
 10
2735.149999999922
 20
-36.36946823302515
 30
0.0
 11
2729.149999999922
 21
-36.36946823302697
 31
0.0
  0
LINE
  5
EF9
330
DA4
100
AcDbEntity
  8
Visible (ISO)
100
AcDbLine
 10
2735.149999999922
 20
-36.36946823302515
 30
0.0
 11
2831.149999999921
 21
-36.36946823302515
 31
0.0
  0
LINE
  5
EFA
330
DA4
100
AcDbEntity
  8
Visible (ISO)
100
AcDbLine
 10
2735.149999999922
 20
338.6305317669739
 30
0.0
 11
2831.149999999921
 21
338.6305317669748
 31
0.0
  0
ARC
  5
EFB
330
DA4
100
AcDbEntity
  8
Visible (ISO)
100
AcDbCircle
 10
2833.149999999943
 20
-1049.999999999321
 30
0.0
 40
1500.000000000001
100
AcDbArc
 50
270.0
 51
0.0
  0
LINE
  5
EFC
330
DA4
100
AcDbEntity
  8
Visible (ISO)
100
AcDbLine
 10
4333.149999999942
 20
-1049.999999999322
 30
0.0
 11
4333.149999999942
 21
2449.999999999387
 31
0.0
  0
ARC
  5
EFD
330
DA4
100
AcDbEntity
  8
Visible (ISO)
100
AcDbCircle
 10
2833.149999999943
 20
2449.999999999386
 30
0.0
 40
1499.999999999998
100
AcDbArc
 50
0.0
 51
90.0
  0
LINE
  5
EFE
330
DA4
100
AcDbEntity
  8
Visible (ISO)
100
AcDbLine
 10
2833.149999999943
 20
3949.999999999387
 30
0.0
 11
-1466.850000000049
 21
3949.999999999387
 31
0.0
  0
ARC
  5
EFF
330
DA4
100
AcDbEntity
  8
Visible (ISO)
100
AcDbCircle
 10
-1466.850000000049
 20
2449.999999999387
 30
0.0
 40
1500.000000000001
100
AcDbArc
 50
90.0
 51
175.6097026315431
  0
ARC
  5
F00
330
DA4
100
AcDbEntity
  8
Visible (ISO)
100
AcDbCircle
 10
-2541.850000000002
 20
1124.999999999367
 30
0.0
 40
1499.999999999999
100
AcDbArc
 50
106.2840234765147
 51
160.5287793655287
  0
LINE
  5
F01
330
DA4
100
AcDbEntity
  8
Visible (ISO)
100
AcDbLine
 10
-3956.063562373096
 20
1624.999999999361
 30
0.0
 11
-4291.850000000002
 21
1624.999999999361
 31
0.0
  0
ARC
  5
F02
330
DA4
100
AcDbEntity
  8
Visible (ISO)
100
AcDbCircle
 10
-4291.850000000002
 20
124.9999999993624
 30
0.0
 40
1500.0
100
AcDbArc
 50
90.0
 51
180.0
  0
LINE
  5
F03
330
DA4
100
AcDbEntity
  8
Visible (ISO)
100
AcDbLine
 10
-5791.850000000002
 20
124.9999999993624
 30
0.0
 11
-5791.849999999999
 21
-2875.000000000628
 31
0.0
  0
ARC
  5
F04
330
DA4
100
AcDbEntity
  8
Visible (ISO)
100
AcDbCircle
 10
-4291.850000000002
 20
-2875.000000000628
 30
0.0
 40
1500.000000000002
100
AcDbArc
 50
180.0
 51
270.0
  0
LINE
  5
F05
330
DA4
100
AcDbEntity
  8
Visible (ISO)
100
AcDbLine
 10
-4291.850000000002
 20
-4375.000000000627
 30
0.0
 11
-291.8499999999986
 21
-4375.000000000629
 31
0.0
  0
ARC
  5
F06
330
DA4
100
AcDbEntity
  8
Visible (ISO)
100
AcDbCircle
 10
-291.8499999999986
 20
-2875.000000000629
 30
0.0
 40
1500.0
100
AcDbArc
 50
270.0
 51
0.0
  0
LINE
  5
F07
330
DA4
100
AcDbEntity
  8
Visible (ISO)
100
AcDbLine
 10
1208.150000000001
 20
-2875.000000000629
 30
0.0
 11
1208.150000000001
 21
-2549.999999999323
 31
0.0
  0
LINE
  5
F08
330
DA4
100
AcDbEntity
  8
Visible (ISO)
100
AcDbLine
 10
1208.150000000001
 20
-2549.999999999323
 30
0.0
 11
2833.149999999943
 21
-2549.999999999323
 31
0.0
  0
ENDBLK
  5
DA6
330
DA4
100
AcDbEntity
  8
0
100
AcDbBlockEnd
  0
ENDSEC
  0
SECTION
  2
ENTITIES
  0
LINE
  5
172
330
6C
100
AcDbEntity
  8
Visible (ISO)
100
AcDbLine
 10
33166.60583371391
 20
12530.73562648657
 30
0.0
 11
33166.60583371391
 21
12538.73562648657
 31
0.0
  0
LINE
  5
173
330
6C
100
AcDbEntity
  8
Visible (ISO)
100
AcDbLine
 10
33174.60583371391
 20
12538.73562648657
 30
0.0
 11
33166.60583371391
 21
12530.73562648657
 31
0.0
  0
LINE
  5
174
330
6C
100
AcDbEntity
  8
Visible (ISO)
100
AcDbLine
 10
33166.60583371391
 20
12538.73562648657
 30
0.0
 11
33174.60583371391
 21
12538.73562648657
 31
0.0
  0
LINE
  5
175
330
6C
100
AcDbEntity
  8
Visible (ISO)
100
AcDbLine
 10
33174.60583371391
 20
12962.73562648657
 30
0.0
 11
33166.60583371391
 21
12962.73562648657
 31
0.0
  0
LINE
  5
176
330
6C
100
AcDbEntity
  8
Visible (ISO)
100
AcDbLine
 10
33166.60583371391
 20
12970.73562648657
 30
0.0
 11
33174.60583371391
 21
12962.73562648657
 31
0.0
  0
LINE
  5
177
330
6C
100
AcDbEntity
  8
Visible (ISO)
100
AcDbLine
 10
33166.60583371391
 20
12962.73562648657
 30
0.0
 11
33166.60583371391
 21
12970.73562648657
 31
0.0
  0
LINE
  5
178
330
6C
100
AcDbEntity
  8
Visible (ISO)
100
AcDbLine
 10
32924.60583371391
 20
12538.73562648657
 30
0.0
 11
32932.60583371391
 21
12538.73562648657
 31
0.0
  0
LINE
  5
179
330
6C
100
AcDbEntity
  8
Visible (ISO)
100
AcDbLine
 10
32932.60583371391
 20
12530.73562648657
 30
0.0
 11
32924.60583371391
 21
12538.73562648657
 31
0.0
  0
LINE
  5
17A
330
6C
100
AcDbEntity
  8
Visible (ISO)
100
AcDbLine
 10
32932.60583371391
 20
12538.73562648657
 30
0.0
 11
32932.60583371391
 21
12530.73562648657
 31
0.0
  0
LINE
  5
17B
330
6C
100
AcDbEntity
  8
Visible (ISO)
100
AcDbLine
 10
32932.60583371391
 20
12970.73562648657
 30
0.0
 11
32932.60583371391
 21
12962.73562648657
 31
0.0
  0
LINE
  5
17C
330
6C
100
AcDbEntity
  8
Visible (ISO)
100
AcDbLine
 10
32924.60583371391
 20
12962.73562648657
 30
0.0
 11
32932.60583371391
 21
12970.73562648657
 31
0.0
  0
LINE
  5
17D
330
6C
100
AcDbEntity
  8
Visible (ISO)
100
AcDbLine
 10
32932.60583371391
 20
12962.73562648657
 30
0.0
 11
32924.60583371391
 21
12962.73562648657
 31
0.0
  0
LINE
  5
17E
330
6C
100
AcDbEntity
  8
Visible (ISO)
100
AcDbLine
 10
32924.60583371391
 20
12962.73562648657
 30
0.0
 11
32924.60583371391
 21
12538.73562648657
 31
0.0
  0
LINE
  5
17F
330
6C
100
AcDbEntity
  8
Visible (ISO)
100
AcDbLine
 10
32932.60583371391
 20
12538.73562648657
 30
0.0
 11
32932.60583371391
 21
12962.73562648657
 31
0.0
  0
LINE
  5
180
330
6C
100
AcDbEntity
  8
Visible (ISO)
100
AcDbLine
 10
33166.60583371391
 20
12970.73562648657
 30
0.0
 11
32932.60583371391
 21
12970.73562648657
 31
0.0
  0
LINE
  5
181
330
6C
100
AcDbEntity
  8
Visible (ISO)
100
AcDbLine
 10
32932.60583371391
 20
12962.73562648657
 30
0.0
 11
33166.60583371391
 21
12962.73562648657
 31
0.0
  0
LINE
  5
182
330
6C
100
AcDbEntity
  8
Visible (ISO)
100
AcDbLine
 10
33166.60583371391
 20
12538.73562648657
 30
0.0
 11
32932.60583371391
 21
12538.73562648657
 31
0.0
  0
LINE
  5
183
330
6C
100
AcDbEntity
  8
Visible (ISO)
100
AcDbLine
 10
33174.60583371391
 20
12538.73562648657
 30
0.0
 11
33174.60583371391
 21
12962.73562648657
 31
0.0
  0
LINE
  5
184
330
6C
100
AcDbEntity
  8
Visible (ISO)
100
AcDbLine
 10
33166.60583371391
 20
12962.73562648657
 30
0.0
 11
33166.60583371391
 21
12538.73562648657
 31
0.0
  0
LINE
  5
185
330
6C
100
AcDbEntity
  8
Visible (ISO)
100
AcDbLine
 10
32916.60583371391
 20
12538.73562648657
 30
0.0
 11
32924.60583371391
 21
12538.73562648657
 31
0.0
  0
LINE
  5
186
330
6C
100
AcDbEntity
  8
Visible (ISO)
100
AcDbLine
 10
32916.60583371391
 20
12530.73562648657
 30
0.0
 11
32916.60583371391
 21
12538.73562648657
 31
0.0
  0
LINE
  5
187
330
6C
100
AcDbEntity
  8
Visible (ISO)
100
AcDbLine
 10
32924.60583371391
 20
12538.73562648657
 30
0.0
 11
32916.60583371391
 21
12530.73562648657
 31
0.0
  0
LINE
  5
188
330
6C
100
AcDbEntity
  8
Visible (ISO)
100
AcDbLine
 10
32916.60583371391
 20
12970.73562648657
 30
0.0
 11
32924.60583371391
 21
12962.73562648657
 31
0.0
  0
LINE
  5
189
330
6C
100
AcDbEntity
  8
Visible (ISO)
100
AcDbLine
 10
32916.60583371391
 20
12962.73562648657
 30
0.0
 11
32916.60583371391
 21
12970.73562648657
 31
0.0
  0
LINE
  5
18A
330
6C
100
AcDbEntity
  8
Visible (ISO)
100
AcDbLine
 10
32924.60583371391
 20
12962.73562648657
 30
0.0
 11
32916.60583371391
 21
12962.73562648657
 31
0.0
  0
LINE
  5
18B
330
6C
100
AcDbEntity
  8
Visible (ISO)
100
AcDbLine
 10
31932.60583371391
 20
12530.73562648657
 30
0.0
 11
31924.60583371391
 21
12538.73562648657
 31
0.0
  0
LINE
  5
18C
330
6C
100
AcDbEntity
  8
Visible (ISO)
100
AcDbLine
 10
31932.60583371391
 20
12538.73562648657
 30
0.0
 11
31932.60583371391
 21
12530.73562648657
 31
0.0
  0
LINE
  5
18D
330
6C
100
AcDbEntity
  8
Visible (ISO)
100
AcDbLine
 10
31924.60583371391
 20
12538.73562648657
 30
0.0
 11
31932.60583371391
 21
12538.73562648657
 31
0.0
  0
LINE
  5
18E
330
6C
100
AcDbEntity
  8
Visible (ISO)
100
AcDbLine
 10
32916.60583371391
 20
12538.73562648657
 30
0.0
 11
31932.60583371391
 21
12538.73562648657
 31
0.0
  0
LINE
  5
18F
330
6C
100
AcDbEntity
  8
Visible (ISO)
100
AcDbLine
 10
31932.60583371392
 20
12962.73562648657
 30
0.0
 11
31924.60583371391
 21
12962.73562648657
 31
0.0
  0
LINE
  5
190
330
6C
100
AcDbEntity
  8
Visible (ISO)
100
AcDbLine
 10
31932.60583371392
 20
12970.73562648657
 30
0.0
 11
31932.60583371392
 21
12962.73562648657
 31
0.0
  0
LINE
  5
191
330
6C
100
AcDbEntity
  8
Visible (ISO)
100
AcDbLine
 10
31924.60583371391
 20
12962.73562648657
 30
0.0
 11
31932.60583371392
 21
12970.73562648657
 31
0.0
  0
LINE
  5
192
330
6C
100
AcDbEntity
  8
Visible (ISO)
100
AcDbLine
 10
32916.60583371391
 20
12970.73562648657
 30
0.0
 11
31932.60583371392
 21
12970.73562648657
 31
0.0
  0
LINE
  5
193
330
6C
100
AcDbEntity
  8
Visible (ISO)
100
AcDbLine
 10
31932.60583371392
 20
12962.73562648657
 30
0.0
 11
32916.60583371391
 21
12962.73562648657
 31
0.0
  0
LINE
  5
194
330
6C
100
AcDbEntity
  8
Visible (ISO)
100
AcDbLine
 10
31932.60583371391
 20
12538.73562648657
 30
0.0
 11
31932.60583371392
 21
12962.73562648657
 31
0.0
  0
LINE
  5
195
330
6C
100
AcDbEntity
  8
Visible (ISO)
100
AcDbLine
 10
31924.60583371391
 20
12962.73562648657
 30
0.0
 11
31924.60583371391
 21
12538.73562648657
 31
0.0
  0
LINE
  5
196
330
6C
100
AcDbEntity
  8
Visible (ISO)
100
AcDbLine
 10
32916.60583371391
 20
12962.73562648657
 30
0.0
 11
32916.60583371391
 21
12538.73562648657
 31
0.0
  0
LINE
  5
197
330
6C
100
AcDbEntity
  8
Visible (ISO)
100
AcDbLine
 10
32924.60583371391
 20
12538.73562648657
 30
0.0
 11
32924.60583371391
 21
12962.73562648657
 31
0.0
  0
LINE
  5
198
330
6C
100
AcDbEntity
  8
Visible (ISO)
100
AcDbLine
 10
34166.60583371391
 20
12538.73562648657
 30
0.0
 11
34174.60583371391
 21
12538.73562648657
 31
0.0
  0
LINE
  5
199
330
6C
100
AcDbEntity
  8
Visible (ISO)
100
AcDbLine
 10
34166.60583371391
 20
12530.73562648657
 30
0.0
 11
34166.60583371391
 21
12538.73562648657
 31
0.0
  0
LINE
  5
19A
330
6C
100
AcDbEntity
  8
Visible (ISO)
100
AcDbLine
 10
34174.60583371391
 20
12538.73562648657
 30
0.0
 11
34166.60583371391
 21
12530.73562648657
 31
0.0
  0
LINE
  5
19B
330
6C
100
AcDbEntity
  8
Visible (ISO)
100
AcDbLine
 10
34166.60583371391
 20
12970.73562648657
 30
0.0
 11
34174.60583371391
 21
12962.73562648657
 31
0.0
  0
LINE
  5
19C
330
6C
100
AcDbEntity
  8
Visible (ISO)
100
AcDbLine
 10
34166.60583371391
 20
12962.73562648657
 30
0.0
 11
34166.60583371391
 21
12970.73562648657
 31
0.0
  0
LINE
  5
19D
330
6C
100
AcDbEntity
  8
Visible (ISO)
100
AcDbLine
 10
34174.60583371391
 20
12962.73562648657
 30
0.0
 11
34166.60583371391
 21
12962.73562648657
 31
0.0
  0
LINE
  5
19E
330
6C
100
AcDbEntity
  8
Visible (ISO)
100
AcDbLine
 10
33182.60583371391
 20
12530.73562648657
 30
0.0
 11
33174.60583371391
 21
12538.73562648657
 31
0.0
  0
LINE
  5
19F
330
6C
100
AcDbEntity
  8
Visible (ISO)
100
AcDbLine
 10
33182.60583371391
 20
12538.73562648657
 30
0.0
 11
33182.60583371391
 21
12530.73562648657
 31
0.0
  0
LINE
  5
1A0
330
6C
100
AcDbEntity
  8
Visible (ISO)
100
AcDbLine
 10
33174.60583371391
 20
12538.73562648657
 30
0.0
 11
33182.60583371391
 21
12538.73562648657
 31
0.0
  0
LINE
  5
1A1
330
6C
100
AcDbEntity
  8
Visible (ISO)
100
AcDbLine
 10
34166.60583371391
 20
12538.73562648657
 30
0.0
 11
33182.60583371391
 21
12538.73562648657
 31
0.0
  0
LINE
  5
1A2
330
6C
100
AcDbEntity
  8
Visible (ISO)
100
AcDbLine
 10
33182.60583371391
 20
12962.73562648657
 30
0.0
 11
33174.60583371391
 21
12962.73562648657
 31
0.0
  0
LINE
  5
1A3
330
6C
100
AcDbEntity
  8
Visible (ISO)
100
AcDbLine
 10
33182.60583371391
 20
12970.73562648657
 30
0.0
 11
33182.60583371391
 21
12962.73562648657
 31
0.0
  0
LINE
  5
1A4
330
6C
100
AcDbEntity
  8
Visible (ISO)
100
AcDbLine
 10
33174.60583371391
 20
12962.73562648657
 30
0.0
 11
33182.60583371391
 21
12970.73562648657
 31
0.0
  0
LINE
  5
1A5
330
6C
100
AcDbEntity
  8
Visible (ISO)
100
AcDbLine
 10
34166.60583371391
 20
12970.73562648657
 30
0.0
 11
33182.60583371391
 21
12970.73562648657
 31
0.0
  0
LINE
  5
1A6
330
6C
100
AcDbEntity
  8
Visible (ISO)
100
AcDbLine
 10
33182.60583371391
 20
12962.73562648657
 30
0.0
 11
34166.60583371391
 21
12962.73562648657
 31
0.0
  0
LINE
  5
1A7
330
6C
100
AcDbEntity
  8
Visible (ISO)
100
AcDbLine
 10
33182.60583371391
 20
12538.73562648657
 30
0.0
 11
33182.60583371391
 21
12962.73562648657
 31
0.0
  0
LINE
  5
1A8
330
6C
100
AcDbEntity
  8
Visible (ISO)
100
AcDbLine
 10
33174.60583371391
 20
12962.73562648657
 30
0.0
 11
33174.60583371391
 21
12538.73562648657
 31
0.0
  0
LINE
  5
1A9
330
6C
100
AcDbEntity
  8
Visible (ISO)
100
AcDbLine
 10
34166.60583371391
 20
12962.73562648657
 30
0.0
 11
34166.60583371391
 21
12538.73562648657
 31
0.0
  0
LINE
  5
1AA
330
6C
100
AcDbEntity
  8
Visible (ISO)
100
AcDbLine
 10
34174.60583371391
 20
12538.73562648657
 30
0.0
 11
34174.60583371391
 21
12962.73562648657
 31
0.0
  0
LINE
  5
1AB
330
6C
100
AcDbEntity
  8
Visible (ISO)
100
AcDbLine
 10
33166.60583371391
 20
12970.73562648657
 30
0.0
 11
33166.60583371391
 21
12978.73562648657
 31
0.0
  0
LINE
  5
1AC
330
6C
100
AcDbEntity
  8
Visible (ISO)
100
AcDbLine
 10
33174.60583371391
 20
12978.73562648657
 30
0.0
 11
33166.60583371391
 21
12970.73562648657
 31
0.0
  0
LINE
  5
1AD
330
6C
100
AcDbEntity
  8
Visible (ISO)
100
AcDbLine
 10
33166.60583371391
 20
12978.73562648657
 30
0.0
 11
33174.60583371391
 21
12978.73562648657
 31
0.0
  0
LINE
  5
1AE
330
6C
100
AcDbEntity
  8
Visible (ISO)
100
AcDbLine
 10
33174.60583371391
 20
13402.73562648657
 30
0.0
 11
33166.60583371391
 21
13402.73562648657
 31
0.0
  0
LINE
  5
1AF
330
6C
100
AcDbEntity
  8
Visible (ISO)
100
AcDbLine
 10
33166.60583371391
 20
13410.73562648657
 30
0.0
 11
33174.60583371391
 21
13402.73562648657
 31
0.0
  0
LINE
  5
1B0
330
6C
100
AcDbEntity
  8
Visible (ISO)
100
AcDbLine
 10
33166.60583371391
 20
13402.73562648657
 30
0.0
 11
33166.60583371391
 21
13410.73562648657
 31
0.0
  0
LINE
  5
1B1
330
6C
100
AcDbEntity
  8
Visible (ISO)
100
AcDbLine
 10
32924.60583371391
 20
12978.73562648657
 30
0.0
 11
32932.60583371391
 21
12978.73562648657
 31
0.0
  0
LINE
  5
1B2
330
6C
100
AcDbEntity
  8
Visible (ISO)
100
AcDbLine
 10
32932.60583371391
 20
12970.73562648657
 30
0.0
 11
32924.60583371391
 21
12978.73562648657
 31
0.0
  0
LINE
  5
1B3
330
6C
100
AcDbEntity
  8
Visible (ISO)
100
AcDbLine
 10
32932.60583371391
 20
12978.73562648657
 30
0.0
 11
32932.60583371391
 21
12970.73562648657
 31
0.0
  0
LINE
  5
1B4
330
6C
100
AcDbEntity
  8
Visible (ISO)
100
AcDbLine
 10
32932.60583371391
 20
13410.73562648657
 30
0.0
 11
32932.60583371391
 21
13402.73562648657
 31
0.0
  0
LINE
  5
1B5
330
6C
100
AcDbEntity
  8
Visible (ISO)
100
AcDbLine
 10
32924.60583371391
 20
13402.73562648657
 30
0.0
 11
32932.60583371391
 21
13410.73562648657
 31
0.0
  0
LINE
  5
1B6
330
6C
100
AcDbEntity
  8
Visible (ISO)
100
AcDbLine
 10
32932.60583371391
 20
13402.73562648657
 30
0.0
 11
32924.60583371391
 21
13402.73562648657
 31
0.0
  0
LINE
  5
1B7
330
6C
100
AcDbEntity
  8
Visible (ISO)
100
AcDbLine
 10
32924.60583371391
 20
13402.73562648657
 30
0.0
 11
32924.60583371391
 21
12978.73562648657
 31
0.0
  0
LINE
  5
1B8
330
6C
100
AcDbEntity
  8
Visible (ISO)
100
AcDbLine
 10
32932.60583371391
 20
12978.73562648657
 30
0.0
 11
32932.60583371391
 21
13402.73562648657
 31
0.0
  0
LINE
  5
1B9
330
6C
100
AcDbEntity
  8
Visible (ISO)
100
AcDbLine
 10
33166.60583371391
 20
13410.73562648657
 30
0.0
 11
32932.60583371391
 21
13410.73562648657
 31
0.0
  0
LINE
  5
1BA
330
6C
100
AcDbEntity
  8
Visible (ISO)
100
AcDbLine
 10
32932.60583371391
 20
13402.73562648657
 30
0.0
 11
33166.60583371391
 21
13402.73562648657
 31
0.0
  0
LINE
  5
1BB
330
6C
100
AcDbEntity
  8
Visible (ISO)
100
AcDbLine
 10
32932.60583371391
 20
12970.73562648657
 30
0.0
 11
33166.60583371391
 21
12970.73562648657
 31
0.0
  0
LINE
  5
1BC
330
6C
100
AcDbEntity
  8
Visible (ISO)
100
AcDbLine
 10
33166.60583371391
 20
12978.73562648657
 30
0.0
 11
32932.60583371391
 21
12978.73562648657
 31
0.0
  0
LINE
  5
1BD
330
6C
100
AcDbEntity
  8
Visible (ISO)
100
AcDbLine
 10
33174.60583371391
 20
12978.73562648657
 30
0.0
 11
33174.60583371391
 21
13402.73562648657
 31
0.0
  0
LINE
  5
1BE
330
6C
100
AcDbEntity
  8
Visible (ISO)
100
AcDbLine
 10
33166.60583371391
 20
13402.73562648657
 30
0.0
 11
33166.60583371391
 21
12978.73562648657
 31
0.0
  0
LINE
  5
1BF
330
6C
100
AcDbEntity
  8
Visible (ISO)
100
AcDbLine
 10
32916.60583371391
 20
12978.73562648657
 30
0.0
 11
32924.60583371391
 21
12978.73562648657
 31
0.0
  0
LINE
  5
1C0
330
6C
100
AcDbEntity
  8
Visible (ISO)
100
AcDbLine
 10
32916.60583371391
 20
12970.73562648657
 30
0.0
 11
32916.60583371391
 21
12978.73562648657
 31
0.0
  0
LINE
  5
1C1
330
6C
100
AcDbEntity
  8
Visible (ISO)
100
AcDbLine
 10
32924.60583371391
 20
12978.73562648657
 30
0.0
 11
32916.60583371391
 21
12970.73562648657
 31
0.0
  0
LINE
  5
1C2
330
6C
100
AcDbEntity
  8
Visible (ISO)
100
AcDbLine
 10
32916.60583371391
 20
13410.73562648657
 30
0.0
 11
32924.60583371391
 21
13402.73562648657
 31
0.0
  0
LINE
  5
1C3
330
6C
100
AcDbEntity
  8
Visible (ISO)
100
AcDbLine
 10
32916.60583371391
 20
13402.73562648657
 30
0.0
 11
32916.60583371391
 21
13410.73562648657
 31
0.0
  0
LINE
  5
1C4
330
6C
100
AcDbEntity
  8
Visible (ISO)
100
AcDbLine
 10
32924.60583371391
 20
13402.73562648657
 30
0.0
 11
32916.60583371391
 21
13402.73562648657
 31
0.0
  0
LINE
  5
1C5
330
6C
100
AcDbEntity
  8
Visible (ISO)
100
AcDbLine
 10
31932.60583371391
 20
12970.73562648657
 30
0.0
 11
31924.60583371391
 21
12978.73562648657
 31
0.0
  0
LINE
  5
1C6
330
6C
100
AcDbEntity
  8
Visible (ISO)
100
AcDbLine
 10
31932.60583371391
 20
12978.73562648657
 30
0.0
 11
31932.60583371391
 21
12970.73562648657
 31
0.0
  0
LINE
  5
1C7
330
6C
100
AcDbEntity
  8
Visible (ISO)
100
AcDbLine
 10
31924.60583371391
 20
12978.73562648657
 30
0.0
 11
31932.60583371391
 21
12978.73562648657
 31
0.0
  0
LINE
  5
1C8
330
6C
100
AcDbEntity
  8
Visible (ISO)
100
AcDbLine
 10
31932.60583371391
 20
12970.73562648657
 30
0.0
 11
32916.60583371391
 21
12970.73562648657
 31
0.0
  0
LINE
  5
1C9
330
6C
100
AcDbEntity
  8
Visible (ISO)
100
AcDbLine
 10
32916.60583371391
 20
12978.73562648657
 30
0.0
 11
31932.60583371391
 21
12978.73562648657
 31
0.0
  0
LINE
  5
1CA
330
6C
100
AcDbEntity
  8
Visible (ISO)
100
AcDbLine
 10
31932.60583371392
 20
13402.73562648657
 30
0.0
 11
31924.60583371391
 21
13402.73562648657
 31
0.0
  0
LINE
  5
1CB
330
6C
100
AcDbEntity
  8
Visible (ISO)
100
AcDbLine
 10
31932.60583371391
 20
13410.73562648657
 30
0.0
 11
31932.60583371391
 21
13402.73562648657
 31
0.0
  0
LINE
  5
1CC
330
6C
100
AcDbEntity
  8
Visible (ISO)
100
AcDbLine
 10
31924.60583371391
 20
13402.73562648657
 30
0.0
 11
31932.60583371392
 21
13410.73562648657
 31
0.0
  0
LINE
  5
1CD
330
6C
100
AcDbEntity
  8
Visible (ISO)
100
AcDbLine
 10
32916.60583371391
 20
13410.73562648657
 30
0.0
 11
31932.60583371391
 21
13410.73562648657
 31
0.0
  0
LINE
  5
1CE
330
6C
100
AcDbEntity
  8
Visible (ISO)
100
AcDbLine
 10
31932.60583371392
 20
13402.73562648657
 30
0.0
 11
32916.60583371391
 21
13402.73562648657
 31
0.0
  0
LINE
  5
1CF
330
6C
100
AcDbEntity
  8
Visible (ISO)
100
AcDbLine
 10
31932.60583371391
 20
12978.73562648657
 30
0.0
 11
31932.60583371392
 21
13402.73562648657
 31
0.0
  0
LINE
  5
1D0
330
6C
100
AcDbEntity
  8
Visible (ISO)
100
AcDbLine
 10
31924.60583371391
 20
13402.73562648657
 30
0.0
 11
31924.60583371391
 21
12978.73562648657
 31
0.0
  0
LINE
  5
1D1
330
6C
100
AcDbEntity
  8
Visible (ISO)
100
AcDbLine
 10
32916.60583371391
 20
13402.73562648657
 30
0.0
 11
32916.60583371391
 21
12978.73562648657
 31
0.0
  0
LINE
  5
1D2
330
6C
100
AcDbEntity
  8
Visible (ISO)
100
AcDbLine
 10
32924.60583371391
 20
12978.73562648657
 30
0.0
 11
32924.60583371391
 21
13402.73562648657
 31
0.0
  0
LINE
  5
1D3
330
6C
100
AcDbEntity
  8
Visible (ISO)
100
AcDbLine
 10
34166.60583371391
 20
12978.73562648657
 30
0.0
 11
34174.60583371391
 21
12978.73562648657
 31
0.0
  0
LINE
  5
1D4
330
6C
100
AcDbEntity
  8
Visible (ISO)
100
AcDbLine
 10
34166.60583371391
 20
12970.73562648657
 30
0.0
 11
34166.60583371391
 21
12978.73562648657
 31
0.0
  0
LINE
  5
1D5
330
6C
100
AcDbEntity
  8
Visible (ISO)
100
AcDbLine
 10
34174.60583371391
 20
12978.73562648657
 30
0.0
 11
34166.60583371391
 21
12970.73562648657
 31
0.0
  0
LINE
  5
1D6
330
6C
100
AcDbEntity
  8
Visible (ISO)
100
AcDbLine
 10
34166.60583371391
 20
13410.73562648657
 30
0.0
 11
34174.60583371391
 21
13402.73562648657
 31
0.0
  0
LINE
  5
1D7
330
6C
100
AcDbEntity
  8
Visible (ISO)
100
AcDbLine
 10
34166.60583371391
 20
13402.73562648657
 30
0.0
 11
34166.60583371391
 21
13410.73562648657
 31
0.0
  0
LINE
  5
1D8
330
6C
100
AcDbEntity
  8
Visible (ISO)
100
AcDbLine
 10
34174.60583371391
 20
13402.73562648657
 30
0.0
 11
34166.60583371391
 21
13402.73562648657
 31
0.0
  0
LINE
  5
1D9
330
6C
100
AcDbEntity
  8
Visible (ISO)
100
AcDbLine
 10
33182.60583371391
 20
12970.73562648657
 30
0.0
 11
33174.60583371391
 21
12978.73562648657
 31
0.0
  0
LINE
  5
1DA
330
6C
100
AcDbEntity
  8
Visible (ISO)
100
AcDbLine
 10
33182.60583371391
 20
12978.73562648657
 30
0.0
 11
33182.60583371391
 21
12970.73562648657
 31
0.0
  0
LINE
  5
1DB
330
6C
100
AcDbEntity
  8
Visible (ISO)
100
AcDbLine
 10
33174.60583371391
 20
12978.73562648657
 30
0.0
 11
33182.60583371391
 21
12978.73562648657
 31
0.0
  0
LINE
  5
1DC
330
6C
100
AcDbEntity
  8
Visible (ISO)
100
AcDbLine
 10
33182.60583371391
 20
12970.73562648657
 30
0.0
 11
34166.60583371391
 21
12970.73562648657
 31
0.0
  0
LINE
  5
1DD
330
6C
100
AcDbEntity
  8
Visible (ISO)
100
AcDbLine
 10
34166.60583371391
 20
12978.73562648657
 30
0.0
 11
33182.60583371391
 21
12978.73562648657
 31
0.0
  0
LINE
  5
1DE
330
6C
100
AcDbEntity
  8
Visible (ISO)
100
AcDbLine
 10
33182.60583371391
 20
13402.73562648657
 30
0.0
 11
33174.60583371391
 21
13402.73562648657
 31
0.0
  0
LINE
  5
1DF
330
6C
100
AcDbEntity
  8
Visible (ISO)
100
AcDbLine
 10
33182.60583371391
 20
13410.73562648657
 30
0.0
 11
33182.60583371391
 21
13402.73562648657
 31
0.0
  0
LINE
  5
1E0
330
6C
100
AcDbEntity
  8
Visible (ISO)
100
AcDbLine
 10
33174.60583371391
 20
13402.73562648657
 30
0.0
 11
33182.60583371391
 21
13410.73562648657
 31
0.0
  0
LINE
  5
1E1
330
6C
100
AcDbEntity
  8
Visible (ISO)
100
AcDbLine
 10
34166.60583371391
 20
13410.73562648657
 30
0.0
 11
33182.60583371391
 21
13410.73562648657
 31
0.0
  0
LINE
  5
1E2
330
6C
100
AcDbEntity
  8
Visible (ISO)
100
AcDbLine
 10
33182.60583371391
 20
13402.73562648657
 30
0.0
 11
34166.60583371391
 21
13402.73562648657
 31
0.0
  0
LINE
  5
1E3
330
6C
100
AcDbEntity
  8
Visible (ISO)
100
AcDbLine
 10
33182.60583371391
 20
12978.73562648657
 30
0.0
 11
33182.60583371391
 21
13402.73562648657
 31
0.0
  0
LINE
  5
1E4
330
6C
100
AcDbEntity
  8
Visible (ISO)
100
AcDbLine
 10
33174.60583371391
 20
13402.73562648657
 30
0.0
 11
33174.60583371391
 21
12978.73562648657
 31
0.0
  0
LINE
  5
1E5
330
6C
100
AcDbEntity
  8
Visible (ISO)
100
AcDbLine
 10
34166.60583371391
 20
13402.73562648657
 30
0.0
 11
34166.60583371391
 21
12978.73562648657
 31
0.0
  0
LINE
  5
1E6
330
6C
100
AcDbEntity
  8
Visible (ISO)
100
AcDbLine
 10
34174.60583371391
 20
12978.73562648657
 30
0.0
 11
34174.60583371391
 21
13402.73562648657
 31
0.0
  0
LINE
  5
1E7
330
6C
100
AcDbEntity
  8
Visible (ISO)
100
AcDbLine
 10
33166.60583371391
 20
13410.73562648657
 30
0.0
 11
33166.60583371391
 21
13418.73562648657
 31
0.0
  0
LINE
  5
1E8
330
6C
100
AcDbEntity
  8
Visible (ISO)
100
AcDbLine
 10
33174.60583371391
 20
13418.73562648657
 30
0.0
 11
33166.60583371391
 21
13410.73562648657
 31
0.0
  0
LINE
  5
1E9
330
6C
100
AcDbEntity
  8
Visible (ISO)
100
AcDbLine
 10
33166.60583371391
 20
13418.73562648657
 30
0.0
 11
33174.60583371391
 21
13418.73562648657
 31
0.0
  0
LINE
  5
1EA
330
6C
100
AcDbEntity
  8
Visible (ISO)
100
AcDbLine
 10
33174.60583371391
 20
13842.73562648657
 30
0.0
 11
33166.60583371391
 21
13842.73562648657
 31
0.0
  0
LINE
  5
1EB
330
6C
100
AcDbEntity
  8
Visible (ISO)
100
AcDbLine
 10
33166.60583371391
 20
13850.73562648657
 30
0.0
 11
33174.60583371391
 21
13842.73562648657
 31
0.0
  0
LINE
  5
1EC
330
6C
100
AcDbEntity
  8
Visible (ISO)
100
AcDbLine
 10
33166.60583371391
 20
13842.73562648657
 30
0.0
 11
33166.60583371391
 21
13850.73562648657
 31
0.0
  0
LINE
  5
1ED
330
6C
100
AcDbEntity
  8
Visible (ISO)
100
AcDbLine
 10
32924.60583371391
 20
13418.73562648657
 30
0.0
 11
32932.60583371391
 21
13418.73562648657
 31
0.0
  0
LINE
  5
1EE
330
6C
100
AcDbEntity
  8
Visible (ISO)
100
AcDbLine
 10
32932.60583371391
 20
13410.73562648657
 30
0.0
 11
32924.60583371391
 21
13418.73562648657
 31
0.0
  0
LINE
  5
1EF
330
6C
100
AcDbEntity
  8
Visible (ISO)
100
AcDbLine
 10
32932.60583371391
 20
13418.73562648657
 30
0.0
 11
32932.60583371391
 21
13410.73562648657
 31
0.0
  0
LINE
  5
1F0
330
6C
100
AcDbEntity
  8
Visible (ISO)
100
AcDbLine
 10
32932.60583371391
 20
13850.73562648657
 30
0.0
 11
32932.60583371391
 21
13842.73562648657
 31
0.0
  0
LINE
  5
1F1
330
6C
100
AcDbEntity
  8
Visible (ISO)
100
AcDbLine
 10
32924.60583371391
 20
13842.73562648657
 30
0.0
 11
32932.60583371391
 21
13850.73562648657
 31
0.0
  0
LINE
  5
1F2
330
6C
100
AcDbEntity
  8
Visible (ISO)
100
AcDbLine
 10
32932.60583371391
 20
13842.73562648657
 30
0.0
 11
32924.60583371391
 21
13842.73562648657
 31
0.0
  0
LINE
  5
1F3
330
6C
100
AcDbEntity
  8
Visible (ISO)
100
AcDbLine
 10
32924.60583371391
 20
13842.73562648657
 30
0.0
 11
32924.60583371391
 21
13418.73562648657
 31
0.0
  0
LINE
  5
1F4
330
6C
100
AcDbEntity
  8
Visible (ISO)
100
AcDbLine
 10
32932.60583371391
 20
13418.73562648657
 30
0.0
 11
32932.60583371391
 21
13842.73562648657
 31
0.0
  0
LINE
  5
1F5
330
6C
100
AcDbEntity
  8
Visible (ISO)
100
AcDbLine
 10
33166.60583371391
 20
13850.73562648657
 30
0.0
 11
32932.60583371391
 21
13850.73562648657
 31
0.0
  0
LINE
  5
1F6
330
6C
100
AcDbEntity
  8
Visible (ISO)
100
AcDbLine
 10
32932.60583371391
 20
13842.73562648657
 30
0.0
 11
33166.60583371391
 21
13842.73562648657
 31
0.0
  0
LINE
  5
1F7
330
6C
100
AcDbEntity
  8
Visible (ISO)
100
AcDbLine
 10
32932.60583371391
 20
13410.73562648657
 30
0.0
 11
33166.60583371391
 21
13410.73562648657
 31
0.0
  0
LINE
  5
1F8
330
6C
100
AcDbEntity
  8
Visible (ISO)
100
AcDbLine
 10
33166.60583371391
 20
13418.73562648657
 30
0.0
 11
32932.60583371391
 21
13418.73562648657
 31
0.0
  0
LINE
  5
1F9
330
6C
100
AcDbEntity
  8
Visible (ISO)
100
AcDbLine
 10
33174.60583371391
 20
13418.73562648657
 30
0.0
 11
33174.60583371391
 21
13842.73562648657
 31
0.0
  0
LINE
  5
1FA
330
6C
100
AcDbEntity
  8
Visible (ISO)
100
AcDbLine
 10
33166.60583371391
 20
13842.73562648657
 30
0.0
 11
33166.60583371391
 21
13418.73562648657
 31
0.0
  0
LINE
  5
1FB
330
6C
100
AcDbEntity
  8
Visible (ISO)
100
AcDbLine
 10
32916.60583371391
 20
13418.73562648657
 30
0.0
 11
32924.60583371391
 21
13418.73562648657
 31
0.0
  0
LINE
  5
1FC
330
6C
100
AcDbEntity
  8
Visible (ISO)
100
AcDbLine
 10
32916.60583371391
 20
13410.73562648657
 30
0.0
 11
32916.60583371391
 21
13418.73562648657
 31
0.0
  0
LINE
  5
1FD
330
6C
100
AcDbEntity
  8
Visible (ISO)
100
AcDbLine
 10
32924.60583371391
 20
13418.73562648657
 30
0.0
 11
32916.60583371391
 21
13410.73562648657
 31
0.0
  0
LINE
  5
1FE
330
6C
100
AcDbEntity
  8
Visible (ISO)
100
AcDbLine
 10
32916.60583371391
 20
13850.73562648657
 30
0.0
 11
32924.60583371391
 21
13842.73562648657
 31
0.0
  0
LINE
  5
1FF
330
6C
100
AcDbEntity
  8
Visible (ISO)
100
AcDbLine
 10
32916.60583371391
 20
13842.73562648657
 30
0.0
 11
32916.60583371391
 21
13850.73562648657
 31
0.0
  0
LINE
  5
200
330
6C
100
AcDbEntity
  8
Visible (ISO)
100
AcDbLine
 10
32924.60583371391
 20
13842.73562648657
 30
0.0
 11
32916.60583371391
 21
13842.73562648657
 31
0.0
  0
LINE
  5
201
330
6C
100
AcDbEntity
  8
Visible (ISO)
100
AcDbLine
 10
31932.60583371391
 20
13410.73562648657
 30
0.0
 11
31924.60583371391
 21
13418.73562648657
 31
0.0
  0
LINE
  5
202
330
6C
100
AcDbEntity
  8
Visible (ISO)
100
AcDbLine
 10
31932.60583371391
 20
13418.73562648657
 30
0.0
 11
31932.60583371391
 21
13410.73562648657
 31
0.0
  0
LINE
  5
203
330
6C
100
AcDbEntity
  8
Visible (ISO)
100
AcDbLine
 10
31924.60583371391
 20
13418.73562648657
 30
0.0
 11
31932.60583371391
 21
13418.73562648657
 31
0.0
  0
LINE
  5
204
330
6C
100
AcDbEntity
  8
Visible (ISO)
100
AcDbLine
 10
31932.60583371391
 20
13410.73562648657
 30
0.0
 11
32916.60583371391
 21
13410.73562648657
 31
0.0
  0
LINE
  5
205
330
6C
100
AcDbEntity
  8
Visible (ISO)
100
AcDbLine
 10
32916.60583371391
 20
13418.73562648657
 30
0.0
 11
31932.60583371391
 21
13418.73562648657
 31
0.0
  0
LINE
  5
206
330
6C
100
AcDbEntity
  8
Visible (ISO)
100
AcDbLine
 10
31932.60583371392
 20
13842.73562648657
 30
0.0
 11
31924.60583371391
 21
13842.73562648657
 31
0.0
  0
LINE
  5
207
330
6C
100
AcDbEntity
  8
Visible (ISO)
100
AcDbLine
 10
31932.60583371392
 20
13850.73562648657
 30
0.0
 11
31932.60583371392
 21
13842.73562648657
 31
0.0
  0
LINE
  5
208
330
6C
100
AcDbEntity
  8
Visible (ISO)
100
AcDbLine
 10
31924.60583371391
 20
13842.73562648657
 30
0.0
 11
31932.60583371392
 21
13850.73562648657
 31
0.0
  0
LINE
  5
209
330
6C
100
AcDbEntity
  8
Visible (ISO)
100
AcDbLine
 10
32916.60583371391
 20
13850.73562648657
 30
0.0
 11
31932.60583371392
 21
13850.73562648657
 31
0.0
  0
LINE
  5
20A
330
6C
100
AcDbEntity
  8
Visible (ISO)
100
AcDbLine
 10
31932.60583371392
 20
13842.73562648657
 30
0.0
 11
32916.60583371391
 21
13842.73562648657
 31
0.0
  0
LINE
  5
20B
330
6C
100
AcDbEntity
  8
Visible (ISO)
100
AcDbLine
 10
31932.60583371391
 20
13418.73562648657
 30
0.0
 11
31932.60583371392
 21
13842.73562648657
 31
0.0
  0
LINE
  5
20C
330
6C
100
AcDbEntity
  8
Visible (ISO)
100
AcDbLine
 10
31924.60583371391
 20
13842.73562648657
 30
0.0
 11
31924.60583371391
 21
13418.73562648657
 31
0.0
  0
LINE
  5
20D
330
6C
100
AcDbEntity
  8
Visible (ISO)
100
AcDbLine
 10
32916.60583371391
 20
13842.73562648657
 30
0.0
 11
32916.60583371391
 21
13418.73562648657
 31
0.0
  0
LINE
  5
20E
330
6C
100
AcDbEntity
  8
Visible (ISO)
100
AcDbLine
 10
32924.60583371391
 20
13418.73562648657
 30
0.0
 11
32924.60583371391
 21
13842.73562648657
 31
0.0
  0
LINE
  5
20F
330
6C
100
AcDbEntity
  8
Visible (ISO)
100
AcDbLine
 10
34166.60583371391
 20
13418.73562648657
 30
0.0
 11
34174.60583371391
 21
13418.73562648657
 31
0.0
  0
LINE
  5
210
330
6C
100
AcDbEntity
  8
Visible (ISO)
100
AcDbLine
 10
34166.60583371391
 20
13410.73562648657
 30
0.0
 11
34166.60583371391
 21
13418.73562648657
 31
0.0
  0
LINE
  5
211
330
6C
100
AcDbEntity
  8
Visible (ISO)
100
AcDbLine
 10
34174.60583371391
 20
13418.73562648657
 30
0.0
 11
34166.60583371391
 21
13410.73562648657
 31
0.0
  0
LINE
  5
212
330
6C
100
AcDbEntity
  8
Visible (ISO)
100
AcDbLine
 10
34166.60583371391
 20
13850.73562648657
 30
0.0
 11
34174.60583371391
 21
13842.73562648657
 31
0.0
  0
LINE
  5
213
330
6C
100
AcDbEntity
  8
Visible (ISO)
100
AcDbLine
 10
34166.60583371391
 20
13842.73562648657
 30
0.0
 11
34166.60583371391
 21
13850.73562648657
 31
0.0
  0
LINE
  5
214
330
6C
100
AcDbEntity
  8
Visible (ISO)
100
AcDbLine
 10
34174.60583371391
 20
13842.73562648657
 30
0.0
 11
34166.60583371391
 21
13842.73562648657
 31
0.0
  0
LINE
  5
215
330
6C
100
AcDbEntity
  8
Visible (ISO)
100
AcDbLine
 10
33182.60583371391
 20
13410.73562648657
 30
0.0
 11
33174.60583371391
 21
13418.73562648657
 31
0.0
  0
LINE
  5
216
330
6C
100
AcDbEntity
  8
Visible (ISO)
100
AcDbLine
 10
33182.60583371391
 20
13418.73562648657
 30
0.0
 11
33182.60583371391
 21
13410.73562648657
 31
0.0
  0
LINE
  5
217
330
6C
100
AcDbEntity
  8
Visible (ISO)
100
AcDbLine
 10
33174.60583371391
 20
13418.73562648657
 30
0.0
 11
33182.60583371391
 21
13418.73562648657
 31
0.0
  0
LINE
  5
218
330
6C
100
AcDbEntity
  8
Visible (ISO)
100
AcDbLine
 10
33182.60583371391
 20
13410.73562648657
 30
0.0
 11
34166.60583371391
 21
13410.73562648657
 31
0.0
  0
LINE
  5
219
330
6C
100
AcDbEntity
  8
Visible (ISO)
100
AcDbLine
 10
34166.60583371391
 20
13418.73562648657
 30
0.0
 11
33182.60583371391
 21
13418.73562648657
 31
0.0
  0
LINE
  5
21A
330
6C
100
AcDbEntity
  8
Visible (ISO)
100
AcDbLine
 10
33182.60583371391
 20
13842.73562648657
 30
0.0
 11
33174.60583371391
 21
13842.73562648657
 31
0.0
  0
LINE
  5
21B
330
6C
100
AcDbEntity
  8
Visible (ISO)
100
AcDbLine
 10
33182.60583371391
 20
13850.73562648657
 30
0.0
 11
33182.60583371391
 21
13842.73562648657
 31
0.0
  0
LINE
  5
21C
330
6C
100
AcDbEntity
  8
Visible (ISO)
100
AcDbLine
 10
33174.60583371391
 20
13842.73562648657
 30
0.0
 11
33182.60583371391
 21
13850.73562648657
 31
0.0
  0
LINE
  5
21D
330
6C
100
AcDbEntity
  8
Visible (ISO)
100
AcDbLine
 10
34166.60583371391
 20
13850.73562648657
 30
0.0
 11
33182.60583371391
 21
13850.73562648657
 31
0.0
  0
LINE
  5
21E
330
6C
100
AcDbEntity
  8
Visible (ISO)
100
AcDbLine
 10
33182.60583371391
 20
13842.73562648657
 30
0.0
 11
34166.60583371391
 21
13842.73562648657
 31
0.0
  0
LINE
  5
21F
330
6C
100
AcDbEntity
  8
Visible (ISO)
100
AcDbLine
 10
33182.60583371391
 20
13418.73562648657
 30
0.0
 11
33182.60583371391
 21
13842.73562648657
 31
0.0
  0
LINE
  5
220
330
6C
100
AcDbEntity
  8
Visible (ISO)
100
AcDbLine
 10
33174.60583371391
 20
13842.73562648657
 30
0.0
 11
33174.60583371391
 21
13418.73562648657
 31
0.0
  0
LINE
  5
221
330
6C
100
AcDbEntity
  8
Visible (ISO)
100
AcDbLine
 10
34166.60583371391
 20
13842.73562648657
 30
0.0
 11
34166.60583371391
 21
13418.73562648657
 31
0.0
  0
LINE
  5
222
330
6C
100
AcDbEntity
  8
Visible (ISO)
100
AcDbLine
 10
34174.60583371391
 20
13418.73562648657
 30
0.0
 11
34174.60583371391
 21
13842.73562648657
 31
0.0
  0
LINE
  5
223
330
6C
100
AcDbEntity
  8
Visible (ISO)
100
AcDbLine
 10
33166.60583371391
 20
13850.73562648657
 30
0.0
 11
33166.60583371391
 21
13850.93766751543
 31
0.0
  0
LINE
  5
224
330
6C
100
AcDbEntity
  8
Visible (ISO)
100
AcDbLine
 10
33174.60583371391
 20
13858.73562648657
 30
0.0
 11
33174.34749110069
 21
13858.47728387334
 31
0.0
  0
LINE
  5
225
330
6C
100
AcDbEntity
  8
Visible (ISO)
100
AcDbLine
 10
33166.86417632714
 20
13850.99396909979
 30
0.0
 11
33166.60583371391
 21
13850.73562648657
 31
0.0
  0
LINE
  5
226
330
6C
100
AcDbEntity
  8
Visible (ISO)
100
AcDbLine
 10
33174.40379268504
 20
13858.73562648657
 30
0.0
 11
33174.60583371391
 21
13858.73562648657
 31
0.0
  0
LINE
  5
227
330
6C
100
AcDbEntity
  8
Visible (ISO)
100
AcDbLine
 10
33174.60583371391
 20
14282.73562648656
 30
0.0
 11
33166.60583371391
 21
14282.73562648656
 31
0.0
  0
LINE
  5
228
330
6C
100
AcDbEntity
  8
Visible (ISO)
100
AcDbLine
 10
33166.60583371391
 20
14290.73562648657
 30
0.0
 11
33174.60583371391
 21
14282.73562648656
 31
0.0
  0
LINE
  5
229
330
6C
100
AcDbEntity
  8
Visible (ISO)
100
AcDbLine
 10
33166.60583371391
 20
14282.73562648656
 30
0.0
 11
33166.60583371391
 21
14290.73562648657
 31
0.0
  0
LINE
  5
22A
330
6C
100
AcDbEntity
  8
Visible (ISO)
100
AcDbLine
 10
32924.60583371391
 20
13858.73562648657
 30
0.0
 11
32924.80787474278
 21
13858.73562648657
 31
0.0
  0
LINE
  5
22B
330
6C
100
AcDbEntity
  8
Visible (ISO)
100
AcDbLine
 10
32932.60583371391
 20
13850.73562648657
 30
0.0
 11
32932.34749110069
 21
13850.99396909979
 31
0.0
  0
LINE
  5
22C
330
6C
100
AcDbEntity
  8
Visible (ISO)
100
AcDbLine
 10
32924.86417632714
 20
13858.47728387334
 30
0.0
 11
32924.60583371391
 21
13858.73562648657
 31
0.0
  0
LINE
  5
22D
330
6C
100
AcDbEntity
  8
Visible (ISO)
100
AcDbLine
 10
32932.60583371391
 20
13850.93766751544
 30
0.0
 11
32932.60583371391
 21
13850.73562648657
 31
0.0
  0
LINE
  5
22E
330
6C
100
AcDbEntity
  8
Visible (ISO)
100
AcDbLine
 10
32932.60583371391
 20
14290.73562648657
 30
0.0
 11
32932.60583371391
 21
14282.73562648656
 31
0.0
  0
LINE
  5
22F
330
6C
100
AcDbEntity
  8
Visible (ISO)
100
AcDbLine
 10
32924.60583371391
 20
14282.73562648656
 30
0.0
 11
32932.60583371391
 21
14290.73562648657
 31
0.0
  0
LINE
  5
230
330
6C
100
AcDbEntity
  8
Visible (ISO)
100
AcDbLine
 10
32932.60583371391
 20
14282.73562648656
 30
0.0
 11
32924.60583371391
 21
14282.73562648656
 31
0.0
  0
LINE
  5
231
330
6C
100
AcDbEntity
  8
Visible (ISO)
100
AcDbLine
 10
32924.60583371391
 20
14282.73562648656
 30
0.0
 11
32924.60583371391
 21
13920.73562648657
 31
0.0
  0
LINE
  5
232
330
6C
100
AcDbEntity
  8
Visible (ISO)
100
AcDbLine
 10
32924.60583371391
 20
13860.73562648657
 30
0.0
 11
32924.60583371391
 21
13858.73562648657
 31
0.0
  0
LINE
  5
233
330
6C
100
AcDbEntity
  8
Visible (ISO)
100
AcDbLine
 10
32932.60583371391
 20
13930.5335854577
 30
0.0
 11
32932.60583371391
 21
14282.73562648656
 31
0.0
  0
LINE
  5
234
330
6C
100
AcDbEntity
  8
Visible (ISO)
100
AcDbLine
 10
33166.60583371391
 20
14290.73562648657
 30
0.0
 11
32932.60583371391
 21
14290.73562648657
 31
0.0
  0
LINE
  5
235
330
6C
100
AcDbEntity
  8
Visible (ISO)
100
AcDbLine
 10
32932.60583371391
 20
14282.73562648656
 30
0.0
 11
33166.60583371391
 21
14282.73562648656
 31
0.0
  0
LINE
  5
236
330
6C
100
AcDbEntity
  8
Visible (ISO)
100
AcDbLine
 10
33174.60583371391
 20
13858.73562648657
 30
0.0
 11
33174.60583371391
 21
13860.73562648657
 31
0.0
  0
LINE
  5
237
330
6C
100
AcDbEntity
  8
Visible (ISO)
100
AcDbLine
 10
33174.60583371391
 20
13920.73562648657
 30
0.0
 11
33174.60583371391
 21
14282.73562648656
 31
0.0
  0
LINE
  5
238
330
6C
100
AcDbEntity
  8
Visible (ISO)
100
AcDbLine
 10
33166.60583371391
 20
14282.73562648656
 30
0.0
 11
33166.60583371391
 21
13930.5335854577
 31
0.0
  0
LINE
  5
239
330
6C
100
AcDbEntity
  8
Visible (ISO)
100
AcDbLine
 10
33166.60583371391
 20
14290.73562648657
 30
0.0
 11
33166.60583371391
 21
14298.73562648657
 31
0.0
  0
LINE
  5
23A
330
6C
100
AcDbEntity
  8
Visible (ISO)
100
AcDbLine
 10
33174.60583371391
 20
14298.73562648657
 30
0.0
 11
33166.60583371391
 21
14290.73562648657
 31
0.0
  0
LINE
  5
23B
330
6C
100
AcDbEntity
  8
Visible (ISO)
100
AcDbLine
 10
33166.60583371391
 20
14298.73562648657
 30
0.0
 11
33174.60583371391
 21
14298.73562648657
 31
0.0
  0
LINE
  5
23C
330
6C
100
AcDbEntity
  8
Visible (ISO)
100
AcDbLine
 10
33174.60583371391
 20
14722.73562648657
 30
0.0
 11
33166.60583371391
 21
14722.73562648657
 31
0.0
  0
LINE
  5
23D
330
6C
100
AcDbEntity
  8
Visible (ISO)
100
AcDbLine
 10
33166.60583371391
 20
14730.73562648657
 30
0.0
 11
33174.60583371391
 21
14722.73562648657
 31
0.0
  0
LINE
  5
23E
330
6C
100
AcDbEntity
  8
Visible (ISO)
100
AcDbLine
 10
33166.60583371391
 20
14722.73562648657
 30
0.0
 11
33166.60583371391
 21
14730.73562648657
 31
0.0
  0
LINE
  5
23F
330
6C
100
AcDbEntity
  8
Visible (ISO)
100
AcDbLine
 10
32924.60583371391
 20
14298.73562648657
 30
0.0
 11
32932.60583371391
 21
14298.73562648657
 31
0.0
  0
LINE
  5
240
330
6C
100
AcDbEntity
  8
Visible (ISO)
100
AcDbLine
 10
32932.60583371391
 20
14290.73562648657
 30
0.0
 11
32924.60583371391
 21
14298.73562648657
 31
0.0
  0
LINE
  5
241
330
6C
100
AcDbEntity
  8
Visible (ISO)
100
AcDbLine
 10
32932.60583371391
 20
14298.73562648657
 30
0.0
 11
32932.60583371391
 21
14290.73562648657
 31
0.0
  0
LINE
  5
242
330
6C
100
AcDbEntity
  8
Visible (ISO)
100
AcDbLine
 10
32932.60583371391
 20
14730.73562648657
 30
0.0
 11
32932.60583371391
 21
14722.73562648657
 31
0.0
  0
LINE
  5
243
330
6C
100
AcDbEntity
  8
Visible (ISO)
100
AcDbLine
 10
32924.60583371391
 20
14722.73562648657
 30
0.0
 11
32932.60583371391
 21
14730.73562648657
 31
0.0
  0
LINE
  5
244
330
6C
100
AcDbEntity
  8
Visible (ISO)
100
AcDbLine
 10
32932.60583371391
 20
14722.73562648657
 30
0.0
 11
32924.60583371391
 21
14722.73562648657
 31
0.0
  0
LINE
  5
245
330
6C
100
AcDbEntity
  8
Visible (ISO)
100
AcDbLine
 10
32924.60583371391
 20
14722.73562648657
 30
0.0
 11
32924.60583371391
 21
14298.73562648657
 31
0.0
  0
LINE
  5
246
330
6C
100
AcDbEntity
  8
Visible (ISO)
100
AcDbLine
 10
32932.60583371391
 20
14298.73562648657
 30
0.0
 11
32932.60583371391
 21
14722.73562648657
 31
0.0
  0
LINE
  5
247
330
6C
100
AcDbEntity
  8
Visible (ISO)
100
AcDbLine
 10
33166.60583371391
 20
14730.73562648657
 30
0.0
 11
32932.60583371391
 21
14730.73562648657
 31
0.0
  0
LINE
  5
248
330
6C
100
AcDbEntity
  8
Visible (ISO)
100
AcDbLine
 10
32932.60583371391
 20
14722.73562648657
 30
0.0
 11
33166.60583371391
 21
14722.73562648657
 31
0.0
  0
LINE
  5
249
330
6C
100
AcDbEntity
  8
Visible (ISO)
100
AcDbLine
 10
32932.60583371391
 20
14290.73562648657
 30
0.0
 11
33166.60583371391
 21
14290.73562648657
 31
0.0
  0
LINE
  5
24A
330
6C
100
AcDbEntity
  8
Visible (ISO)
100
AcDbLine
 10
33166.60583371391
 20
14298.73562648657
 30
0.0
 11
32932.60583371391
 21
14298.73562648657
 31
0.0
  0
LINE
  5
24B
330
6C
100
AcDbEntity
  8
Visible (ISO)
100
AcDbLine
 10
33174.60583371391
 20
14298.73562648657
 30
0.0
 11
33174.60583371391
 21
14722.73562648657
 31
0.0
  0
LINE
  5
24C
330
6C
100
AcDbEntity
  8
Visible (ISO)
100
AcDbLine
 10
33166.60583371391
 20
14722.73562648657
 30
0.0
 11
33166.60583371391
 21
14298.73562648657
 31
0.0
  0
LINE
  5
24D
330
6C
100
AcDbEntity
  8
Visible (ISO)
100
AcDbLine
 10
30416.60583371391
 20
12530.73562648657
 30
0.0
 11
30416.60583371391
 21
12538.73562648657
 31
0.0
  0
LINE
  5
24E
330
6C
100
AcDbEntity
  8
Visible (ISO)
100
AcDbLine
 10
30424.60583371391
 20
12538.73562648657
 30
0.0
 11
30416.60583371391
 21
12530.73562648657
 31
0.0
  0
LINE
  5
24F
330
6C
100
AcDbEntity
  8
Visible (ISO)
100
AcDbLine
 10
30416.60583371391
 20
12538.73562648657
 30
0.0
 11
30424.60583371391
 21
12538.73562648657
 31
0.0
  0
LINE
  5
250
330
6C
100
AcDbEntity
  8
Visible (ISO)
100
AcDbLine
 10
30424.60583371391
 20
12962.73562648656
 30
0.0
 11
30416.60583371391
 21
12962.73562648656
 31
0.0
  0
LINE
  5
251
330
6C
100
AcDbEntity
  8
Visible (ISO)
100
AcDbLine
 10
30416.60583371391
 20
12970.73562648656
 30
0.0
 11
30424.60583371391
 21
12962.73562648656
 31
0.0
  0
LINE
  5
252
330
6C
100
AcDbEntity
  8
Visible (ISO)
100
AcDbLine
 10
30416.60583371391
 20
12962.73562648656
 30
0.0
 11
30416.60583371391
 21
12970.73562648656
 31
0.0
  0
LINE
  5
253
330
6C
100
AcDbEntity
  8
Visible (ISO)
100
AcDbLine
 10
30174.60583371391
 20
12538.73562648657
 30
0.0
 11
30182.60583371391
 21
12538.73562648657
 31
0.0
  0
LINE
  5
254
330
6C
100
AcDbEntity
  8
Visible (ISO)
100
AcDbLine
 10
30182.60583371391
 20
12530.73562648657
 30
0.0
 11
30174.60583371391
 21
12538.73562648657
 31
0.0
  0
LINE
  5
255
330
6C
100
AcDbEntity
  8
Visible (ISO)
100
AcDbLine
 10
30182.60583371391
 20
12538.73562648657
 30
0.0
 11
30182.60583371391
 21
12530.73562648657
 31
0.0
  0
LINE
  5
256
330
6C
100
AcDbEntity
  8
Visible (ISO)
100
AcDbLine
 10
30182.60583371391
 20
12970.73562648656
 30
0.0
 11
30182.60583371391
 21
12962.73562648656
 31
0.0
  0
LINE
  5
257
330
6C
100
AcDbEntity
  8
Visible (ISO)
100
AcDbLine
 10
30174.60583371391
 20
12962.73562648656
 30
0.0
 11
30182.60583371391
 21
12970.73562648656
 31
0.0
  0
LINE
  5
258
330
6C
100
AcDbEntity
  8
Visible (ISO)
100
AcDbLine
 10
30182.60583371391
 20
12962.73562648656
 30
0.0
 11
30174.60583371391
 21
12962.73562648656
 31
0.0
  0
LINE
  5
259
330
6C
100
AcDbEntity
  8
Visible (ISO)
100
AcDbLine
 10
30174.60583371391
 20
12962.73562648656
 30
0.0
 11
30174.60583371391
 21
12538.73562648657
 31
0.0
  0
LINE
  5
25A
330
6C
100
AcDbEntity
  8
Visible (ISO)
100
AcDbLine
 10
30182.60583371391
 20
12538.73562648657
 30
0.0
 11
30182.60583371391
 21
12962.73562648656
 31
0.0
  0
LINE
  5
25B
330
6C
100
AcDbEntity
  8
Visible (ISO)
100
AcDbLine
 10
30416.60583371391
 20
12970.73562648656
 30
0.0
 11
30182.60583371391
 21
12970.73562648656
 31
0.0
  0
LINE
  5
25C
330
6C
100
AcDbEntity
  8
Visible (ISO)
100
AcDbLine
 10
30182.60583371391
 20
12962.73562648656
 30
0.0
 11
30416.60583371391
 21
12962.73562648656
 31
0.0
  0
LINE
  5
25D
330
6C
100
AcDbEntity
  8
Visible (ISO)
100
AcDbLine
 10
30416.60583371391
 20
12538.73562648657
 30
0.0
 11
30182.60583371391
 21
12538.73562648657
 31
0.0
  0
LINE
  5
25E
330
6C
100
AcDbEntity
  8
Visible (ISO)
100
AcDbLine
 10
30424.60583371391
 20
12538.73562648657
 30
0.0
 11
30424.60583371391
 21
12962.73562648656
 31
0.0
  0
LINE
  5
25F
330
6C
100
AcDbEntity
  8
Visible (ISO)
100
AcDbLine
 10
30416.60583371391
 20
12962.73562648656
 30
0.0
 11
30416.60583371391
 21
12538.73562648657
 31
0.0
  0
LINE
  5
260
330
6C
100
AcDbEntity
  8
Visible (ISO)
100
AcDbLine
 10
30416.60583371391
 20
12970.73562648657
 30
0.0
 11
30416.60583371391
 21
12978.73562648657
 31
0.0
  0
LINE
  5
261
330
6C
100
AcDbEntity
  8
Visible (ISO)
100
AcDbLine
 10
30424.60583371391
 20
12978.73562648657
 30
0.0
 11
30416.60583371391
 21
12970.73562648657
 31
0.0
  0
LINE
  5
262
330
6C
100
AcDbEntity
  8
Visible (ISO)
100
AcDbLine
 10
30416.60583371391
 20
12978.73562648657
 30
0.0
 11
30424.60583371391
 21
12978.73562648657
 31
0.0
  0
LINE
  5
263
330
6C
100
AcDbEntity
  8
Visible (ISO)
100
AcDbLine
 10
30424.60583371391
 20
13402.73562648656
 30
0.0
 11
30416.60583371391
 21
13402.73562648656
 31
0.0
  0
LINE
  5
264
330
6C
100
AcDbEntity
  8
Visible (ISO)
100
AcDbLine
 10
30416.60583371391
 20
13410.73562648656
 30
0.0
 11
30424.60583371391
 21
13402.73562648656
 31
0.0
  0
LINE
  5
265
330
6C
100
AcDbEntity
  8
Visible (ISO)
100
AcDbLine
 10
30416.60583371391
 20
13402.73562648656
 30
0.0
 11
30416.60583371391
 21
13410.73562648656
 31
0.0
  0
LINE
  5
266
330
6C
100
AcDbEntity
  8
Visible (ISO)
100
AcDbLine
 10
30174.60583371391
 20
12978.73562648657
 30
0.0
 11
30182.60583371391
 21
12978.73562648657
 31
0.0
  0
LINE
  5
267
330
6C
100
AcDbEntity
  8
Visible (ISO)
100
AcDbLine
 10
30182.60583371391
 20
12970.73562648657
 30
0.0
 11
30174.60583371391
 21
12978.73562648657
 31
0.0
  0
LINE
  5
268
330
6C
100
AcDbEntity
  8
Visible (ISO)
100
AcDbLine
 10
30182.60583371391
 20
12978.73562648657
 30
0.0
 11
30182.60583371391
 21
12970.73562648657
 31
0.0
  0
LINE
  5
269
330
6C
100
AcDbEntity
  8
Visible (ISO)
100
AcDbLine
 10
30182.60583371391
 20
13410.73562648656
 30
0.0
 11
30182.60583371391
 21
13402.73562648656
 31
0.0
  0
LINE
  5
26A
330
6C
100
AcDbEntity
  8
Visible (ISO)
100
AcDbLine
 10
30174.60583371391
 20
13402.73562648656
 30
0.0
 11
30182.60583371391
 21
13410.73562648656
 31
0.0
  0
LINE
  5
26B
330
6C
100
AcDbEntity
  8
Visible (ISO)
100
AcDbLine
 10
30182.60583371391
 20
13402.73562648656
 30
0.0
 11
30174.60583371391
 21
13402.73562648656
 31
0.0
  0
LINE
  5
26C
330
6C
100
AcDbEntity
  8
Visible (ISO)
100
AcDbLine
 10
30174.60583371391
 20
13402.73562648656
 30
0.0
 11
30174.60583371391
 21
12978.73562648657
 31
0.0
  0
LINE
  5
26D
330
6C
100
AcDbEntity
  8
Visible (ISO)
100
AcDbLine
 10
30182.60583371391
 20
12978.73562648657
 30
0.0
 11
30182.60583371391
 21
13402.73562648656
 31
0.0
  0
LINE
  5
26E
330
6C
100
AcDbEntity
  8
Visible (ISO)
100
AcDbLine
 10
30416.60583371391
 20
13410.73562648656
 30
0.0
 11
30182.60583371391
 21
13410.73562648656
 31
0.0
  0
LINE
  5
26F
330
6C
100
AcDbEntity
  8
Visible (ISO)
100
AcDbLine
 10
30182.60583371391
 20
13402.73562648656
 30
0.0
 11
30416.60583371391
 21
13402.73562648656
 31
0.0
  0
LINE
  5
270
330
6C
100
AcDbEntity
  8
Visible (ISO)
100
AcDbLine
 10
30182.60583371391
 20
12970.73562648657
 30
0.0
 11
30416.60583371391
 21
12970.73562648657
 31
0.0
  0
LINE
  5
271
330
6C
100
AcDbEntity
  8
Visible (ISO)
100
AcDbLine
 10
30416.60583371391
 20
12978.73562648657
 30
0.0
 11
30182.60583371391
 21
12978.73562648657
 31
0.0
  0
LINE
  5
272
330
6C
100
AcDbEntity
  8
Visible (ISO)
100
AcDbLine
 10
30424.60583371391
 20
12978.73562648657
 30
0.0
 11
30424.60583371391
 21
13402.73562648656
 31
0.0
  0
LINE
  5
273
330
6C
100
AcDbEntity
  8
Visible (ISO)
100
AcDbLine
 10
30416.60583371391
 20
13402.73562648656
 30
0.0
 11
30416.60583371391
 21
12978.73562648657
 31
0.0
  0
ARC
  5
274
330
6C
100
AcDbEntity
  8
Visible (ISO)
100
AcDbCircle
 10
32934.60583371391
 20
13920.73562648657
 30
0.0
 40
10.00000000000003
100
AcDbArc
 50
90.0
 51
180.0
  0
ARC
  5
275
330
6C
100
AcDbEntity
  8
Visible (ISO)
100
AcDbCircle
 10
33164.60583371391
 20
13860.73562648657
 30
0.0
 40
10.00000000000003
100
AcDbArc
 50
270.0
 51
0.0
  0
ARC
  5
276
330
6C
100
AcDbEntity
  8
Visible (ISO)
100
AcDbCircle
 10
32934.60583371391
 20
13860.73562648657
 30
0.0
 40
10.00000000000003
100
AcDbArc
 50
180.0
 51
270.0
  0
LINE
  5
277
330
6C
100
AcDbEntity
  8
Visible (ISO)
100
AcDbLine
 10
32924.60583371391
 20
13920.73562648657
 30
0.0
 11
32924.60583371391
 21
13860.73562648657
 31
0.0
  0
LINE
  5
278
330
6C
100
AcDbEntity
  8
Visible (ISO)
100
AcDbLine
 10
33174.60583371391
 20
13860.73562648657
 30
0.0
 11
33174.60583371391
 21
13920.73562648657
 31
0.0
  0
ARC
  5
279
330
6C
100
AcDbEntity
  8
Visible (ISO)
100
AcDbCircle
 10
33164.60583371391
 20
13920.73562648657
 30
0.0
 40
10.00000000000003
100
AcDbArc
 50
0.0
 51
90.0
  0
LINE
  5
27A
330
6C
100
AcDbEntity
  8
Visible (ISO)
100
AcDbLine
 10
33164.60583371391
 20
13930.73562648657
 30
0.0
 11
32934.60583371391
 21
13930.73562648657
 31
0.0
  0
ARC
  5
27B
330
6C
100
AcDbEntity
  8
Visible (ISO)
100
AcDbCircle
 10
32934.60583371391
 20
14800.73562648657
 30
0.0
 40
10.0
100
AcDbArc
 50
90.0
 51
180.0
  0
ARC
  5
27C
330
6C
100
AcDbEntity
  8
Visible (ISO)
100
AcDbCircle
 10
33164.60583371391
 20
14740.73562648657
 30
0.0
 40
9.999999999999998
100
AcDbArc
 50
270.0
 51
0.0
  0
ARC
  5
27D
330
6C
100
AcDbEntity
  8
Visible (ISO)
100
AcDbCircle
 10
32934.60583371391
 20
14740.73562648657
 30
0.0
 40
10.0
100
AcDbArc
 50
180.0
 51
270.0
  0
LINE
  5
27E
330
6C
100
AcDbEntity
  8
Visible (ISO)
100
AcDbLine
 10
32924.60583371391
 20
14800.73562648657
 30
0.0
 11
32924.60583371391
 21
14740.73562648657
 31
0.0
  0
LINE
  5
27F
330
6C
100
AcDbEntity
  8
Visible (ISO)
100
AcDbLine
 10
33174.60583371391
 20
14740.73562648657
 30
0.0
 11
33174.60583371391
 21
14800.73562648657
 31
0.0
  0
ARC
  5
280
330
6C
100
AcDbEntity
  8
Visible (ISO)
100
AcDbCircle
 10
33164.60583371391
 20
14800.73562648657
 30
0.0
 40
9.999999999999998
100
AcDbArc
 50
0.0
 51
90.0
  0
LINE
  5
281
330
6C
100
AcDbEntity
  8
Visible (ISO)
100
AcDbLine
 10
33164.60583371391
 20
14810.73562648657
 30
0.0
 11
32934.60583371391
 21
14810.73562648657
 31
0.0
  0
ARC
  5
282
330
6C
100
AcDbEntity
  8
Visible (ISO)
100
AcDbCircle
 10
33184.60583371391
 20
13920.73562648657
 30
0.0
 40
10.00000000000004
100
AcDbArc
 50
90.0
 51
180.0
  0
LINE
  5
283
330
6C
100
AcDbEntity
  8
Visible (ISO)
100
AcDbLine
 10
33174.60583371391
 20
13920.73562648657
 30
0.0
 11
33174.60583371391
 21
13860.73562648657
 31
0.0
  0
ARC
  5
284
330
6C
100
AcDbEntity
  8
Visible (ISO)
100
AcDbCircle
 10
33184.60583371391
 20
13860.73562648657
 30
0.0
 40
10.00000000000004
100
AcDbArc
 50
180.0
 51
270.0
  0
ARC
  5
285
330
6C
100
AcDbEntity
  8
Visible (ISO)
100
AcDbCircle
 10
34164.60583371391
 20
13860.73562648657
 30
0.0
 40
10.00000000000004
100
AcDbArc
 50
270.0
 51
0.0
  0
LINE
  5
286
330
6C
100
AcDbEntity
  8
Visible (ISO)
100
AcDbLine
 10
34174.60583371391
 20
13860.73562648657
 30
0.0
 11
34174.60583371391
 21
13920.73562648657
 31
0.0
  0
ARC
  5
287
330
6C
100
AcDbEntity
  8
Visible (ISO)
100
AcDbCircle
 10
34164.60583371391
 20
13920.73562648657
 30
0.0
 40
10.00000000000004
100
AcDbArc
 50
0.0
 51
90.0
  0
LINE
  5
288
330
6C
100
AcDbEntity
  8
Visible (ISO)
100
AcDbLine
 10
34164.60583371391
 20
13930.73562648657
 30
0.0
 11
33184.60583371391
 21
13930.73562648657
 31
0.0
  0
ARC
  5
289
330
6C
100
AcDbEntity
  8
Visible (ISO)
100
AcDbCircle
 10
31934.60583371392
 20
13920.73562648657
 30
0.0
 40
9.999999999999985
100
AcDbArc
 50
90.0
 51
180.0
  0
LINE
  5
28A
330
6C
100
AcDbEntity
  8
Visible (ISO)
100
AcDbLine
 10
31924.60583371392
 20
13920.73562648657
 30
0.0
 11
31924.60583371392
 21
13860.73562648657
 31
0.0
  0
ARC
  5
28B
330
6C
100
AcDbEntity
  8
Visible (ISO)
100
AcDbCircle
 10
31934.60583371392
 20
13860.73562648657
 30
0.0
 40
9.999999999999985
100
AcDbArc
 50
180.0
 51
270.0
  0
ARC
  5
28C
330
6C
100
AcDbEntity
  8
Visible (ISO)
100
AcDbCircle
 10
32914.60583371391
 20
13860.73562648657
 30
0.0
 40
9.999999999999984
100
AcDbArc
 50
270.0
 51
0.0
  0
LINE
  5
28D
330
6C
100
AcDbEntity
  8
Visible (ISO)
100
AcDbLine
 10
32924.60583371391
 20
13860.73562648657
 30
0.0
 11
32924.60583371391
 21
13920.73562648657
 31
0.0
  0
ARC
  5
28E
330
6C
100
AcDbEntity
  8
Visible (ISO)
100
AcDbCircle
 10
32914.60583371391
 20
13920.73562648657
 30
0.0
 40
9.999999999999984
100
AcDbArc
 50
0.0
 51
90.0
  0
LINE
  5
28F
330
6C
100
AcDbEntity
  8
Visible (ISO)
100
AcDbLine
 10
32914.60583371391
 20
13930.73562648657
 30
0.0
 11
31934.60583371392
 21
13930.73562648657
 31
0.0
  0
ARC
  5
290
330
6C
100
AcDbEntity
  8
Visible (ISO)
100
AcDbCircle
 10
30184.60583371392
 20
13480.73562648656
 30
0.0
 40
10.0
100
AcDbArc
 50
90.0
 51
180.0
  0
ARC
  5
291
330
6C
100
AcDbEntity
  8
Visible (ISO)
100
AcDbCircle
 10
30414.60583371391
 20
13420.73562648656
 30
0.0
 40
10.0
100
AcDbArc
 50
270.0
 51
0.0
  0
ARC
  5
292
330
6C
100
AcDbEntity
  8
Visible (ISO)
100
AcDbCircle
 10
30184.60583371392
 20
13420.73562648656
 30
0.0
 40
10.0
100
AcDbArc
 50
180.0
 51
270.0
  0
LINE
  5
293
330
6C
100
AcDbEntity
  8
Visible (ISO)
100
AcDbLine
 10
30174.60583371391
 20
13480.73562648656
 30
0.0
 11
30174.60583371391
 21
13420.73562648656
 31
0.0
  0
LINE
  5
294
330
6C
100
AcDbEntity
  8
Visible (ISO)
100
AcDbLine
 10
30424.60583371391
 20
13420.73562648656
 30
0.0
 11
30424.60583371391
 21
13480.73562648656
 31
0.0
  0
ARC
  5
295
330
6C
100
AcDbEntity
  8
Visible (ISO)
100
AcDbCircle
 10
30414.60583371391
 20
13480.73562648656
 30
0.0
 40
10.0
100
AcDbArc
 50
0.0
 51
90.0
  0
LINE
  5
296
330
6C
100
AcDbEntity
  8
Visible (ISO)
100
AcDbLine
 10
30414.60583371391
 20
13490.73562648656
 30
0.0
 11
30184.60583371392
 21
13490.73562648656
 31
0.0
  0
CIRCLE
  5
297
330
6C
100
AcDbEntity
  8
Visible (ISO)
100
AcDbCircle
 10
33049.60583371391
 20
12860.73562648657
 30
0.0
 40
20.0
  0
CIRCLE
  5
298
330
6C
100
AcDbEntity
  8
Visible (ISO)
100
AcDbCircle
 10
33049.60583371391
 20
12640.73562648657
 30
0.0
 40
20.0
  0
CIRCLE
  5
299
330
6C
100
AcDbEntity
  8
Visible (ISO)
100
AcDbCircle
 10
33049.60583371391
 20
13300.73562648657
 30
0.0
 40
20.0
  0
CIRCLE
  5
29A
330
6C
100
AcDbEntity
  8
Visible (ISO)
100
AcDbCircle
 10
33049.60583371391
 20
13080.73562648657
 30
0.0
 40
20.0
  0
CIRCLE
  5
29B
330
6C
100
AcDbEntity
  8
Visible (ISO)
100
AcDbCircle
 10
33049.60583371391
 20
13740.73562648657
 30
0.0
 40
20.0
  0
CIRCLE
  5
29C
330
6C
100
AcDbEntity
  8
Visible (ISO)
100
AcDbCircle
 10
33049.60583371391
 20
13520.73562648657
 30
0.0
 40
20.0
  0
CIRCLE
  5
29D
330
6C
100
AcDbEntity
  8
Visible (ISO)
100
AcDbCircle
 10
33049.60583371391
 20
14180.73562648657
 30
0.0
 40
20.0
  0
CIRCLE
  5
29E
330
6C
100
AcDbEntity
  8
Visible (ISO)
100
AcDbCircle
 10
33049.60583371391
 20
13960.73562648657
 30
0.0
 40
20.0
  0
CIRCLE
  5
29F
330
6C
100
AcDbEntity
  8
Visible (ISO)
100
AcDbCircle
 10
33049.60583371391
 20
14620.73562648657
 30
0.0
 40
20.0
  0
CIRCLE
  5
2A0
330
6C
100
AcDbEntity
  8
Visible (ISO)
100
AcDbCircle
 10
33049.60583371391
 20
14400.73562648657
 30
0.0
 40
20.0
  0
CIRCLE
  5
2A1
330
6C
100
AcDbEntity
  8
Visible (ISO)
100
AcDbCircle
 10
33299.60583371391
 20
12860.73562648657
 30
0.0
 40
20.0
  0
CIRCLE
  5
2A2
330
6C
100
AcDbEntity
  8
Visible (ISO)
100
AcDbCircle
 10
33299.60583371391
 20
12640.73562648657
 30
0.0
 40
20.0
  0
CIRCLE
  5
2A3
330
6C
100
AcDbEntity
  8
Visible (ISO)
100
AcDbCircle
 10
34049.60583371391
 20
12860.73562648657
 30
0.0
 40
20.0
  0
CIRCLE
  5
2A4
330
6C
100
AcDbEntity
  8
Visible (ISO)
100
AcDbCircle
 10
34049.60583371391
 20
12640.73562648657
 30
0.0
 40
20.0
  0
CIRCLE
  5
2A5
330
6C
100
AcDbEntity
  8
Visible (ISO)
100
AcDbCircle
 10
32049.60583371391
 20
12860.73562648657
 30
0.0
 40
20.0
  0
CIRCLE
  5
2A6
330
6C
100
AcDbEntity
  8
Visible (ISO)
100
AcDbCircle
 10
32049.60583371391
 20
12640.73562648657
 30
0.0
 40
20.0
  0
CIRCLE
  5
2A7
330
6C
100
AcDbEntity
  8
Visible (ISO)
100
AcDbCircle
 10
32799.60583371391
 20
12860.73562648657
 30
0.0
 40
20.0
  0
CIRCLE
  5
2A8
330
6C
100
AcDbEntity
  8
Visible (ISO)
100
AcDbCircle
 10
32799.60583371391
 20
12640.73562648657
 30
0.0
 40
20.0
  0
CIRCLE
  5
2A9
330
6C
100
AcDbEntity
  8
Visible (ISO)
100
AcDbCircle
 10
32049.60583371391
 20
13300.73562648657
 30
0.0
 40
20.0
  0
CIRCLE
  5
2AA
330
6C
100
AcDbEntity
  8
Visible (ISO)
100
AcDbCircle
 10
32049.60583371391
 20
13080.73562648657
 30
0.0
 40
20.0
  0
CIRCLE
  5
2AB
330
6C
100
AcDbEntity
  8
Visible (ISO)
100
AcDbCircle
 10
32799.60583371391
 20
13300.73562648657
 30
0.0
 40
20.0
  0
CIRCLE
  5
2AC
330
6C
100
AcDbEntity
  8
Visible (ISO)
100
AcDbCircle
 10
32799.60583371391
 20
13080.73562648657
 30
0.0
 40
20.0
  0
CIRCLE
  5
2AD
330
6C
100
AcDbEntity
  8
Visible (ISO)
100
AcDbCircle
 10
32049.60583371391
 20
13740.73562648657
 30
0.0
 40
20.0
  0
CIRCLE
  5
2AE
330
6C
100
AcDbEntity
  8
Visible (ISO)
100
AcDbCircle
 10
32049.60583371391
 20
13520.73562648657
 30
0.0
 40
20.0
  0
CIRCLE
  5
2AF
330
6C
100
AcDbEntity
  8
Visible (ISO)
100
AcDbCircle
 10
32799.60583371391
 20
13740.73562648657
 30
0.0
 40
20.0
  0
CIRCLE
  5
2B0
330
6C
100
AcDbEntity
  8
Visible (ISO)
100
AcDbCircle
 10
32799.60583371391
 20
13520.73562648657
 30
0.0
 40
20.0
  0
CIRCLE
  5
2B1
330
6C
100
AcDbEntity
  8
Visible (ISO)
100
AcDbCircle
 10
33299.60583371391
 20
13300.73562648657
 30
0.0
 40
20.0
  0
CIRCLE
  5
2B2
330
6C
100
AcDbEntity
  8
Visible (ISO)
100
AcDbCircle
 10
33299.60583371391
 20
13080.73562648657
 30
0.0
 40
20.0
  0
CIRCLE
  5
2B3
330
6C
100
AcDbEntity
  8
Visible (ISO)
100
AcDbCircle
 10
34049.60583371391
 20
13300.73562648657
 30
0.0
 40
20.0
  0
CIRCLE
  5
2B4
330
6C
100
AcDbEntity
  8
Visible (ISO)
100
AcDbCircle
 10
34049.60583371391
 20
13080.73562648657
 30
0.0
 40
20.0
  0
CIRCLE
  5
2B5
330
6C
100
AcDbEntity
  8
Visible (ISO)
100
AcDbCircle
 10
33299.60583371391
 20
13740.73562648657
 30
0.0
 40
20.0
  0
CIRCLE
  5
2B6
330
6C
100
AcDbEntity
  8
Visible (ISO)
100
AcDbCircle
 10
33299.60583371391
 20
13520.73562648657
 30
0.0
 40
20.0
  0
CIRCLE
  5
2B7
330
6C
100
AcDbEntity
  8
Visible (ISO)
100
AcDbCircle
 10
34049.60583371391
 20
13740.73562648657
 30
0.0
 40
20.0
  0
CIRCLE
  5
2B8
330
6C
100
AcDbEntity
  8
Visible (ISO)
100
AcDbCircle
 10
34049.60583371391
 20
13520.73562648657
 30
0.0
 40
20.0
  0
CIRCLE
  5
2B9
330
6C
100
AcDbEntity
  8
Visible (ISO)
100
AcDbCircle
 10
30299.60583371391
 20
12860.73562648657
 30
0.0
 40
20.0
  0
CIRCLE
  5
2BA
330
6C
100
AcDbEntity
  8
Visible (ISO)
100
AcDbCircle
 10
30299.60583371391
 20
12640.73562648657
 30
0.0
 40
20.0
  0
CIRCLE
  5
2BB
330
6C
100
AcDbEntity
  8
Visible (ISO)
100
AcDbCircle
 10
30299.60583371391
 20
13300.73562648656
 30
0.0
 40
20.0
  0
CIRCLE
  5
2BC
330
6C
100
AcDbEntity
  8
Visible (ISO)
100
AcDbCircle
 10
30299.60583371391
 20
13080.73562648657
 30
0.0
 40
20.0
  0
LINE
  5
2BD
330
6C
100
AcDbEntity
  8
Visible (ISO)
100
AcDbLine
 10
33174.60583371391
 20
14637.58562648656
 30
0.0
 11
34394.60583371391
 21
14637.58562648656
 31
0.0
  0
LINE
  5
2BE
330
6C
100
AcDbEntity
  8
Visible (ISO)
100
AcDbLine
 10
33174.60583371391
 20
14603.88562648657
 30
0.0
 11
34394.60583371391
 21
14603.88562648657
 31
0.0
  0
LINE
  5
2BF
330
6C
100
AcDbEntity
  8
Visible (ISO)
100
AcDbLine
 10
33174.60583371391
 20
14417.58562648657
 30
0.0
 11
34394.60583371391
 21
14417.58562648657
 31
0.0
  0
LINE
  5
2C0
330
6C
100
AcDbEntity
  8
Visible (ISO)
100
AcDbLine
 10
33174.60583371391
 20
14383.88562648657
 30
0.0
 11
34394.60583371391
 21
14383.88562648657
 31
0.0
  0
LINE
  5
2C1
330
6C
100
AcDbEntity
  8
Visible (ISO)
100
AcDbLine
 10
34394.60583371391
 20
14573.23562648653
 30
0.0
 11
34394.60583371391
 21
14583.23562648652
 31
0.0
  0
LINE
  5
2C2
330
6C
100
AcDbEntity
  8
Visible (ISO)
100
AcDbLine
 10
34394.60583371391
 20
14573.23562648653
 30
0.0
 11
34399.6058337139
 21
14573.23562648653
 31
0.0
  0
LINE
  5
2C3
330
6C
100
AcDbEntity
  8
Visible (ISO)
100
AcDbLine
 10
34399.6058337139
 20
14668.23562648653
 30
0.0
 11
34394.60583371391
 21
14668.23562648653
 31
0.0
  0
LINE
  5
2C4
330
6C
100
AcDbEntity
  8
Visible (ISO)
100
AcDbLine
 10
34394.60583371391
 20
14658.23562648652
 30
0.0
 11
34394.60583371391
 21
14668.23562648653
 31
0.0
  0
LINE
  5
2C5
330
6C
100
AcDbEntity
  8
Visible (ISO)
100
AcDbLine
 10
34394.60583371391
 20
14658.23562648652
 30
0.0
 11
34394.60583371391
 21
14583.23562648652
 31
0.0
  0
LINE
  5
2C6
330
6C
100
AcDbEntity
  8
Visible (ISO)
100
AcDbLine
 10
34394.60583371391
 20
14353.23562648657
 30
0.0
 11
34394.60583371391
 21
14363.23562648658
 31
0.0
  0
LINE
  5
2C7
330
6C
100
AcDbEntity
  8
Visible (ISO)
100
AcDbLine
 10
34394.60583371391
 20
14353.23562648657
 30
0.0
 11
34399.6058337139
 21
14353.23562648657
 31
0.0
  0
LINE
  5
2C8
330
6C
100
AcDbEntity
  8
Visible (ISO)
100
AcDbLine
 10
34399.6058337139
 20
14448.23562648658
 30
0.0
 11
34394.60583371391
 21
14448.23562648658
 31
0.0
  0
LINE
  5
2C9
330
6C
100
AcDbEntity
  8
Visible (ISO)
100
AcDbLine
 10
34394.60583371391
 20
14438.23562648658
 30
0.0
 11
34394.60583371391
 21
14448.23562648658
 31
0.0
  0
LINE
  5
2CA
330
6C
100
AcDbEntity
  8
Visible (ISO)
100
AcDbLine
 10
34394.60583371391
 20
14438.23562648658
 30
0.0
 11
34394.60583371391
 21
14363.23562648658
 31
0.0
  0
LINE
  5
2CB
330
6C
100
AcDbEntity
  8
Visible (ISO)
100
AcDbLine
 10
34399.60583371391
 20
14830.73562648652
 30
0.0
 11
34399.60583371391
 21
12530.73562648657
 31
0.0
  0
LINE
  5
2CE
330
6C
100
AcDbEntity
  8
Visible (ISO)
100
AcDbLine
 10
34499.60583371391
 20
12530.73562648657
 30
0.0
 11
34499.60583371391
 21
14830.73562648652
 31
0.0
  0
LINE
  5
2CF
330
6C
100
AcDbEntity
  8
Visible (ISO)
100
AcDbLine
 10
34494.60583371391
 20
14830.73562648652
 30
0.0
 11
34404.60583371391
 21
14830.73562648652
 31
0.0
  0
LINE
  5
318
330
6C
100
AcDbEntity
  8
Visible (ISO)
100
AcDbLine
 10
34402.60583371391
 20
14830.73562648653
 30
0.0
 11
34399.60583371391
 21
14830.73562648653
 31
0.0
  0
LINE
  5
319
330
6C
100
AcDbEntity
  8
Visible (ISO)
100
AcDbLine
 10
34499.60583371391
 20
14830.73562648653
 30
0.0
 11
34496.6058337139
 21
14830.73562648653
 31
0.0
  0
ARC
  5
31A
330
6C
100
AcDbEntity
  8
Visible (ISO)
100
AcDbCircle
 10
34402.60583371391
 20
14832.73562648653
 30
0.0
 40
2.999999999999984
100
AcDbArc
 50
90.0
 51
180.0
  0
LINE
  5
31B
330
6C
100
AcDbEntity
  8
Visible (ISO)
100
AcDbLine
 10
34399.60583371391
 20
14832.73562648653
 30
0.0
 11
34399.60583371391
 21
14830.73562648653
 31
0.0
  0
ARC
  5
31C
330
6C
100
AcDbEntity
  8
Visible (ISO)
100
AcDbCircle
 10
34496.6058337139
 20
14832.73562648653
 30
0.0
 40
2.99999999999998
100
AcDbArc
 50
0.0
 51
90.0
  0
LINE
  5
31D
330
6C
100
AcDbEntity
  8
Visible (ISO)
100
AcDbLine
 10
34499.60583371391
 20
14830.73562648653
 30
0.0
 11
34499.60583371391
 21
14832.73562648653
 31
0.0
  0
LINE
  5
31E
330
6C
100
AcDbEntity
  8
Visible (ISO)
100
AcDbLine
 10
34496.6058337139
 20
14835.73562648653
 30
0.0
 11
34402.60583371391
 21
14835.73562648653
 31
0.0
  0
LINE
  5
31F
330
6C
100
AcDbEntity
  8
Visible (ISO)
100
AcDbLine
 10
34496.6058337139
 20
14830.73562648653
 30
0.0
 11
34402.60583371391
 21
14830.73562648653
 31
0.0
  0
LINE
  5
320
330
6C
100
AcDbEntity
  8
Visible (ISO)
100
AcDbLine
 10
33002.60583371386
 20
14830.73562648628
 30
0.0
 11
32999.60583371386
 21
14830.73562648629
 31
0.0
  0
LINE
  5
321
330
6C
100
AcDbEntity
  8
Visible (ISO)
100
AcDbLine
 10
33099.60583371386
 20
14830.73562648629
 30
0.0
 11
33096.60583371385
 21
14830.73562648628
 31
0.0
  0
ARC
  5
322
330
6C
100
AcDbEntity
  8
Visible (ISO)
100
AcDbCircle
 10
33002.60583371386
 20
14832.73562648629
 30
0.0
 40
2.999999999999981
100
AcDbArc
 50
90.0
 51
180.0
  0
LINE
  5
323
330
6C
100
AcDbEntity
  8
Visible (ISO)
100
AcDbLine
 10
32999.60583371386
 20
14832.73562648629
 30
0.0
 11
32999.60583371386
 21
14830.73562648629
 31
0.0
  0
ARC
  5
324
330
6C
100
AcDbEntity
  8
Visible (ISO)
100
AcDbCircle
 10
33096.60583371385
 20
14832.73562648629
 30
0.0
 40
2.999999999999978
100
AcDbArc
 50
0.0
 51
90.0
  0
LINE
  5
325
330
6C
100
AcDbEntity
  8
Visible (ISO)
100
AcDbLine
 10
33099.60583371386
 20
14830.73562648629
 30
0.0
 11
33099.60583371386
 21
14832.73562648629
 31
0.0
  0
LINE
  5
326
330
6C
100
AcDbEntity
  8
Visible (ISO)
100
AcDbLine
 10
33096.60583371385
 20
14835.73562648629
 30
0.0
 11
33002.60583371386
 21
14835.73562648629
 31
0.0
  0
LINE
  5
327
330
6C
100
AcDbEntity
  8
Visible (ISO)
100
AcDbLine
 10
33096.60583371385
 20
14830.73562648628
 30
0.0
 11
33002.60583371386
 21
14830.73562648628
 31
0.0
  0
LINE
  5
328
330
6C
100
AcDbEntity
  8
Visible (ISO)
100
AcDbLine
 10
32999.60583371386
 20
14830.73562648656
 30
0.0
 11
32999.60583371386
 21
14810.73562648656
 31
0.0
  0
LINE
  5
32B
330
6C
100
AcDbEntity
  8
Visible (ISO)
100
AcDbLine
 10
33099.60583371386
 20
14810.73562648656
 30
0.0
 11
33099.60583371386
 21
14830.73562648656
 31
0.0
  0
LINE
  5
32C
330
6C
100
AcDbEntity
  8
Visible (ISO)
100
AcDbLine
 10
33094.60583371386
 20
14830.73562648656
 30
0.0
 11
33004.60583371386
 21
14830.73562648656
 31
0.0
  0
LINE
  5
32D
330
6C
100
AcDbEntity
  8
Visible (ISO)
100
AcDbLine
 10
33104.60583371385
 20
14813.23562648656
 30
0.0
 11
33104.60583371385
 21
14810.73562648656
 31
0.0
  0
LINE
  5
32E
330
6C
100
AcDbEntity
  8
Visible (ISO)
100
AcDbLine
 10
33104.60583371385
 20
14813.23562648656
 30
0.0
 11
33099.60583371386
 21
14813.23562648656
 31
0.0
  0
LINE
  5
32F
330
6C
100
AcDbEntity
  8
Visible (ISO)
100
AcDbLine
 10
34394.60583371386
 20
12868.23562648657
 30
0.0
 11
34394.60583371386
 21
12878.23562648657
 31
0.0
  0
LINE
  5
330
330
6C
100
AcDbEntity
  8
Visible (ISO)
100
AcDbLine
 10
34394.60583371386
 20
14803.23562648656
 30
0.0
 11
34394.60583371386
 21
14813.23562648656
 31
0.0
  0
LINE
  5
331
330
6C
100
AcDbEntity
  8
Visible (ISO)
100
AcDbLine
 10
34394.60583371386
 20
12868.23562648657
 30
0.0
 11
34399.60583371385
 21
12868.23562648657
 31
0.0
  0
LINE
  5
332
330
6C
100
AcDbEntity
  8
Visible (ISO)
100
AcDbLine
 10
34399.60583371385
 20
14813.23562648656
 30
0.0
 11
34394.60583371386
 21
14813.23562648656
 31
0.0
  0
LINE
  5
333
330
6C
100
AcDbEntity
  8
Visible (ISO)
100
AcDbLine
 10
34394.60583371386
 20
14803.23562648656
 30
0.0
 11
34394.60583371386
 21
14668.23562648655
 31
0.0
  0
LINE
  5
334
330
6C
100
AcDbEntity
  8
Visible (ISO)
100
AcDbLine
 10
34394.60583371386
 20
14573.23562648655
 30
0.0
 11
34394.60583371386
 21
14448.23562648657
 31
0.0
  0
LINE
  5
335
330
6C
100
AcDbEntity
  8
Visible (ISO)
100
AcDbLine
 10
34394.60583371386
 20
14353.23562648657
 30
0.0
 11
34394.60583371386
 21
12878.23562648657
 31
0.0
  0
LINE
  5
336
330
6C
100
AcDbEntity
  8
Visible (ISO)
100
AcDbLine
 10
34394.60583371386
 20
14753.88562648656
 30
0.0
 11
33174.60583371391
 21
14753.88562648656
 31
0.0
  0
LINE
  5
337
330
6C
100
AcDbEntity
  8
Visible (ISO)
100
AcDbLine
 10
34394.60583371386
 20
14787.58562648656
 30
0.0
 11
33174.60583371391
 21
14787.58562648656
 31
0.0
  0
LINE
  5
338
330
6C
100
AcDbEntity
  8
Visible (ISO)
100
AcDbLine
 10
34394.60583371388
 20
14443.88562648656
 30
0.0
 11
33174.60583371391
 21
14443.88562648656
 31
0.0
  0
LINE
  5
339
330
6C
100
AcDbEntity
  8
Visible (ISO)
100
AcDbLine
 10
34394.60583371386
 20
14477.58562648656
 30
0.0
 11
33174.60583371391
 21
14477.58562648656
 31
0.0
  0
LINE
  5
33A
330
6C
100
AcDbEntity
  8
Visible (ISO)
100
AcDbLine
 10
34394.60583371386
 20
14133.88562648656
 30
0.0
 11
33174.60583371391
 21
14133.88562648656
 31
0.0
  0
LINE
  5
33B
330
6C
100
AcDbEntity
  8
Visible (ISO)
100
AcDbLine
 10
34394.60583371386
 20
14167.58562648656
 30
0.0
 11
33174.60583371391
 21
14167.58562648656
 31
0.0
  0
LINE
  5
33C
330
6C
100
AcDbEntity
  8
Visible (ISO)
100
AcDbLine
 10
34394.60583371386
 20
13823.88562648656
 30
0.0
 11
34174.60583371391
 21
13823.88562648656
 31
0.0
  0
LINE
  5
33D
330
6C
100
AcDbEntity
  8
Visible (ISO)
100
AcDbLine
 10
34394.60583371386
 20
13857.58562648656
 30
0.0
 11
34174.09675042411
 21
13857.58562648656
 31
0.0
  0
LINE
  5
33E
330
6C
100
AcDbEntity
  8
Visible (ISO)
100
AcDbLine
 10
33175.11491700371
 20
13857.58562648656
 30
0.0
 11
33174.09675042411
 21
13857.58562648656
 31
0.0
  0
LINE
  5
33F
330
6C
100
AcDbEntity
  8
Visible (ISO)
100
AcDbLine
 10
34394.60583371386
 20
13513.88562648656
 30
0.0
 11
34174.60583371391
 21
13513.88562648656
 31
0.0
  0
LINE
  5
340
330
6C
100
AcDbEntity
  8
Visible (ISO)
100
AcDbLine
 10
34394.60583371386
 20
13547.58562648656
 30
0.0
 11
34174.60583371391
 21
13547.58562648656
 31
0.0
  0
LINE
  5
341
330
6C
100
AcDbEntity
  8
Visible (ISO)
100
AcDbLine
 10
34394.60583371386
 20
13203.88562648657
 30
0.0
 11
34174.60583371391
 21
13203.88562648657
 31
0.0
  0
LINE
  5
342
330
6C
100
AcDbEntity
  8
Visible (ISO)
100
AcDbLine
 10
34394.60583371386
 20
13237.58562648656
 30
0.0
 11
34174.60583371391
 21
13237.58562648656
 31
0.0
  0
LINE
  5
343
330
6C
100
AcDbEntity
  8
Visible (ISO)
100
AcDbLine
 10
34394.60583371386
 20
12893.88562648657
 30
0.0
 11
34174.60583371391
 21
12893.88562648657
 31
0.0
  0
LINE
  5
344
330
6C
100
AcDbEntity
  8
Visible (ISO)
100
AcDbLine
 10
34394.60583371386
 20
12927.58562648657
 30
0.0
 11
34174.60583371391
 21
12927.58562648657
 31
0.0
  0
LINE
  5
345
330
6C
100
AcDbEntity
  8
Visible (ISO)
100
AcDbLine
 10
37194.60583371386
 20
14746.73562648654
 30
0.0
 11
34504.60583371382
 21
14746.73562648654
 31
0.0
  0
LINE
  5
346
330
6C
100
AcDbEntity
  8
Visible (ISO)
100
AcDbLine
 10
37194.60583371386
 20
14784.73562648654
 30
0.0
 11
34504.60583371382
 21
14784.73562648654
 31
0.0
  0
LINE
  5
347
330
6C
100
AcDbEntity
  8
Visible (ISO)
100
AcDbLine
 10
34504.60583371383
 20
14813.23562648654
 30
0.0
 11
34504.60583371383
 21
14803.23562648654
 31
0.0
  0
LINE
  5
348
330
6C
100
AcDbEntity
  8
Visible (ISO)
100
AcDbLine
 10
34504.60583371383
 20
14813.23562648654
 30
0.0
 11
34499.60583371384
 21
14813.23562648654
 31
0.0
  0
LINE
  5
349
330
6C
100
AcDbEntity
  8
Visible (ISO)
100
AcDbLine
 10
34499.60583371384
 20
14718.23562648654
 30
0.0
 11
34504.60583371383
 21
14718.23562648654
 31
0.0
  0
LINE
  5
34A
330
6C
100
AcDbEntity
  8
Visible (ISO)
100
AcDbLine
 10
34504.60583371383
 20
14728.23562648654
 30
0.0
 11
34504.60583371383
 21
14718.23562648654
 31
0.0
  0
LINE
  5
34B
330
6C
100
AcDbEntity
  8
Visible (ISO)
100
AcDbLine
 10
34504.60583371383
 20
14728.23562648654
 30
0.0
 11
34504.60583371383
 21
14803.23562648654
 31
0.0
  0
LINE
  5
34C
330
6C
100
AcDbEntity
  8
Visible (ISO)
100
AcDbLine
 10
37194.60583371386
 20
14718.23562648655
 30
0.0
 11
37194.60583371386
 21
14728.23562648655
 31
0.0
  0
LINE
  5
34D
330
6C
100
AcDbEntity
  8
Visible (ISO)
100
AcDbLine
 10
37194.60583371386
 20
14718.23562648655
 30
0.0
 11
37199.60583371385
 21
14718.23562648655
 31
0.0
  0
LINE
  5
34E
330
6C
100
AcDbEntity
  8
Visible (ISO)
100
AcDbLine
 10
37199.60583371385
 20
14813.23562648654
 30
0.0
 11
37194.60583371386
 21
14813.23562648654
 31
0.0
  0
LINE
  5
34F
330
6C
100
AcDbEntity
  8
Visible (ISO)
100
AcDbLine
 10
37194.60583371386
 20
14803.23562648655
 30
0.0
 11
37194.60583371386
 21
14813.23562648654
 31
0.0
  0
LINE
  5
350
330
6C
100
AcDbEntity
  8
Visible (ISO)
100
AcDbLine
 10
37194.60583371386
 20
14803.23562648655
 30
0.0
 11
37194.60583371386
 21
14728.23562648655
 31
0.0
  0
LINE
  5
359
330
6C
100
AcDbEntity
  8
Visible (ISO)
100
AcDbLine
 10
35664.04488231678
 20
14746.24203779695
 30
0.0
 11
35689.16678511094
 21
14746.24203779695
 31
0.0
  0
LINE
  5
35B
330
6C
100
AcDbEntity
  8
Visible (ISO)
100
AcDbLine
 10
35657.60583371386
 20
12530.73562648657
 30
0.0
 11
35657.60583371386
 21
14741.58562648656
 31
0.0
  0
LINE
  5
35D
330
6C
100
AcDbEntity
  8
Visible (ISO)
100
AcDbLine
 10
35695.60583371385
 20
12530.73562648657
 30
0.0
 11
35695.60583371385
 21
14741.58562648656
 31
0.0
  0
LINE
  5
35E
330
6C
100
AcDbEntity
  8
Visible (ISO)
100
AcDbLine
 10
35726.60583371385
 20
14746.08421122709
 30
0.0
 11
35726.60583371385
 21
14746.73562648654
 31
0.0
  0
SPLINE
  5
35F
330
6C
100
AcDbEntity
  8
Visible (ISO)
100
AcDbSpline
210
0.0
220
0.0
230
1.0
 70
     8
 71
     3
 72
     8
 73
     4
 74
     0
 42
0.0000000001
 43
0.0000000001
 40
7.987715797242475
 40
7.987715797242475
 40
7.987715797242475
 40
7.987715797242475
 40
8.094766878004866
 40
8.094766878004866
 40
8.094766878004866
 40
8.094766878004866
 10
35726.5539479313
 20
14746.73656762772
 30
0.0
 10
35726.58886409924
 20
14746.51006300564
 30
0.0
 10
35726.60583371385
 20
14746.29162361468
 30
0.0
 10
35726.60583371385
 20
14746.08421122709
 30
0.0
  0
SPLINE
  5
360
330
6C
100
AcDbEntity
  8
Visible (ISO)
100
AcDbSpline
210
0.0
220
0.0
230
1.0
 70
     8
 71
     3
 72
     8
 73
     4
 74
     0
 42
0.0000000001
 43
0.0000000001
 40
1.740373393535246
 40
1.740373393535246
 40
1.740373393535246
 40
1.740373393535246
 40
1.841545556584401
 40
1.841545556584401
 40
1.841545556584401
 40
1.841545556584401
 10
35626.60583371386
 20
14746.08421122709
 30
0.0
 10
35626.60583371386
 20
14746.29381997534
 30
0.0
 10
35626.62213691548
 20
14746.51201475403
 30
0.0
 10
35626.65587074348
 20
14746.73562811264
 30
0.0
  0
LINE
  5
361
330
6C
100
AcDbEntity
  8
Visible (ISO)
100
AcDbLine
 10
35626.60583371386
 20
14746.73562648654
 30
0.0
 11
35626.60583371386
 21
14746.08421122709
 31
0.0
  0
LINE
  5
362
330
6C
100
AcDbEntity
  8
Visible (ISO)
100
AcDbLine
 10
35726.60583371385
 20
14746.08421122709
 30
0.0
 11
35726.60583371385
 21
14741.58562648657
 31
0.0
  0
LINE
  5
363
330
6C
100
AcDbEntity
  8
Visible (ISO)
100
AcDbLine
 10
35626.60583371386
 20
14741.58562648657
 30
0.0
 11
35626.60583371386
 21
14746.08421122709
 31
0.0
  0
LINE
  5
364
330
6C
100
AcDbEntity
  8
Visible (ISO)
100
AcDbLine
 10
35626.60583371386
 20
14741.58562648657
 30
0.0
 11
35636.10583371386
 21
14741.58562648657
 31
0.0
  0
LINE
  5
365
330
6C
100
AcDbEntity
  8
Visible (ISO)
100
AcDbLine
 10
35647.10583371386
 20
14741.58562648657
 30
0.0
 11
35657.60583371386
 21
14741.58562648657
 31
0.0
  0
LINE
  5
366
330
6C
100
AcDbEntity
  8
Visible (ISO)
100
AcDbLine
 10
35695.60583371385
 20
14741.58562648657
 30
0.0
 11
35706.10583371385
 21
14741.58562648657
 31
0.0
  0
LINE
  5
367
330
6C
100
AcDbEntity
  8
Visible (ISO)
100
AcDbLine
 10
35717.10583371386
 20
14741.58562648657
 30
0.0
 11
35726.60583371385
 21
14741.58562648657
 31
0.0
  0
SPLINE
  5
368
330
6C
100
AcDbEntity
  8
Visible (ISO)
100
AcDbSpline
210
0.0
220
0.0
230
1.0
 70
     8
 71
     3
 72
    14
 73
    10
 74
     0
 42
0.0000000001
 43
0.0000000001
 40
0.0
 40
0.0
 40
0.0
 40
0.0
 40
0.2079752945499462
 40
0.2079752945499462
 40
0.4159505890998925
 40
0.4159505890998925
 40
0.6239060636691003
 40
0.6239060636691003
 40
0.8318615382383079
 40
0.8318615382383079
 40
0.8318615382484562
 40
0.8318615382484562
 10
35641.60583371386
 20
14742.2202591707
 30
0.0
 10
35642.2990846957
 20
14742.2202591707
 30
0.0
 10
35643.03680850898
 20
14742.1864163141
 30
0.0
 10
35644.39113066217
 20
14742.06548736857
 30
0.0
 10
35645.00794910336
 20
14741.98028895723
 30
0.0
 10
35645.98184650914
 20
14741.82137960344
 30
0.0
 10
35646.40474423469
 20
14741.73715599467
 30
0.0
 10
35646.96680393614
 20
14741.61847397809
 30
0.0
 10
35647.10583371386
 20
14741.58562648657
 30
0.0
 10
35647.10583371386
 20
14741.58562648657
 30
0.0
  0
SPLINE
  5
369
330
6C
100
AcDbEntity
  8
Visible (ISO)
100
AcDbSpline
210
0.0
220
0.0
230
1.0
 70
     8
 71
     3
 72
    14
 73
    10
 74
     0
 42
0.0000000001
 43
0.0000000001
 40
2.495584614714923
 40
2.495584614714923
 40
2.495584614737693
 40
2.495584614737693
 40
2.703540089284131
 40
2.703540089284131
 40
2.911495563853339
 40
2.911495563853339
 40
3.119470858403285
 40
3.119470858403285
 40
3.327446152953231
 40
3.327446152953231
 40
3.327446152953231
 40
3.327446152953231
 10
35636.10583371386
 20
14741.58562648657
 30
0.0
 10
35636.10583371388
 20
14741.58562648657
 30
0.0
 10
35636.24486349161
 20
14741.6184739781
 30
0.0
 10
35636.80692319303
 20
14741.73715599467
 30
0.0
 10
35637.22982091858
 20
14741.82137960344
 30
0.0
 10
35638.20371832435
 20
14741.98028895723
 30
0.0
 10
35638.82053676555
 20
14742.06548736857
 30
0.0
 10
35640.17485891874
 20
14742.1864163141
 30
0.0
 10
35640.91258273203
 20
14742.2202591707
 30
0.0
 10
35641.60583371386
 20
14742.2202591707
 30
0.0
  0
SPLINE
  5
36A
330
6C
100
AcDbEntity
  8
Visible (ISO)
100
AcDbSpline
210
0.0
220
0.0
230
1.0
 70
     8
 71
     3
 72
    14
 73
    10
 74
     0
 42
0.0000000001
 43
0.0000000001
 40
0.0
 40
0.0
 40
0.0
 40
0.0
 40
0.2079752945499462
 40
0.2079752945499462
 40
0.4159505890998925
 40
0.4159505890998925
 40
0.6239060636691003
 40
0.6239060636691003
 40
0.8318615382383079
 40
0.8318615382383079
 40
0.8318615382484685
 40
0.8318615382484685
 10
35711.60583371386
 20
14742.2202591707
 30
0.0
 10
35712.2990846957
 20
14742.2202591707
 30
0.0
 10
35713.03680850898
 20
14742.1864163141
 30
0.0
 10
35714.39113066217
 20
14742.06548736857
 30
0.0
 10
35715.00794910336
 20
14741.98028895723
 30
0.0
 10
35715.98184650914
 20
14741.82137960344
 30
0.0
 10
35716.40474423469
 20
14741.73715599467
 30
0.0
 10
35716.96680393614
 20
14741.61847397809
 30
0.0
 10
35717.10583371386
 20
14741.58562648657
 30
0.0
 10
35717.10583371386
 20
14741.58562648657
 30
0.0
  0
SPLINE
  5
36B
330
6C
100
AcDbEntity
  8
Visible (ISO)
100
AcDbSpline
210
0.0
220
0.0
230
1.0
 70
     8
 71
     3
 72
    14
 73
    10
 74
     0
 42
0.0000000001
 43
0.0000000001
 40
2.495584614714923
 40
2.495584614714923
 40
2.495584614737679
 40
2.495584614737679
 40
2.703540089284131
 40
2.703540089284131
 40
2.911495563853339
 40
2.911495563853339
 40
3.119470858403285
 40
3.119470858403285
 40
3.327446152953231
 40
3.327446152953231
 40
3.327446152953231
 40
3.327446152953231
 10
35706.10583371385
 20
14741.58562648657
 30
0.0
 10
35706.10583371389
 20
14741.58562648657
 30
0.0
 10
35706.24486349161
 20
14741.6184739781
 30
0.0
 10
35706.80692319303
 20
14741.73715599467
 30
0.0
 10
35707.22982091858
 20
14741.82137960344
 30
0.0
 10
35708.20371832436
 20
14741.98028895723
 30
0.0
 10
35708.82053676555
 20
14742.06548736857
 30
0.0
 10
35710.17485891874
 20
14742.1864163141
 30
0.0
 10
35710.91258273202
 20
14742.2202591707
 30
0.0
 10
35711.60583371386
 20
14742.2202591707
 30
0.0
  0
ELLIPSE
  5
36C
330
6C
100
AcDbEntity
  8
Visible (ISO)
100
AcDbEllipse
 10
37204.60583371384
 20
15778.91577531522
 30
0.0
 11
4.999999999999996
 21
0.0000000000000162
 31
0.0
210
0.0
220
0.0
230
1.0
 40
0.3639702342662004
 41
1.570796326794895
 42
3.141592653589775
  0
LINE
  5
36D
330
6C
100
AcDbEntity
  8
Visible (ISO)
100
AcDbLine
 10
37294.60583371383
 20
15780.73562648655
 30
0.0
 11
37204.60583371384
 21
15780.73562648655
 31
0.0
  0
ELLIPSE
  5
36E
330
6C
100
AcDbEntity
  8
Visible (ISO)
100
AcDbEllipse
 10
37294.60583371383
 20
15778.91577531522
 30
0.0
 11
4.999999999999996
 21
0.0000000000000158
 31
0.0
210
0.0
220
0.0
230
1.0
 40
0.3639702342662004
 41
0.0
 42
1.570796326794895
  0
LINE
  5
36F
330
6C
100
AcDbEntity
  8
Visible (ISO)
100
AcDbLine
 10
37199.60583371383
 20
15778.91577531522
 30
0.0
 11
37199.60583371385
 21
12530.73562648657
 31
0.0
  0
LINE
  5
372
330
6C
100
AcDbEntity
  8
Visible (ISO)
100
AcDbLine
 10
37299.60583371386
 20
12530.73562648657
 30
0.0
 11
37299.60583371383
 21
15778.91577531522
 31
0.0
  0
ELLIPSE
  5
373
330
6C
100
AcDbEntity
  8
Visible (ISO)
100
AcDbEllipse
 10
37294.60583371384
 20
15778.91577531521
 30
0.0
 11
5.000000000000014
 21
0.0000000000000565
 31
0.0
210
0.0
220
0.0
230
1.0
 40
0.3639702342661998
 41
0.0
 42
1.570796326794893
  0
LINE
  5
374
330
6C
100
AcDbEntity
  8
Visible (ISO)
100
AcDbLine
 10
37204.60583371384
 20
15780.73562648655
 30
0.0
 11
37294.60583371384
 21
15780.73562648655
 31
0.0
  0
ELLIPSE
  5
375
330
6C
100
AcDbEntity
  8
Visible (ISO)
100
AcDbEllipse
 10
37204.60583371384
 20
15778.91577531521
 30
0.0
 11
5.000000000000014
 21
0.0000000000000569
 31
0.0
210
0.0
220
0.0
230
1.0
 40
0.3639702342661998
 41
1.570796326794893
 42
3.141592653589757
  0
LINE
  5
376
330
6C
100
AcDbEntity
  8
Visible (ISO)
100
AcDbLine
 10
37199.60583371383
 20
16426.87340313768
 30
0.0
 11
37199.60583371384
 21
15778.91577531521
 31
0.0
  0
LINE
  5
377
330
6C
100
AcDbEntity
  8
Visible (ISO)
100
AcDbLine
 10
37299.60583371384
 20
15778.91577531521
 30
0.0
 11
37299.60583371383
 21
16426.87340313768
 31
0.0
  0
ARC
  5
378
330
6C
100
AcDbEntity
  8
Visible (ISO)
100
AcDbCircle
 10
37204.60583371384
 20
16426.87340313768
 30
0.0
 40
5.000000000000015
100
AcDbArc
 50
90.0
 51
180.0
  0
LINE
  5
379
330
6C
100
AcDbEntity
  8
Visible (ISO)
100
AcDbLine
 10
37294.60583371384
 20
16431.87340313768
 30
0.0
 11
37204.60583371384
 21
16431.87340313768
 31
0.0
  0
ARC
  5
37A
330
6C
100
AcDbEntity
  8
Visible (ISO)
100
AcDbCircle
 10
37294.60583371384
 20
16426.87340313768
 30
0.0
 40
5.000000000000015
100
AcDbArc
 50
0.0
 51
90.0
  0
LINE
  5
37B
330
6C
100
AcDbEntity
  8
Visible (ISO)
100
AcDbLine
 10
37300.60583371383
 20
16382.37340313773
 30
0.0
 11
37300.60583371383
 21
16392.37340313773
 31
0.0
  0
LINE
  5
37C
330
6C
100
AcDbEntity
  8
Visible (ISO)
100
AcDbLine
 10
37300.60583371383
 20
16382.37340313773
 30
0.0
 11
37303.60583371383
 21
16382.37340313773
 31
0.0
  0
LINE
  5
37D
330
6C
100
AcDbEntity
  8
Visible (ISO)
100
AcDbLine
 10
37303.60583371383
 20
16392.37340313773
 30
0.0
 11
37303.60583371383
 21
16382.37340313773
 31
0.0
  0
LINE
  5
37E
330
6C
100
AcDbEntity
  8
Visible (ISO)
100
AcDbLine
 10
37198.60583371382
 20
16392.37340313773
 30
0.0
 11
37198.60583371382
 21
16382.37340313773
 31
0.0
  0
LINE
  5
37F
330
6C
100
AcDbEntity
  8
Visible (ISO)
100
AcDbLine
 10
37195.60583371383
 20
16382.37340313773
 30
0.0
 11
37195.60583371383
 21
16392.37340313773
 31
0.0
  0
LINE
  5
380
330
6C
100
AcDbEntity
  8
Visible (ISO)
100
AcDbLine
 10
37195.60583371383
 20
16382.37340313773
 30
0.0
 11
37198.60583371382
 21
16382.37340313773
 31
0.0
  0
LINE
  5
381
330
6C
100
AcDbEntity
  8
Visible (ISO)
100
AcDbLine
 10
37300.60583371383
 20
16428.87340313773
 30
0.0
 11
37300.60583371383
 21
16392.37340313774
 31
0.0
  0
LINE
  5
382
330
6C
100
AcDbEntity
  8
Visible (ISO)
100
AcDbLine
 10
37198.60583371382
 20
16392.37340313773
 30
0.0
 11
37198.60583371382
 21
16428.87340313773
 31
0.0
  0
LINE
  5
383
330
6C
100
AcDbEntity
  8
Visible (ISO)
100
AcDbLine
 10
37303.60583371383
 20
16428.87340313773
 30
0.0
 11
37303.60583371383
 21
16392.37340313774
 31
0.0
  0
LINE
  5
384
330
6C
100
AcDbEntity
  8
Visible (ISO)
100
AcDbLine
 10
37201.60583371383
 20
16431.87340313773
 30
0.0
 11
37204.60583371383
 21
16431.87340313773
 31
0.0
  0
LINE
  5
385
330
6C
100
AcDbEntity
  8
Visible (ISO)
100
AcDbLine
 10
37294.60583371383
 20
16431.87340313773
 30
0.0
 11
37297.60583371383
 21
16431.87340313773
 31
0.0
  0
LINE
  5
386
330
6C
100
AcDbEntity
  8
Visible (ISO)
100
AcDbLine
 10
37201.60583371383
 20
16434.87340313773
 30
0.0
 11
37297.60583371383
 21
16434.87340313773
 31
0.0
  0
LINE
  5
387
330
6C
100
AcDbEntity
  8
Visible (ISO)
100
AcDbLine
 10
37195.60583371383
 20
16392.37340313773
 30
0.0
 11
37195.60583371383
 21
16428.87340313773
 31
0.0
  0
ARC
  5
388
330
6C
100
AcDbEntity
  8
Visible (ISO)
100
AcDbCircle
 10
37297.60583371383
 20
16428.87340313773
 30
0.0
 40
6.000000000000002
100
AcDbArc
 50
0.0
 51
90.0
  0
ARC
  5
389
330
6C
100
AcDbEntity
  8
Visible (ISO)
100
AcDbCircle
 10
37297.60583371383
 20
16428.87340313773
 30
0.0
 40
3.000000000000003
100
AcDbArc
 50
0.0
 51
90.0
  0
ARC
  5
38A
330
6C
100
AcDbEntity
  8
Visible (ISO)
100
AcDbCircle
 10
37201.60583371383
 20
16428.87340313773
 30
0.0
 40
5.999999999999996
100
AcDbArc
 50
90.0
 51
180.0
  0
ARC
  5
38B
330
6C
100
AcDbEntity
  8
Visible (ISO)
100
AcDbCircle
 10
37201.60583371383
 20
16428.87340313773
 30
0.0
 40
2.999999999999998
100
AcDbArc
 50
90.0
 51
180.0
  0
LINE
  5
38C
330
6C
100
AcDbEntity
  8
Visible (ISO)
100
AcDbLine
 10
37198.60583371382
 20
16381.37340313775
 30
0.0
 11
37198.60583371382
 21
16371.37340313775
 31
0.0
  0
LINE
  5
38D
330
6C
100
AcDbEntity
  8
Visible (ISO)
100
AcDbLine
 10
37198.60583371382
 20
16381.37340313774
 30
0.0
 11
37195.60583371383
 21
16381.37340313774
 31
0.0
  0
LINE
  5
38E
330
6C
100
AcDbEntity
  8
Visible (ISO)
100
AcDbLine
 10
37195.60583371383
 20
16371.37340313775
 30
0.0
 11
37195.60583371383
 21
16381.37340313775
 31
0.0
  0
LINE
  5
38F
330
6C
100
AcDbEntity
  8
Visible (ISO)
100
AcDbLine
 10
37300.60583371383
 20
16371.37340313775
 30
0.0
 11
37300.60583371383
 21
16381.37340313775
 31
0.0
  0
LINE
  5
390
330
6C
100
AcDbEntity
  8
Visible (ISO)
100
AcDbLine
 10
37303.60583371383
 20
16381.37340313775
 30
0.0
 11
37303.60583371383
 21
16371.37340313775
 31
0.0
  0
LINE
  5
391
330
6C
100
AcDbEntity
  8
Visible (ISO)
100
AcDbLine
 10
37303.60583371383
 20
16381.37340313774
 30
0.0
 11
37300.60583371383
 21
16381.37340313774
 31
0.0
  0
LINE
  5
392
330
6C
100
AcDbEntity
  8
Visible (ISO)
100
AcDbLine
 10
37198.60583371382
 20
16334.87340313774
 30
0.0
 11
37198.60583371382
 21
16371.37340313775
 31
0.0
  0
LINE
  5
393
330
6C
100
AcDbEntity
  8
Visible (ISO)
100
AcDbLine
 10
37300.60583371383
 20
16371.37340313775
 30
0.0
 11
37300.60583371383
 21
16334.87340313774
 31
0.0
  0
LINE
  5
394
330
6C
100
AcDbEntity
  8
Visible (ISO)
100
AcDbLine
 10
37195.60583371383
 20
16334.87340313774
 30
0.0
 11
37195.60583371383
 21
16371.37340313775
 31
0.0
  0
LINE
  5
395
330
6C
100
AcDbEntity
  8
Visible (ISO)
100
AcDbLine
 10
37303.60583371383
 20
16371.37340313775
 30
0.0
 11
37303.60583371383
 21
16334.87340313774
 31
0.0
  0
ARC
  5
396
330
6C
100
AcDbEntity
  8
Visible (ISO)
100
AcDbCircle
 10
37201.60583371383
 20
16334.87340313774
 30
0.0
 40
6.000000000000014
100
AcDbArc
 50
180.0
 51
250.5287793655575
  0
ARC
  5
397
330
6C
100
AcDbEntity
  8
Visible (ISO)
100
AcDbCircle
 10
37201.60583371383
 20
16334.87340313774
 30
0.0
 40
3.000000000000031
100
AcDbArc
 50
180.0
 51
228.1896851043241
  0
ARC
  5
398
330
6C
100
AcDbEntity
  8
Visible (ISO)
100
AcDbCircle
 10
37297.60583371383
 20
16334.87340313774
 30
0.0
 40
5.999999999999994
100
AcDbArc
 50
289.4712206345177
 51
0.0
  0
ARC
  5
399
330
6C
100
AcDbEntity
  8
Visible (ISO)
100
AcDbCircle
 10
37297.60583371383
 20
16334.87340313774
 30
0.0
 40
2.999999999999961
100
AcDbArc
 50
311.8103148958676
 51
0.0
  0
LINE
  5
39A
330
6C
100
AcDbEntity
  8
Visible (ISO)
100
AcDbLine
 10
38799.60583371385
 20
12520.73562648657
 30
0.0
 11
37299.60583371386
 21
12520.73562648657
 31
0.0
  0
LINE
  5
39B
330
6C
100
AcDbEntity
  8
Visible (ISO)
100
AcDbLine
 10
38799.60583371385
 20
12530.73562648656
 30
0.0
 11
38799.60583371385
 21
12520.73562648656
 31
0.0
  0
LINE
  5
39C
330
6C
100
AcDbEntity
  8
Visible (ISO)
100
AcDbLine
 10
38799.60583371385
 20
12530.73562648656
 30
0.0
 11
37299.60583371386
 21
12530.73562648656
 31
0.0
  0
LINE
  5
39D
330
6C
100
AcDbEntity
  8
Visible (ISO)
100
AcDbLine
 10
28674.60583371391
 20
12530.73562648657
 30
0.0
 11
28674.60583371391
 21
12520.73562648657
 31
0.0
  0
LINE
  5
39E
330
6C
100
AcDbEntity
  8
Visible (ISO)
100
AcDbLine
 10
30174.60583371391
 20
12520.73562648657
 30
0.0
 11
28674.60583371391
 21
12520.73562648657
 31
0.0
  0
LINE
  5
39F
330
6C
100
AcDbEntity
  8
Visible (ISO)
100
AcDbLine
 10
30174.60583371391
 20
12530.73562648657
 30
0.0
 11
28674.60583371391
 21
12530.73562648657
 31
0.0
  0
LINE
  5
3A0
330
6C
100
AcDbEntity
  8
Visible (ISO)
100
AcDbLine
 10
30174.60583371391
 20
12520.73562648657
 30
0.0
 11
34174.60583371391
 21
12520.73562648656
 31
0.0
  0
LINE
  5
3A1
330
6C
100
AcDbEntity
  8
Visible (ISO)
100
AcDbLine
 10
30174.60583371391
 20
12530.73562648656
 30
0.0
 11
34174.60583371391
 21
12530.73562648656
 31
0.0
  0
LINE
  5
3A2
330
6C
100
AcDbEntity
  8
Visible (ISO)
100
AcDbLine
 10
35674.60583371391
 20
12520.73562648657
 30
0.0
 11
34174.60583371391
 21
12520.73562648657
 31
0.0
  0
LINE
  5
3A3
330
6C
100
AcDbEntity
  8
Visible (ISO)
100
AcDbLine
 10
35674.60583371391
 20
12530.73562648656
 30
0.0
 11
35674.60583371391
 21
12520.73562648656
 31
0.0
  0
LINE
  5
3A4
330
6C
100
AcDbEntity
  8
Visible (ISO)
100
AcDbLine
 10
35674.60583371391
 20
12530.73562648656
 30
0.0
 11
34174.60583371391
 21
12530.73562648656
 31
0.0
  0
LINE
  5
3A5
330
6C
100
AcDbEntity
  8
Visible (ISO)
100
AcDbLine
 10
35674.60583371391
 20
12520.73562648657
 30
0.0
 11
37299.60583371386
 21
12520.73562648656
 31
0.0
  0
LINE
  5
3A6
330
6C
100
AcDbEntity
  8
Visible (ISO)
100
AcDbLine
 10
35674.60583371391
 20
12530.73562648656
 30
0.0
 11
37299.60583371386
 21
12530.73562648656
 31
0.0
  0
INSERT
  5
514
330
6C
100
AcDbEntity
  8
0
100
AcDbBlockReference
 66
     1
  2
Tabelki rysunkowe Rzut
 10
12022.31837028164
 20
-1074.130542460445
 30
0.0
 41
100.0
 42
100.0
 43
100.0
  0
ATTRIB
  5
516
102
{ACAD_XDICTIONARY
360
D46
102
}
330
514
100
AcDbEntity
  8
Title (ISO)
100
AcDbText
 10
29875.15110820654
 20
738.5829432236702
 30
0.0
 40
250.0
  1
88503
  7
Note Text (ISO)
100
AcDbAttribute
  2
Numer_katalogowy_001
 70
     0
  0
ATTRIB
  5
517
102
{ACAD_XDICTIONARY
360
D49
102
}
330
514
100
AcDbEntity
  8
Title (ISO)
100
AcDbText
 10
31063.3982539799
 20
39.5903307288105
 30
0.0
 40
250.0
  1
2019-03-26
  7
Note Text (ISO)
100
AcDbAttribute
  2
DATA_UTWORZENIA_001
 70
     0
  0
SEQEND
  5
515
330
514
100
AcDbEntity
  8
0
  0
DIMENSION
  5
518
330
6C
100
AcDbEntity
  8
Dimension (ISO)
100
AcDbDimension
  2
*D8
 10
38799.6058337114
 20
1671.925446458739
 30
0.0
 11
33737.10583371143
 21
1671.925446458739
 31
0.0
 70
   160
  1
<>
 71
     2
 42
10124.99999999994
  3
Default (ISO)
100
AcDbAlignedDimension
 13
28674.60583371146
 23
4086.524376167743
 33
0.0
 14
38799.6058337114
 24
5911.524376169047
 34
0.0
 50
180.0
100
AcDbRotatedDimension
1001
ACAD
1000
DSTYLE
1002
{
1070
   172
1070
     0
1070
   289
1070
     1
1070
    74
1070
     0
1070
   271
1070
     2
1070
   272
1070
     2
1070
    48
1040
0.0
1070
    47
1040
0.0
1002
}
  0
DIMENSION
  5
5FB
330
6C
100
AcDbEntity
  8
Dimension (ISO)
100
AcDbDimension
  2
*D9
 10
39581.04305621036
 20
2586.52437616774
 30
0.0
 11
39581.04305621036
 21
6749.024376167749
 31
0.0
 70
   160
  1
<>
 71
     2
 42
8325.000000000018
  3
Default (ISO)
100
AcDbAlignedDimension
 13
37299.6058337114
 23
10911.52437616776
 33
0.0
 14
34174.60583371146
 24
2586.524376167741
 34
0.0
 50
90.0
100
AcDbRotatedDimension
1001
ACAD
1000
DSTYLE
1002
{
1070
   172
1070
     0
1070
   289
1070
     1
1070
    74
1070
     0
1070
   271
1070
     2
1070
   272
1070
     2
1070
    48
1040
0.0
1070
    47
1040
0.0
1002
}
  0
DIMENSION
  5
6E3
330
6C
100
AcDbEntity
  8
Dimension (ISO)
100
AcDbDimension
  2
*D10
 10
31307.1034249433
 20
4086.524376168156
 30
0.0
 11
31307.1034249433
 21
6749.024376168282
 31
0.0
 70
   160
  1
<>
 71
     2
 42
5325.00000000025
  3
Default (ISO)
100
AcDbAlignedDimension
 13
33002.60583371142
 23
9411.524376168406
 33
0.0
 14
31928.60583371147
 24
4086.524376168155
 34
0.0
 50
90.0
100
AcDbRotatedDimension
1001
ACAD
1000
DSTYLE
1002
{
1070
   172
1070
     0
1070
   289
1070
     1
1070
    74
1070
     0
1070
   271
1070
     2
1070
   272
1070
     2
1070
    48
1040
0.0
1070
    47
1040
0.0
1002
}
  0
DIMENSION
  5
7CB
330
6C
100
AcDbEntity
  8
Dimension (ISO)
100
AcDbDimension
  2
*D11
 10
37299.6058337114
 20
9963.501259075897
 30
0.0
 11
33737.10583371142
 21
9963.501259075897
 31
0.0
 70
   160
  1
<>
 71
     2
 42
7124.999999999935
  3
Default (ISO)
100
AcDbAlignedDimension
 13
30174.60583371146
 23
7082.524376168013
 33
0.0
 14
37299.6058337114
 24
9408.524376168413
 34
0.0
100
AcDbRotatedDimension
1001
ACAD
1000
DSTYLE
1002
{
1070
   172
1070
     0
1070
   289
1070
     1
1070
    74
1070
     0
1070
   271
1070
     2
1070
   272
1070
     2
1070
    48
1040
0.0
1070
    47
1040
0.0
1002
}
  0
DIMENSION
  5
8AD
330
6C
100
AcDbEntity
  8
Dimension (ISO)
100
AcDbDimension
  2
*D12
 10
29276.81143646062
 20
12530.73562648657
 30
0.0
 11
29276.81143646062
 21
13010.73562648657
 31
0.0
 70
   160
  1
<>
 71
     2
 42
959.9999999999964
  3
Default (ISO)
100
AcDbAlignedDimension
 13
30184.60583371392
 23
13490.73562648656
 33
0.0
 14
29276.81143646062
 24
12530.73562648657
 34
0.0
 50
90.0
100
AcDbRotatedDimension
1001
ACAD
1000
DSTYLE
1002
{
1070
   172
1070
     0
1070
   289
1070
     1
1070
    74
1070
     0
1070
   271
1070
     2
1070
    76
1070
     1
1070
   272
1070
     2
1070
    48
1040
0.0
1070
    47
1040
0.0
1002
}
  0
DIMENSION
  5
992
330
6C
100
AcDbEntity
  8
Dimension (ISO)
100
AcDbDimension
  2
*D13
 10
31234.79788405001
 20
12530.73562648656
 30
0.0
 11
31234.79788405001
 21
13230.73562648657
 31
0.0
 70
   160
  1
<>
 71
     2
 42
1400.000000000004
  3
Default (ISO)
100
AcDbAlignedDimension
 13
31934.60583371392
 23
13930.73562648657
 33
0.0
 14
31234.79788405001
 24
12530.73562648656
 34
0.0
 50
90.0
100
AcDbRotatedDimension
1001
ACAD
1000
DSTYLE
1002
{
1070
   172
1070
     0
1070
   289
1070
     1
1070
    74
1070
     0
1070
   271
1070
     2
1070
    76
1070
     1
1070
   272
1070
     2
1070
    48
1040
0.0
1070
    47
1040
0.0
1002
}
  0
DIMENSION
  5
A77
330
6C
100
AcDbEntity
  8
Dimension (ISO)
100
AcDbDimension
  2
*D14
 10
32423.57537045783
 20
12530.73562648656
 30
0.0
 11
32423.57537045783
 21
15639.95778576171
 31
0.0
 70
   160
  1
<>
 71
     2
 42
2280.000000000002
  3
Default (ISO)
100
AcDbAlignedDimension
 13
32934.60583371391
 23
14810.73562648657
 33
0.0
 14
32578.97111989511
 24
12530.73562648656
 34
0.0
 50
90.0
100
AcDbRotatedDimension
1001
ACAD
1000
DSTYLE
1002
{
1070
   172
1070
     0
1070
   289
1070
     2
1070
    74
1070
     0
1070
   271
1070
     2
1070
    76
1070
     1
1070
   272
1070
     2
1070
    48
1040
0.0
1070
    47
1040
0.0
1002
}
  0
DIMENSION
  5
B74
330
6C
100
AcDbEntity
  8
Dimension (ISO)
100
AcDbDimension
  2
*D15
 10
35223.08880277883
 20
12530.73562648656
 30
0.0
 11
35223.08880277883
 21
13680.73562648655
 31
0.0
 70
   160
  1
<>
 71
     2
 42
2299.999999999964
  3
Default (ISO)
100
AcDbAlignedDimension
 13
34496.6058337139
 23
14830.73562648653
 33
0.0
 14
35223.08880277883
 24
12530.73562648656
 34
0.0
 50
90.0
100
AcDbRotatedDimension
1001
ACAD
1000
DSTYLE
1002
{
1070
   172
1070
     0
1070
   289
1070
     1
1070
    74
1070
     0
1070
   271
1070
     2
1070
    76
1070
     1
1070
   272
1070
     2
1070
    48
1040
0.0
1070
    47
1040
0.0
1002
}
  0
DIMENSION
  5
C59
330
6C
100
AcDbEntity
  8
Dimension (ISO)
100
AcDbDimension
  2
*D16
 10
38421.5941310322
 20
12530.73562648656
 30
0.0
 11
38421.5941310322
 21
14481.30451481212
 31
0.0
 70
   160
  1
<>
 71
     2
 42
3901.137776651113
  3
Default (ISO)
100
AcDbAlignedDimension
 13
37294.60583371384
 23
16431.87340313768
 33
0.0
 14
38421.5941310322
 24
12530.73562648656
 34
0.0
 50
270.0
100
AcDbRotatedDimension
1001
ACAD
1000
DSTYLE
1002
{
1070
   172
1070
     0
1070
   289
1070
     1
1070
    74
1070
     0
1070
   271
1070
     0
1070
    76
1070
     1
1070
   272
1070
     2
1070
    48
1040
0.0
1070
    47
1040
0.0
1002
}
  0
INSERT
  5
F09
330
6C
100
AcDbEntity
  8
0
100
AcDbBlockReference
  2
88503_Street-workout-parkour-3
 10
34466.45583371146
 20
6961.52437616837
 30
0.0
  0
ENDSEC
  0
SECTION
  2
OBJECTS
  0
DICTIONARY
  5
C
330
0
100
AcDbDictionary
281
     1
  3
ACAD_COLOR
350
63
  3
ACAD_GROUP
350
D
  3
ACAD_LAYOUT
350
62
  3
ACAD_MATERIAL
350
10
  3
ACAD_MLEADERSTYLE
350
66
  3
ACAD_MLINESTYLE
350
5F
  3
ACAD_PLOTSETTINGS
350
61
  3
ACAD_PLOTSTYLENAME
350
E
  3
ACAD_SCALELIST
350
42
  3
ACAD_TABLESTYLE
350
64
  3
ACAD_VISUALSTYLE
350
29
  3
ACDB_RECOMPOSE_DATA
350
F14
  3
AcDbVariableDictionary
350
D8F
  3
DWGPROPS
350
F15
  0
DICTIONARY
  5
D4E
330
8
100
AcDbDictionary
280
     1
281
     1
  0
DICTIONARY
  5
D40
330
510
100
AcDbDictionary
280
     1
281
     1
  3
ACAD_MLATT
360
F0D
  3
ACAD_XREC_ROUNDTRIP
360
F0C
  0
DICTIONARY
  5
D43
330
512
100
AcDbDictionary
280
     1
281
     1
  3
ACAD_MLATT
360
F0F
  3
ACAD_XREC_ROUNDTRIP
360
F0E
  0
DICTIONARY
  5
D46
330
516
100
AcDbDictionary
280
     1
281
     1
  3
ACAD_MLATT
360
F11
  3
ACAD_XREC_ROUNDTRIP
360
F10
  0
DICTIONARY
  5
D49
330
517
100
AcDbDictionary
280
     1
281
     1
  3
ACAD_MLATT
360
F13
  3
ACAD_XREC_ROUNDTRIP
360
F12
  0
DICTIONARY
  5
63
102
{ACAD_REACTORS
330
C
102
}
330
C
100
AcDbDictionary
281
     1
  0
DICTIONARY
  5
D
102
{ACAD_REACTORS
330
C
102
}
330
C
100
AcDbDictionary
281
     1
  0
DICTIONARY
  5
62
102
{ACAD_REACTORS
330
C
102
}
330
C
100
AcDbDictionary
281
     1
  3
Layout1
350
6B
  3
Layout2
350
73
  3
Model
350
6F
  0
DICTIONARY
  5
10
102
{ACAD_REACTORS
330
C
102
}
330
C
100
AcDbDictionary
281
     1
  3
ByBlock
350
19
  3
ByLayer
350
11
  3
Global
350
21
  0
DICTIONARY
  5
66
102
{ACAD_REACTORS
330
C
102
}
330
C
100
AcDbDictionary
281
     1
  3
Standard
350
67
  0
DICTIONARY
  5
5F
102
{ACAD_REACTORS
330
C
102
}
330
C
100
AcDbDictionary
281
     1
  3
Standard
350
60
  0
DICTIONARY
  5
61
102
{ACAD_REACTORS
330
C
102
}
330
C
100
AcDbDictionary
281
     1
  0
ACDBDICTIONARYWDFLT
  5
E
102
{ACAD_REACTORS
330
C
102
}
330
C
100
AcDbDictionary
281
     1
  3
Normal
350
F
100
AcDbDictionaryWithDefault
340
F
  0
DICTIONARY
  5
42
102
{ACAD_REACTORS
330
C
102
}
330
C
100
AcDbDictionary
281
     1
  3
A0
350
43
  3
A1
350
44
  3
A2
350
45
  3
A3
350
46
  3
A4
350
47
  3
A5
350
48
  3
A6
350
49
  3
A7
350
4A
  3
A8
350
4B
  3
A9
350
4C
  3
B0
350
4D
  3
B1
350
4E
  3
B2
350
4F
  3
B3
350
50
  3
B4
350
51
  3
B5
350
52
  3
B6
350
53
  0
DICTIONARY
  5
64
102
{ACAD_REACTORS
330
C
102
}
330
C
100
AcDbDictionary
281
     1
  3
Standard
350
65
  0
DICTIONARY
  5
29
102
{ACAD_REACTORS
330
C
102
}
330
C
100
AcDbDictionary
281
     1
  3
2dWireframe
350
2F
  3
Basic
350
2E
  3
Brighten
350
35
  3
ColorChange
350
39
  3
Conceptual
350
32
  3
Dim
350
34
  3
EdgeColorOff
350
41
  3
Facepattern
350
38
  3
Flat
350
2A
  3
FlatWithEdges
350
2B
  3
Gouraud
350
2C
  3
GouraudWithEdges
350
2D
  3
Hidden
350
31
  3
JitterOff
350
3F
  3
Linepattern
350
37
  3
OverhangOff
350
40
  3
Realistic
350
33
  3
Shaded
350
3E
  3
Shaded with edges
350
3D
  3
Shades of Gray
350
3A
  3
Sketchy
350
3B
  3
Thicken
350
36
  3
Wireframe
350
30
  3
X-Ray
350
3C
  0
XRECORD
  5
F14
102
{ACAD_REACTORS
330
C
102
}
330
C
100
AcDbXrecord
280
     1
 90
        1
330
65
330
510
330
512
330
516
330
517
330
A77
  0
DICTIONARY
  5
D8F
102
{ACAD_REACTORS
330
C
102
}
330
C
100
AcDbDictionary
281
     1
  3
CANNOSCALE
350
D93
  3
CMLEADERSTYLE
350
D91
  3
CTABLESTYLE
350
D90
  3
DIMASSOC
350
D9A
  3
HIDETEXT
350
D99
  3
INDEXCTL
350
D98
  3
LAYEREVAL
350
D95
  3
LAYERNOTIFY
350
D96
  3
LIGHTINGUNITS
350
D94
  3
MSLTSCALE
350
D92
  3
SORTENTS
350
D97
  3
XCLIPFRAME
350
F0A
  0
XRECORD
  5
F15
102
{ACAD_REACTORS
330
C
102
}
330
C
100
AcDbXrecord
280
     1
  1
DWGPROPS COOKIE
  2

  3

  4
Maruszak Marcin
  6

  7

  8
Natalia
  9
v1
300
Menadżer=
301
Firma=Muller Jelcz-Laskowice Sp.z o.o.
302
Kategoria=
303
Numer części=
304
Opis=
305
Projekt=
306
Projektant=Maruszak Marcin
307
Inżynier=Maruszak Marcin
308
Zatwierdził=Ośkiewicz Ryszard
309
Centrum kosztów=
 40
0.0005372800925926
 41
2458569.351350127
 42
2458621.602505926
  1
www.muller.com.pl
 90
       19
300
Dostawca=
300
Stan użytkownika=
300
Stan projektu=PracaWToku
300
Sprawdził=
300
Zatwierdził konstrukcję=
300
Zatwierdził do produkcji=
300
Kolor=szary
300
Stanowisko=Ploter
300
mat.=
  0
XRECORD
  5
F0D
102
{ACAD_REACTORS
330
D40
102
}
330
D40
100
AcDbXrecord
280
     1
 70
     4
 70
     0
 70
     0
 40
1.0
  2
Numer_katalogowy
  1
Embedded Object
 10
178.6525718386176
 20
20.68422014898354
 30
0.0
 40
2.5
 41
39.63119806127143
 46
0.0
 71
     1
 72
     5
  1
88503
  7
Note Text (ISO)
 73
     1
 44
1.0
  0
XRECORD
  5
F0C
102
{ACAD_REACTORS
330
D40
102
}
330
D40
100
AcDbXrecord
280
     1
102
ACAD_MATT_HEIGHT
140
2.5
  0
XRECORD
  5
F0F
102
{ACAD_REACTORS
330
D43
102
}
330
D43
100
AcDbXrecord
280
     1
 70
     4
 70
     0
 70
     0
 40
1.0
  2
DATA_UTWORZENIA
  1
Embedded Object
 10
190.5938075676742
 20
13.68925708649296
 30
0.0
 40
2.5
 41
40.52963831958745
 46
0.0
 71
     1
 72
     5
  1
2019-03-26
  7
Note Text (ISO)
 73
     1
 44
1.0
  0
XRECORD
  5
F0E
102
{ACAD_REACTORS
330
D43
102
}
330
D43
100
AcDbXrecord
280
     1
102
ACAD_MATT_HEIGHT
140
2.5
  0
XRECORD
  5
F11
102
{ACAD_REACTORS
330
D46
102
}
330
D46
100
AcDbXrecord
280
     1
 70
     2
 70
     0
 70
     0
 40
1.0
  2
Numer_katalogowy
  1
Embedded Object
 10
29887.5755541434
 20
994.2914724379079
 30
0.0
 40
250.0
 41
3963.119806127143
 46
0.0
 71
     1
 72
     5
  1
88503
  7
Note Text (ISO)
 73
     1
 44
1.0
  0
XRECORD
  5
F10
102
{ACAD_REACTORS
330
D46
102
}
330
D46
100
AcDbXrecord
280
     1
102
ACAD_MATT_HEIGHT
140
250.0
  0
XRECORD
  5
F13
102
{ACAD_REACTORS
330
D49
102
}
330
D49
100
AcDbXrecord
280
     1
 70
     2
 70
     0
 70
     0
 40
1.0
  2
DATA_UTWORZENIA
  1
Embedded Object
 10
31081.69912704907
 20
294.7951661888508
 30
0.0
 40
250.0
 41
4052.963831958745
 46
0.0
 71
     1
 72
     5
  1
2019-03-26
  7
Note Text (ISO)
 73
     1
 44
1.0
  0
XRECORD
  5
F12
102
{ACAD_REACTORS
330
D49
102
}
330
D49
100
AcDbXrecord
280
     1
102
ACAD_MATT_HEIGHT
140
250.0
  0
LAYOUT
  5
6B
102
{ACAD_XDICTIONARY
360
F4A
102
}
102
{ACAD_REACTORS
330
62
102
}
330
62
100
AcDbPlotSettings
  1

  2

  4

  6

 40
0.0
 41
0.0
 42
0.0
 43
0.0
 44
0.0
 45
0.0
 46
0.0
 47
0.0
 48
0.0
 49
0.0
140
0.0
141
0.0
142
1.0
143
1.0
 70
   688
 72
     0
 73
     0
 74
     5
  7

 75
    16
147
1.0
148
0.0
149
0.0
100
AcDbLayout
  1
Layout1
 70
     1
 71
     1
 10
0.0
 20
0.0
 11
29700.0
 21
21000.0
 12
0.0
 22
0.0
 32
0.0
 14
0.0
 24
0.0
 34
0.0
 15
29700.0
 25
21000.0
 35
0.0
146
0.0
 13
0.0
 23
0.0
 33
0.0
 16
1.0
 26
0.0
 36
0.0
 17
0.0
 27
1.0
 37
0.0
 76
     0
330
68
  0
LAYOUT
  5
73
102
{ACAD_XDICTIONARY
360
F4E
102
}
102
{ACAD_REACTORS
330
62
102
}
330
62
100
AcDbPlotSettings
  1

  2

  4

  6

 40
0.0
 41
0.0
 42
0.0
 43
0.0
 44
0.0
 45
0.0
 46
0.0
 47
0.0
 48
0.0
 49
0.0
140
0.0
141
0.0
142
1.0
143
1.0
 70
   688
 72
     0
 73
     0
 74
     5
  7

 75
    16
147
1.0
148
0.0
149
0.0
100
AcDbLayout
  1
Layout2
 70
     1
 71
     2
 10
0.0
 20
0.0
 11
12.0
 21
9.0
 12
0.0
 22
0.0
 32
0.0
 14
0.0
 24
0.0
 34
0.0
 15
0.0
 25
0.0
 35
0.0
146
0.0
 13
0.0
 23
0.0
 33
0.0
 16
1.0
 26
0.0
 36
0.0
 17
0.0
 27
1.0
 37
0.0
 76
     0
330
70
  0
LAYOUT
  5
6F
102
{ACAD_XDICTIONARY
360
F4C
102
}
102
{ACAD_REACTORS
330
62
102
}
330
62
100
AcDbPlotSettings
  1

  2

  4

  6

 40
0.0
 41
0.0
 42
0.0
 43
0.0
 44
0.0
 45
0.0
 46
0.0
 47
0.0
 48
0.0
 49
0.0
140
0.0
141
0.0
142
1.0
143
1.0
 70
  1712
 72
     0
 73
     0
 74
     0
  7

 75
     0
147
1.0
148
0.0
149
0.0
100
AcDbLayout
  1
Model
 70
     1
 71
     0
 10
0.0
 20
0.0
 11
12.0
 21
9.0
 12
0.0
 22
0.0
 32
0.0
 14
0.0
 24
0.0
 34
0.0
 15
0.0
 25
0.0
 35
0.0
146
0.0
 13
0.0
 23
0.0
 33
0.0
 16
1.0
 26
0.0
 36
0.0
 17
0.0
 27
1.0
 37
0.0
 76
     0
330
6C
331
57
  0
MATERIAL
  5
19
102
{ACAD_XDICTIONARY
360
1A
102
}
102
{ACAD_REACTORS
330
10
102
}
330
10
100
AcDbMaterial
  1
ByBlock
 72
     0
 43
0.0208333333333333
 43
0.0
 43
0.0
 43
0.0
 43
0.0
 43
0.0208333333333333
 43
0.0
 43
0.0
 43
0.0
 43
0.0
 43
1.0
 43
0.0
 43
0.0
 43
0.0
 43
0.0
 43
1.0
 77
     0
 47
0.0208333333333333
 47
0.0
 47
0.0
 47
0.0
 47
0.0
 47
0.0208333333333333
 47
0.0
 47
0.0
 47
0.0
 47
0.0
 47
1.0
 47
0.0
 47
0.0
 47
0.0
 47
0.0
 47
1.0
171
     0
 49
0.0208333333333333
 49
0.0
 49
0.0
 49
0.0
 49
0.0
 49
0.0208333333333333
 49
0.0
 49
0.0
 49
0.0
 49
0.0
 49
1.0
 49
0.0
 49
0.0
 49
0.0
 49
0.0
 49
1.0
175
     0
142
0.0208333333333333
142
0.0
142
0.0
142
0.0
142
0.0
142
0.0208333333333333
142
0.0
142
0.0
142
0.0
142
0.0
142
1.0
142
0.0
142
0.0
142
0.0
142
0.0
142
1.0
179
     0
144
0.0208333333333333
144
0.0
144
0.0
144
0.0
144
0.0
144
0.0208333333333333
144
0.0
144
0.0
144
0.0
144
0.0
144
1.0
144
0.0
144
0.0
144
0.0
144
0.0
144
1.0
147
0.0208333333333333
147
0.0
147
0.0
147
0.0
147
0.0
147
0.0208333333333333
147
0.0
147
0.0
147
0.0
147
0.0
147
1.0
147
0.0
147
0.0
147
0.0
147
0.0
147
1.0
  0
MATERIAL
  5
11
102
{ACAD_XDICTIONARY
360
12
102
}
102
{ACAD_REACTORS
330
10
102
}
330
10
100
AcDbMaterial
  1
ByLayer
 72
     0
 43
0.0208333333333333
 43
0.0
 43
0.0
 43
0.0
 43
0.0
 43
0.0208333333333333
 43
0.0
 43
0.0
 43
0.0
 43
0.0
 43
1.0
 43
0.0
 43
0.0
 43
0.0
 43
0.0
 43
1.0
 77
     0
 47
0.0208333333333333
 47
0.0
 47
0.0
 47
0.0
 47
0.0
 47
0.0208333333333333
 47
0.0
 47
0.0
 47
0.0
 47
0.0
 47
1.0
 47
0.0
 47
0.0
 47
0.0
 47
0.0
 47
1.0
171
     0
 49
0.0208333333333333
 49
0.0
 49
0.0
 49
0.0
 49
0.0
 49
0.0208333333333333
 49
0.0
 49
0.0
 49
0.0
 49
0.0
 49
1.0
 49
0.0
 49
0.0
 49
0.0
 49
0.0
 49
1.0
175
     0
142
0.0208333333333333
142
0.0
142
0.0
142
0.0
142
0.0
142
0.0208333333333333
142
0.0
142
0.0
142
0.0
142
0.0
142
1.0
142
0.0
142
0.0
142
0.0
142
0.0
142
1.0
179
     0
144
0.0208333333333333
144
0.0
144
0.0
144
0.0
144
0.0
144
0.0208333333333333
144
0.0
144
0.0
144
0.0
144
0.0
144
1.0
144
0.0
144
0.0
144
0.0
144
0.0
144
1.0
147
0.0208333333333333
147
0.0
147
0.0
147
0.0
147
0.0
147
0.0208333333333333
147
0.0
147
0.0
147
0.0
147
0.0
147
1.0
147
0.0
147
0.0
147
0.0
147
0.0
147
1.0
  0
MATERIAL
  5
21
102
{ACAD_XDICTIONARY
360
22
102
}
102
{ACAD_REACTORS
330
10
102
}
330
10
100
AcDbMaterial
  1
Global
 72
     0
 43
0.0208333333333333
 43
0.0
 43
0.0
 43
0.0
 43
0.0
 43
0.0208333333333333
 43
0.0
 43
0.0
 43
0.0
 43
0.0
 43
1.0
 43
0.0
 43
0.0
 43
0.0
 43
0.0
 43
1.0
 77
     0
 47
0.0208333333333333
 47
0.0
 47
0.0
 47
0.0
 47
0.0
 47
0.0208333333333333
 47
0.0
 47
0.0
 47
0.0
 47
0.0
 47
1.0
 47
0.0
 47
0.0
 47
0.0
 47
0.0
 47
1.0
171
     0
 49
0.0208333333333333
 49
0.0
 49
0.0
 49
0.0
 49
0.0
 49
0.0208333333333333
 49
0.0
 49
0.0
 49
0.0
 49
0.0
 49
1.0
 49
0.0
 49
0.0
 49
0.0
 49
0.0
 49
1.0
175
     0
142
0.0208333333333333
142
0.0
142
0.0
142
0.0
142
0.0
142
0.0208333333333333
142
0.0
142
0.0
142
0.0
142
0.0
142
1.0
142
0.0
142
0.0
142
0.0
142
0.0
142
1.0
179
     0
144
0.0208333333333333
144
0.0
144
0.0
144
0.0
144
0.0
144
0.0208333333333333
144
0.0
144
0.0
144
0.0
144
0.0
144
1.0
144
0.0
144
0.0
144
0.0
144
0.0
144
1.0
147
0.0208333333333333
147
0.0
147
0.0
147
0.0
147
0.0
147
0.0208333333333333
147
0.0
147
0.0
147
0.0
147
0.0
147
1.0
147
0.0
147
0.0
147
0.0
147
0.0
147
1.0
  0
MLEADERSTYLE
  5
67
102
{ACAD_REACTORS
330
66
102
}
330
66
100
AcDbMLeaderStyle
170
     2
171
     1
172
     0
 90
        2
 40
0.0
 41
0.0
173
     1
 91
-1056964608
340
5B
 92
       -2
290
     1
 42
0.09
291
     1
 43
0.36
  3
Standard
 44
0.18
300

342
55
174
     1
178
     6
175
     1
176
     0
 93
-1056964608
 45
0.18
292
     0
297
     0
 46
0.18
 94
-1056964608
 47
1.0
 49
1.0
140
1.0
293
     1
141
0.0
294
     1
177
     0
142
1.0
295
     0
296
     0
143
0.125
1001
ACAD_MLEADERVER
1070
     2
  0
MLINESTYLE
  5
60
102
{ACAD_REACTORS
330
5F
102
}
330
5F
100
AcDbMlineStyle
  2
STANDARD
 70
     0
  3

 62
   256
 51
90.0
 52
90.0
 71
     2
 49
0.5
 62
   256
  6
BYLAYER
 49
-0.5
 62
   256
  6
BYLAYER
  0
ACDBPLACEHOLDER
  5
F
102
{ACAD_REACTORS
330
E
102
}
330
E
  0
SCALE
  5
43
102
{ACAD_REACTORS
330
42
102
}
330
42
100
AcDbScale
 70
     0
300
1:1
140
1.0
141
1.0
290
     1
  0
SCALE
  5
44
102
{ACAD_REACTORS
330
42
102
}
330
42
100
AcDbScale
 70
     0
300
1/128" = 1'-0"
140
0.0078125
141
12.0
290
     0
  0
SCALE
  5
45
102
{ACAD_REACTORS
330
42
102
}
330
42
100
AcDbScale
 70
     0
300
1/64" = 1'-0"
140
0.015625
141
12.0
290
     0
  0
SCALE
  5
46
102
{ACAD_REACTORS
330
42
102
}
330
42
100
AcDbScale
 70
     0
300
1/32" = 1'-0"
140
0.03125
141
12.0
290
     0
  0
SCALE
  5
47
102
{ACAD_REACTORS
330
42
102
}
330
42
100
AcDbScale
 70
     0
300
1/16" = 1'-0"
140
0.0625
141
12.0
290
     0
  0
SCALE
  5
48
102
{ACAD_REACTORS
330
42
102
}
330
42
100
AcDbScale
 70
     0
300
3/32" = 1'-0"
140
0.09375
141
12.0
290
     0
  0
SCALE
  5
49
102
{ACAD_REACTORS
330
42
102
}
330
42
100
AcDbScale
 70
     0
300
1/8" = 1'-0"
140
0.125
141
12.0
290
     0
  0
SCALE
  5
4A
102
{ACAD_REACTORS
330
42
102
}
330
42
100
AcDbScale
 70
     0
300
3/16" = 1'-0"
140
0.1875
141
12.0
290
     0
  0
SCALE
  5
4B
102
{ACAD_REACTORS
330
42
102
}
330
42
100
AcDbScale
 70
     0
300
1/4" = 1'-0"
140
0.25
141
12.0
290
     0
  0
SCALE
  5
4C
102
{ACAD_REACTORS
330
42
102
}
330
42
100
AcDbScale
 70
     0
300
3/8" = 1'-0"
140
0.375
141
12.0
290
     0
  0
SCALE
  5
4D
102
{ACAD_REACTORS
330
42
102
}
330
42
100
AcDbScale
 70
     0
300
1/2" = 1'-0"
140
0.5
141
12.0
290
     0
  0
SCALE
  5
4E
102
{ACAD_REACTORS
330
42
102
}
330
42
100
AcDbScale
 70
     0
300
3/4" = 1'-0"
140
0.75
141
12.0
290
     0
  0
SCALE
  5
4F
102
{ACAD_REACTORS
330
42
102
}
330
42
100
AcDbScale
 70
     0
300
1" = 1'-0"
140
1.0
141
12.0
290
     0
  0
SCALE
  5
50
102
{ACAD_REACTORS
330
42
102
}
330
42
100
AcDbScale
 70
     0
300
1-1/2" = 1'-0"
140
1.5
141
12.0
290
     0
  0
SCALE
  5
51
102
{ACAD_REACTORS
330
42
102
}
330
42
100
AcDbScale
 70
     0
300
3" = 1'-0"
140
3.0
141
12.0
290
     0
  0
SCALE
  5
52
102
{ACAD_REACTORS
330
42
102
}
330
42
100
AcDbScale
 70
     0
300
6" = 1'-0"
140
6.0
141
12.0
290
     0
  0
SCALE
  5
53
102
{ACAD_REACTORS
330
42
102
}
330
42
100
AcDbScale
 70
     0
300
1'-0" = 1'-0"
140
12.0
141
12.0
290
     0
  0
TABLESTYLE
  5
65
102
{ACAD_XDICTIONARY
360
D3E
102
}
102
{ACAD_REACTORS
330
64
102
}
330
64
100
AcDbTableStyle
  3
Standard
 70
     0
 71
     0
 40
0.06
 41
0.06
280
     0
281
     0
  7
Standard
140
0.18
170
     2
 62
     0
 63
     7
283
     0
274
    -2
284
     1
 64
     0
275
    -2
285
     1
 65
     0
276
    -2
286
     1
 66
     0
277
    -2
287
     1
 67
     0
278
    -2
288
     1
 68
     0
279
    -2
289
     1
 69
     0
  7
Standard
140
0.25
170
     5
 62
     0
 63
     7
283
     0
274
    -2
284
     1
 64
     0
275
    -2
285
     1
 65
     0
276
    -2
286
     1
 66
     0
277
    -2
287
     1
 67
     0
278
    -2
288
     1
 68
     0
279
    -2
289
     1
 69
     0
  7
Standard
140
0.18
170
     5
 62
     0
 63
     7
283
     0
274
    -2
284
     1
 64
     0
275
    -2
285
     1
 65
     0
276
    -2
286
     1
 66
     0
277
    -2
287
     1
 67
     0
278
    -2
288
     1
 68
     0
279
    -2
289
     1
 69
     0
  0
VISUALSTYLE
  5
2F
102
{ACAD_XDICTIONARY
360
F23
102
}
102
{ACAD_REACTORS
330
29
102
}
330
29
100
AcDbVisualStyle
  2
2dWireframe
 70
     4
 71
     0
 72
     2
 73
     0
 90
        0
 40
-0.6
 41
-30.0
 62
     5
 63
     7
 74
     1
 91
        4
 64
     7
 65
   257
 75
     1
175
     1
 42
1.0
 92
        0
 66
   257
 43
1.0
 76
     1
 77
     6
 78
     2
 67
     7
 79
     5
170
     0
171
     0
290
     0
174
     0
 93
        1
 44
0.0
173
     0
291
     0
 45
0.0
1001
ACAD
1000
AcDbSavedByObjectVersion
1070
     0
  0
VISUALSTYLE
  5
2E
102
{ACAD_XDICTIONARY
360
F21
102
}
102
{ACAD_REACTORS
330
29
102
}
330
29
100
AcDbVisualStyle
  2
Basic
 70
     7
 71
     1
 72
     0
 73
     1
 90
        0
 40
-0.6
 41
-30.0
 62
     5
 63
     7
 74
     0
 91
        4
 64
     7
 65
   257
 75
     1
175
     1
 42
1.0
 92
        8
 66
     7
 43
1.0
 76
     1
 77
     6
 78
     2
 67
     7
 79
     5
170
     0
171
     0
290
     0
174
     0
 93
        1
 44
0.0
173
     0
291
     1
 45
0.0
1001
ACAD
1000
AcDbSavedByObjectVersion
1070
     0
  0
VISUALSTYLE
  5
35
102
{ACAD_XDICTIONARY
360
F2F
102
}
102
{ACAD_REACTORS
330
29
102
}
330
29
100
AcDbVisualStyle
  2
Brighten
 70
    12
 71
     2
 72
     2
 73
     0
 90
        0
 40
-0.6
 41
-30.0
 62
     5
 63
     7
 74
     1
 91
        4
 64
     7
 65
   257
 75
     1
175
     1
 42
1.0
 92
        8
 66
     7
 43
1.0
 76
     1
 77
     6
 78
     2
 67
     7
 79
     5
170
     0
171
     0
290
     0
174
     0
 93
        1
 44
50.0
173
     0
291
     1
 45
0.0
1001
ACAD
1000
AcDbSavedByObjectVersion
1070
     0
  0
VISUALSTYLE
  5
39
102
{ACAD_XDICTIONARY
360
F37
102
}
102
{ACAD_REACTORS
330
29
102
}
330
29
100
AcDbVisualStyle
  2
ColorChange
 70
    16
 71
     2
 72
     2
 73
     3
 90
        0
 40
-0.6
 41
-30.0
 62
     5
 63
     8
 74
     1
 91
        4
 64
     7
 65
   257
 75
     1
175
     1
 42
1.0
 92
        8
 66
     8
 43
1.0
 76
     1
 77
     6
 78
     2
 67
     7
 79
     5
170
     0
171
     0
290
     0
174
     0
 93
        1
 44
0.0
173
     0
291
     1
 45
0.0
1001
ACAD
1000
AcDbSavedByObjectVersion
1070
     0
  0
VISUALSTYLE
  5
32
102
{ACAD_XDICTIONARY
360
F29
102
}
102
{ACAD_REACTORS
330
29
102
}
330
29
100
AcDbVisualStyle
  2
Conceptual
 70
     9
 71
     3
 72
     2
 73
     0
 90
        0
 40
-0.6
 41
-30.0
 62
     5
 63
     7
 74
     2
 91
        2
 64
     7
 65
   257
 75
     1
175
     1
 42
179.0
 92
        8
 66
     7
 43
1.0
 76
     1
 77
     6
 78
     2
 67
     7
 79
     3
170
     0
171
     0
290
     0
174
     0
 93
        1
 44
0.0
173
     0
291
     0
 45
0.0
1001
ACAD
1000
AcDbSavedByObjectVersion
1070
     0
  0
VISUALSTYLE
  5
34
102
{ACAD_XDICTIONARY
360
F2D
102
}
102
{ACAD_REACTORS
330
29
102
}
330
29
100
AcDbVisualStyle
  2
Dim
 70
    11
 71
     2
 72
     2
 73
     0
 90
        0
 40
-0.6
 41
-30.0
 62
     5
 63
     7
 74
     1
 91
        4
 64
     7
 65
   257
 75
     1
175
     1
 42
1.0
 92
        8
 66
     7
 43
1.0
 76
     1
 77
     6
 78
     2
 67
     7
 79
     5
170
     0
171
     0
290
     0
174
     0
 93
        1
 44
-50.0
173
     0
291
     1
 45
0.0
1001
ACAD
1000
AcDbSavedByObjectVersion
1070
     0
  0
VISUALSTYLE
  5
41
102
{ACAD_XDICTIONARY
360
F47
102
}
102
{ACAD_REACTORS
330
29
102
}
330
29
100
AcDbVisualStyle
  2
EdgeColorOff
 70
    22
 71
     2
 72
     2
 73
     0
 90
        0
 40
-0.6
 41
-30.0
 62
     5
 63
     7
 74
     1
 91
        4
 64
     7
 65
   257
 75
     1
175
     1
 42
1.0
 92
        8
 66
     7
 43
1.0
 76
     1
 77
     6
 78
     2
 67
     7
 79
     5
170
     0
171
     0
290
     0
174
     0
 93
        1
 44
0.0
173
     0
291
     1
 45
0.0
1001
ACAD
1000
AcDbSavedByObjectVersion
1070
     0
  0
VISUALSTYLE
  5
38
102
{ACAD_XDICTIONARY
360
F35
102
}
102
{ACAD_REACTORS
330
29
102
}
330
29
100
AcDbVisualStyle
  2
Facepattern
 70
    15
 71
     2
 72
     2
 73
     0
 90
        0
 40
-0.6
 41
-30.0
 62
     5
 63
     7
 74
     1
 91
        4
 64
     7
 65
   257
 75
     1
175
     1
 42
1.0
 92
        8
 66
     7
 43
1.0
 76
     1
 77
     6
 78
     2
 67
     7
 79
     5
170
     0
171
     0
290
     0
174
     0
 93
        1
 44
0.0
173
     0
291
     1
 45
0.0
1001
ACAD
1000
AcDbSavedByObjectVersion
1070
     0
  0
VISUALSTYLE
  5
2A
102
{ACAD_XDICTIONARY
360
F19
102
}
102
{ACAD_REACTORS
330
29
102
}
330
29
100
AcDbVisualStyle
  2
Flat
 70
     0
 71
     2
 72
     1
 73
     1
 90
        2
 40
-0.6
 41
30.0
 62
     5
 63
     7
 74
     0
 91
        0
 64
     7
 65
   257
 75
     1
175
     1
 42
1.0
 92
        8
 66
     7
 43
1.0
 76
     1
 77
     6
 78
     2
 67
     7
 79
     5
170
     0
171
     0
290
     0
174
     0
 93
       13
 44
0.0
173
     0
291
     1
 45
0.0
1001
ACAD
1000
AcDbSavedByObjectVersion
1070
     0
  0
VISUALSTYLE
  5
2B
102
{ACAD_XDICTIONARY
360
F1B
102
}
102
{ACAD_REACTORS
330
29
102
}
330
29
100
AcDbVisualStyle
  2
FlatWithEdges
 70
     1
 71
     2
 72
     1
 73
     1
 90
        2
 40
-0.6
 41
30.0
 62
     5
 63
     7
 74
     1
 91
        0
 64
     7
 65
   257
 75
     1
175
     1
 42
1.0
 92
        0
 66
   257
 43
1.0
 76
     1
 77
     6
 78
     2
 67
     7
 79
     5
170
     0
171
     0
290
     0
174
     0
 93
       13
 44
0.0
173
     0
291
     1
 45
0.0
1001
ACAD
1000
AcDbSavedByObjectVersion
1070
     0
  0
VISUALSTYLE
  5
2C
102
{ACAD_XDICTIONARY
360
F1D
102
}
102
{ACAD_REACTORS
330
29
102
}
330
29
100
AcDbVisualStyle
  2
Gouraud
 70
     2
 71
     2
 72
     2
 73
     1
 90
        2
 40
-0.6
 41
30.0
 62
     5
 63
     7
 74
     0
 91
        0
 64
     7
 65
   257
 75
     1
175
     1
 42
1.0
 92
        0
 66
     7
 43
1.0
 76
     1
 77
     6
 78
     2
 67
     7
 79
     5
170
     0
171
     0
290
     0
174
     0
 93
       13
 44
0.0
173
     0
291
     1
 45
0.0
1001
ACAD
1000
AcDbSavedByObjectVersion
1070
     0
  0
VISUALSTYLE
  5
2D
102
{ACAD_XDICTIONARY
360
F1F
102
}
102
{ACAD_REACTORS
330
29
102
}
330
29
100
AcDbVisualStyle
  2
GouraudWithEdges
 70
     3
 71
     2
 72
     2
 73
     1
 90
        2
 40
-0.6
 41
30.0
 62
     5
 63
     7
 74
     1
 91
        0
 64
     7
 65
   257
 75
     1
175
     1
 42
1.0
 92
        0
 66
   257
 43
1.0
 76
     1
 77
     6
 78
     2
 67
     7
 79
     5
170
     0
171
     0
290
     0
174
     0
 93
       13
 44
0.0
173
     0
291
     1
 45
0.0
1001
ACAD
1000
AcDbSavedByObjectVersion
1070
     0
  0
VISUALSTYLE
  5
31
102
{ACAD_XDICTIONARY
360
F27
102
}
102
{ACAD_REACTORS
330
29
102
}
330
29
100
AcDbVisualStyle
  2
Hidden
 70
     6
 71
     1
 72
     2
 73
     2
 90
        0
 40
-0.6
 41
-30.0
 62
     5
 63
     7
 74
     2
 91
        2
 64
     7
 65
   257
 75
     2
175
     1
 42
40.0
 92
        0
 66
   257
 43
1.0
 76
     1
 77
     6
 78
     2
 67
     7
 79
     3
170
     0
171
     0
290
     0
174
     0
 93
        1
 44
0.0
173
     0
291
     0
 45
0.0
1001
ACAD
1000
AcDbSavedByObjectVersion
1070
     0
  0
VISUALSTYLE
  5
3F
102
{ACAD_XDICTIONARY
360
F43
102
}
102
{ACAD_REACTORS
330
29
102
}
330
29
100
AcDbVisualStyle
  2
JitterOff
 70
    20
 71
     2
 72
     2
 73
     0
 90
        0
 40
-0.6
 41
-30.0
 62
     5
 63
     7
 74
     1
 91
        4
 64
     7
 65
   257
 75
     1
175
     1
 42
1.0
 92
       10
 66
     7
 43
1.0
 76
     1
 77
     6
 78
     2
 67
     7
 79
     5
170
     0
171
     0
290
     0
174
     0
 93
        1
 44
0.0
173
     0
291
     1
 45
0.0
1001
ACAD
1000
AcDbSavedByObjectVersion
1070
     0
  0
VISUALSTYLE
  5
37
102
{ACAD_XDICTIONARY
360
F33
102
}
102
{ACAD_REACTORS
330
29
102
}
330
29
100
AcDbVisualStyle
  2
Linepattern
 70
    14
 71
     2
 72
     2
 73
     0
 90
        0
 40
-0.6
 41
-30.0
 62
     5
 63
     7
 74
     1
 91
        4
 64
     7
 65
   257
 75
     7
175
     7
 42
1.0
 92
        8
 66
     7
 43
1.0
 76
     1
 77
     6
 78
     2
 67
     7
 79
     5
170
     0
171
     0
290
     0
174
     0
 93
        1
 44
0.0
173
     0
291
     1
 45
0.0
1001
ACAD
1000
AcDbSavedByObjectVersion
1070
     0
  0
VISUALSTYLE
  5
40
102
{ACAD_XDICTIONARY
360
F45
102
}
102
{ACAD_REACTORS
330
29
102
}
330
29
100
AcDbVisualStyle
  2
OverhangOff
 70
    21
 71
     2
 72
     2
 73
     0
 90
        0
 40
-0.6
 41
-30.0
 62
     5
 63
     7
 74
     1
 91
        4
 64
     7
 65
   257
 75
     1
175
     1
 42
1.0
 92
        9
 66
     7
 43
1.0
 76
     1
 77
     6
 78
     2
 67
     7
 79
     5
170
     0
171
     0
290
     0
174
     0
 93
        1
 44
0.0
173
     0
291
     1
 45
0.0
1001
ACAD
1000
AcDbSavedByObjectVersion
1070
     0
  0
VISUALSTYLE
  5
33
102
{ACAD_XDICTIONARY
360
F2B
102
}
102
{ACAD_REACTORS
330
29
102
}
330
29
100
AcDbVisualStyle
  2
Realistic
 70
     8
 71
     2
 72
     2
 73
     0
 90
        2
 40
-0.6
 41
30.0
 62
     5
 63
     7
 74
     0
 91
        0
 64
     7
 65
   257
 75
     1
175
     1
 42
1.0
 92
        8
 66
   257
 43
1.0
 76
     1
 77
     6
 78
     2
 67
     7
 79
     3
170
     0
171
     0
290
     0
174
     0
 93
       13
 44
0.0
173
     0
291
     0
 45
0.0
1001
ACAD
1000
AcDbSavedByObjectVersion
1070
     0
  0
VISUALSTYLE
  5
3E
102
{ACAD_XDICTIONARY
360
F41
102
}
102
{ACAD_REACTORS
330
29
102
}
330
29
100
AcDbVisualStyle
  2
Shaded
 70
    27
 71
     2
 72
     2
 73
     1
 90
        2
 40
-0.6
 41
30.0
 62
     5
 63
     7
 74
     0
 91
        4
 64
     7
 65
   257
 75
     1
175
     1
 42
1.0
 92
        8
 66
   257
 43
1.0
 76
     1
 77
     6
 78
     2
 67
     8
 79
     3
170
     0
171
     0
290
     0
174
     0
 93
        5
 44
0.0
173
     0
291
     0
 45
0.0
1001
ACAD
1000
AcDbSavedByObjectVersion
1070
     0
  0
VISUALSTYLE
  5
3D
102
{ACAD_XDICTIONARY
360
F3F
102
}
102
{ACAD_REACTORS
330
29
102
}
330
29
100
AcDbVisualStyle
  2
Shaded with edges
 70
    26
 71
     2
 72
     2
 73
     1
 90
        2
 40
-0.6
 41
30.0
 62
     5
 63
     7
 74
     1
 91
       10
 64
     7
 65
   257
 75
     2
175
     1
 42
1.0
 92
        8
 66
   257
 43
1.0
 76
     1
 77
     6
 78
     2
 67
     7
 79
     3
170
     0
171
     0
290
     0
174
     0
 93
        5
 44
0.0
173
     0
291
     0
 45
0.0
1001
ACAD
1000
AcDbSavedByObjectVersion
1070
     0
  0
VISUALSTYLE
  5
3A
102
{ACAD_XDICTIONARY
360
F39
102
}
102
{ACAD_REACTORS
330
29
102
}
330
29
100
AcDbVisualStyle
  2
Shades of Gray
 70
    23
 71
     2
 72
     2
 73
     3
 90
        0
 40
-0.6
 41
-30.0
 62
     5
 63
     7
 74
     2
 91
        2
 64
     7
 65
     7
 75
     1
175
     1
 42
40.0
 92
        8
 66
     7
 43
1.0
 76
     1
 77
     6
 78
     2
 67
     7
 79
     3
170
     0
171
     0
290
     0
174
     0
 93
        1
 44
0.0
173
     0
291
     0
 45
0.0
1001
ACAD
1000
AcDbSavedByObjectVersion
1070
     0
  0
VISUALSTYLE
  5
3B
102
{ACAD_XDICTIONARY
360
F3B
102
}
102
{ACAD_REACTORS
330
29
102
}
330
29
100
AcDbVisualStyle
  2
Sketchy
 70
    24
 71
     1
 72
     2
 73
     2
 90
        0
 40
-0.6
 41
-30.0
 62
     5
 63
     7
 74
     2
 91
        2
 64
     7
 65
     7
 75
     1
175
     1
 42
40.0
 92
       11
 66
     7
 43
1.0
 76
     1
 77
     6
 78
     2
 67
     7
 79
     6
170
     0
171
     0
290
     0
174
     0
 93
        1
 44
0.0
173
     0
291
     0
 45
0.0
1001
ACAD
1000
AcDbSavedByObjectVersion
1070
     0
  0
VISUALSTYLE
  5
36
102
{ACAD_XDICTIONARY
360
F31
102
}
102
{ACAD_REACTORS
330
29
102
}
330
29
100
AcDbVisualStyle
  2
Thicken
 70
    13
 71
     2
 72
     2
 73
     0
 90
        0
 40
-0.6
 41
-30.0
 62
     5
 63
     7
 74
     1
 91
        4
 64
     7
 65
   257
 75
     1
175
     1
 42
1.0
 92
       12
 66
     7
 43
1.0
 76
     1
 77
     6
 78
     2
 67
     7
 79
     5
170
     0
171
     0
290
     0
174
     0
 93
        1
 44
0.0
173
     0
291
     1
 45
0.0
1001
ACAD
1000
AcDbSavedByObjectVersion
1070
     0
  0
VISUALSTYLE
  5
30
102
{ACAD_XDICTIONARY
360
F25
102
}
102
{ACAD_REACTORS
330
29
102
}
330
29
100
AcDbVisualStyle
  2
Wireframe
 70
     5
 71
     0
 72
     2
 73
     0
 90
        0
 40
-0.6
 41
-30.0
 62
     5
 63
     7
 74
     1
 91
        4
 64
     7
 65
   257
 75
     1
175
     1
 42
1.0
 92
        0
 66
   257
 43
1.0
 76
     1
 77
     6
 78
     2
 67
     7
 79
     3
170
     0
171
     0
290
     0
174
     0
 93
        1
 44
0.0
173
     0
291
     0
 45
0.0
1001
ACAD
1000
AcDbSavedByObjectVersion
1070
     0
  0
VISUALSTYLE
  5
3C
102
{ACAD_XDICTIONARY
360
F3D
102
}
102
{ACAD_REACTORS
330
29
102
}
330
29
100
AcDbVisualStyle
  2
X-Ray
 70
    25
 71
     2
 72
     2
 73
     1
 90
        1
 40
0.5
 41
-30.0
 62
     5
 63
     7
 74
     1
 91
        0
 64
     7
 65
   257
 75
     1
175
     1
 42
1.0
 92
        8
 66
     7
 43
1.0
 76
     1
 77
     6
 78
     2
 67
     7
 79
     3
170
     0
171
     0
290
     0
174
     0
 93
       13
 44
0.0
173
     0
291
     0
 45
0.0
1001
ACAD
1000
AcDbSavedByObjectVersion
1070
     0
  0
DICTIONARYVAR
  5
D93
102
{ACAD_REACTORS
330
D8F
102
}
330
D8F
100
DictionaryVariables
280
     0
  1
1:1
  0
DICTIONARYVAR
  5
D91
102
{ACAD_REACTORS
330
D8F
102
}
330
D8F
100
DictionaryVariables
280
     0
  1
STANDARD
  0
DICTIONARYVAR
  5
D90
102
{ACAD_REACTORS
330
D8F
102
}
330
D8F
100
DictionaryVariables
280
     0
  1
STANDARD
  0
DICTIONARYVAR
  5
D9A
102
{ACAD_REACTORS
330
D8F
102
}
330
D8F
100
DictionaryVariables
280
     0
  1
1
  0
DICTIONARYVAR
  5
D99
102
{ACAD_REACTORS
330
D8F
102
}
330
D8F
100
DictionaryVariables
280
     0
  1
1
  0
DICTIONARYVAR
  5
D98
102
{ACAD_REACTORS
330
D8F
102
}
330
D8F
100
DictionaryVariables
280
     0
  1
0
  0
DICTIONARYVAR
  5
D95
102
{ACAD_REACTORS
330
D8F
102
}
330
D8F
100
DictionaryVariables
280
     0
  1
0
  0
DICTIONARYVAR
  5
D96
102
{ACAD_REACTORS
330
D8F
102
}
330
D8F
100
DictionaryVariables
280
     0
  1
0
  0
DICTIONARYVAR
  5
D94
102
{ACAD_REACTORS
330
D8F
102
}
330
D8F
100
DictionaryVariables
280
     0
  1
2
  0
DICTIONARYVAR
  5
D92
102
{ACAD_REACTORS
330
D8F
102
}
330
D8F
100
DictionaryVariables
280
     0
  1
1
  0
DICTIONARYVAR
  5
D97
102
{ACAD_REACTORS
330
D8F
102
}
330
D8F
100
DictionaryVariables
280
     0
  1
127
  0
DICTIONARYVAR
  5
F0A
102
{ACAD_REACTORS
330
D8F
102
}
330
D8F
100
DictionaryVariables
280
     0
  1
2
  0
DICTIONARY
  5
F4A
330
6B
100
AcDbDictionary
280
     1
281
     1
  3
ACAD_XREC_ROUNDTRIP
360
F4B
  0
DICTIONARY
  5
F4E
330
73
100
AcDbDictionary
280
     1
281
     1
  3
ACAD_XREC_ROUNDTRIP
360
F4F
  0
DICTIONARY
  5
F4C
330
6F
100
AcDbDictionary
280
     1
281
     1
  3
ACAD_XREC_ROUNDTRIP
360
F4D
  0
DICTIONARY
  5
1A
330
19
100
AcDbDictionary
280
     1
281
     1
  3
ACAD_XREC_ROUNDTRIP
360
F17
  3
BUMPTILE
360
1C
  3
DIFFUSETILE
360
1B
  3
OPACITYTILE
360
1F
  3
REFLECTIONTILE
360
1E
  3
REFRACTIONTILE
360
20
  3
SPECULARTILE
360
1D
  0
DICTIONARY
  5
12
330
11
100
AcDbDictionary
280
     1
281
     1
  3
ACAD_XREC_ROUNDTRIP
360
F16
  3
BUMPTILE
360
14
  3
DIFFUSETILE
360
13
  3
OPACITYTILE
360
17
  3
REFLECTIONTILE
360
16
  3
REFRACTIONTILE
360
18
  3
SPECULARTILE
360
15
  0
DICTIONARY
  5
22
330
21
100
AcDbDictionary
280
     1
281
     1
  3
ACAD_XREC_ROUNDTRIP
360
F18
  3
BUMPTILE
360
24
  3
DIFFUSETILE
360
23
  3
OPACITYTILE
360
27
  3
REFLECTIONTILE
360
26
  3
REFRACTIONTILE
360
28
  3
SPECULARTILE
360
25
  0
DICTIONARY
  5
D3E
330
65
100
AcDbDictionary
280
     1
281
     1
  3
ACAD_ROUNDTRIP_2008_TABLESTYLE_CELLSTYLEMAP
360
F0B
  3
ACAD_XREC_ROUNDTRIP
360
F49
  0
DICTIONARY
  5
F23
330
2F
100
AcDbDictionary
280
     1
281
     1
  3
ACAD_XREC_ROUNDTRIP
360
F24
  0
DICTIONARY
  5
F21
330
2E
100
AcDbDictionary
280
     1
281
     1
  3
ACAD_XREC_ROUNDTRIP
360
F22
  0
DICTIONARY
  5
F2F
330
35
100
AcDbDictionary
280
     1
281
     1
  3
ACAD_XREC_ROUNDTRIP
360
F30
  0
DICTIONARY
  5
F37
330
39
100
AcDbDictionary
280
     1
281
     1
  3
ACAD_XREC_ROUNDTRIP
360
F38
  0
DICTIONARY
  5
F29
330
32
100
AcDbDictionary
280
     1
281
     1
  3
ACAD_XREC_ROUNDTRIP
360
F2A
  0
DICTIONARY
  5
F2D
330
34
100
AcDbDictionary
280
     1
281
     1
  3
ACAD_XREC_ROUNDTRIP
360
F2E
  0
DICTIONARY
  5
F47
330
41
100
AcDbDictionary
280
     1
281
     1
  3
ACAD_XREC_ROUNDTRIP
360
F48
  0
DICTIONARY
  5
F35
330
38
100
AcDbDictionary
280
     1
281
     1
  3
ACAD_XREC_ROUNDTRIP
360
F36
  0
DICTIONARY
  5
F19
330
2A
100
AcDbDictionary
280
     1
281
     1
  3
ACAD_XREC_ROUNDTRIP
360
F1A
  0
DICTIONARY
  5
F1B
330
2B
100
AcDbDictionary
280
     1
281
     1
  3
ACAD_XREC_ROUNDTRIP
360
F1C
  0
DICTIONARY
  5
F1D
330
2C
100
AcDbDictionary
280
     1
281
     1
  3
ACAD_XREC_ROUNDTRIP
360
F1E
  0
DICTIONARY
  5
F1F
330
2D
100
AcDbDictionary
280
     1
281
     1
  3
ACAD_XREC_ROUNDTRIP
360
F20
  0
DICTIONARY
  5
F27
330
31
100
AcDbDictionary
280
     1
281
     1
  3
ACAD_XREC_ROUNDTRIP
360
F28
  0
DICTIONARY
  5
F43
330
3F
100
AcDbDictionary
280
     1
281
     1
  3
ACAD_XREC_ROUNDTRIP
360
F44
  0
DICTIONARY
  5
F33
330
37
100
AcDbDictionary
280
     1
281
     1
  3
ACAD_XREC_ROUNDTRIP
360
F34
  0
DICTIONARY
  5
F45
330
40
100
AcDbDictionary
280
     1
281
     1
  3
ACAD_XREC_ROUNDTRIP
360
F46
  0
DICTIONARY
  5
F2B
330
33
100
AcDbDictionary
280
     1
281
     1
  3
ACAD_XREC_ROUNDTRIP
360
F2C
  0
DICTIONARY
  5
F41
330
3E
100
AcDbDictionary
280
     1
281
     1
  3
ACAD_XREC_ROUNDTRIP
360
F42
  0
DICTIONARY
  5
F3F
330
3D
100
AcDbDictionary
280
     1
281
     1
  3
ACAD_XREC_ROUNDTRIP
360
F40
  0
DICTIONARY
  5
F39
330
3A
100
AcDbDictionary
280
     1
281
     1
  3
ACAD_XREC_ROUNDTRIP
360
F3A
  0
DICTIONARY
  5
F3B
330
3B
100
AcDbDictionary
280
     1
281
     1
  3
ACAD_XREC_ROUNDTRIP
360
F3C
  0
DICTIONARY
  5
F31
330
36
100
AcDbDictionary
280
     1
281
     1
  3
ACAD_XREC_ROUNDTRIP
360
F32
  0
DICTIONARY
  5
F25
330
30
100
AcDbDictionary
280
     1
281
     1
  3
ACAD_XREC_ROUNDTRIP
360
F26
  0
DICTIONARY
  5
F3D
330
3C
100
AcDbDictionary
280
     1
281
     1
  3
ACAD_XREC_ROUNDTRIP
360
F3E
  0
XRECORD
  5
F4B
102
{ACAD_REACTORS
330
F4A
102
}
330
F4A
100
AcDbXrecord
280
     1
102
SHADEPLOT
 70
     0
102
SHADEPLOTRESLEVEL
 70
     2
102
SHADEPLOTCUSTOMDPI
 70
   300
  0
XRECORD
  5
F4F
102
{ACAD_REACTORS
330
F4E
102
}
330
F4E
100
AcDbXrecord
280
     1
102
SHADEPLOT
 70
     0
102
SHADEPLOTRESLEVEL
 70
     2
102
SHADEPLOTCUSTOMDPI
 70
   300
  0
XRECORD
  5
F4D
102
{ACAD_REACTORS
330
F4C
102
}
330
F4C
100
AcDbXrecord
280
     1
102
SHADEPLOT
 70
     0
102
SHADEPLOTRESLEVEL
 70
     2
102
SHADEPLOTCUSTOMDPI
 70
   300
  0
XRECORD
  5
F17
102
{ACAD_REACTORS
330
1A
102
}
330
1A
100
AcDbXrecord
280
     1
102
MATERIAL
148
0.0
149
0.0
149
0.0
 93
        0
 94
      127
282
     0
 72
     0
 77
     0
171
     0
175
     0
179
     0
273
     0
  0
XRECORD
  5
1C
102
{ACAD_REACTORS
330
1A
102
}
330
1A
100
AcDbXrecord
280
     1
270
     1
271
     1
  0
XRECORD
  5
1B
102
{ACAD_REACTORS
330
1A
102
}
330
1A
100
AcDbXrecord
280
     1
270
     1
271
     1
  0
XRECORD
  5
1F
102
{ACAD_REACTORS
330
1A
102
}
330
1A
100
AcDbXrecord
280
     1
270
     1
271
     1
  0
XRECORD
  5
1E
102
{ACAD_REACTORS
330
1A
102
}
330
1A
100
AcDbXrecord
280
     1
270
     1
271
     1
  0
XRECORD
  5
20
102
{ACAD_REACTORS
330
1A
102
}
330
1A
100
AcDbXrecord
280
     1
270
     1
271
     1
  0
XRECORD
  5
1D
102
{ACAD_REACTORS
330
1A
102
}
330
1A
100
AcDbXrecord
280
     1
270
     1
271
     1
  0
XRECORD
  5
F16
102
{ACAD_REACTORS
330
12
102
}
330
12
100
AcDbXrecord
280
     1
102
MATERIAL
148
0.0
149
0.0
149
0.0
 93
        0
 94
      127
282
     0
 72
     0
 77
     0
171
     0
175
     0
179
     0
273
     0
  0
XRECORD
  5
14
102
{ACAD_REACTORS
330
12
102
}
330
12
100
AcDbXrecord
280
     1
270
     1
271
     1
  0
XRECORD
  5
13
102
{ACAD_REACTORS
330
12
102
}
330
12
100
AcDbXrecord
280
     1
270
     1
271
     1
  0
XRECORD
  5
17
102
{ACAD_REACTORS
330
12
102
}
330
12
100
AcDbXrecord
280
     1
270
     1
271
     1
  0
XRECORD
  5
16
102
{ACAD_REACTORS
330
12
102
}
330
12
100
AcDbXrecord
280
     1
270
     1
271
     1
  0
XRECORD
  5
18
102
{ACAD_REACTORS
330
12
102
}
330
12
100
AcDbXrecord
280
     1
270
     1
271
     1
  0
XRECORD
  5
15
102
{ACAD_REACTORS
330
12
102
}
330
12
100
AcDbXrecord
280
     1
270
     1
271
     1
  0
XRECORD
  5
F18
102
{ACAD_REACTORS
330
22
102
}
330
22
100
AcDbXrecord
280
     1
102
MATERIAL
148
0.0
149
0.0
149
0.0
 93
        0
 94
      127
282
     0
 72
     0
 77
     0
171
     0
175
     0
179
     0
273
     0
  0
XRECORD
  5
24
102
{ACAD_REACTORS
330
22
102
}
330
22
100
AcDbXrecord
280
     1
270
     1
271
     1
  0
XRECORD
  5
23
102
{ACAD_REACTORS
330
22
102
}
330
22
100
AcDbXrecord
280
     1
270
     1
271
     1
  0
XRECORD
  5
27
102
{ACAD_REACTORS
330
22
102
}
330
22
100
AcDbXrecord
280
     1
270
     1
271
     1
  0
XRECORD
  5
26
102
{ACAD_REACTORS
330
22
102
}
330
22
100
AcDbXrecord
280
     1
270
     1
271
     1
  0
XRECORD
  5
28
102
{ACAD_REACTORS
330
22
102
}
330
22
100
AcDbXrecord
280
     1
270
     1
271
     1
  0
XRECORD
  5
25
102
{ACAD_REACTORS
330
22
102
}
330
22
100
AcDbXrecord
280
     1
270
     1
271
     1
  0
CELLSTYLEMAP
  5
F0B
102
{ACAD_REACTORS
330
D3E
102
}
330
D3E
100
AcDbCellStyleMap
 90
        3
300
CELLSTYLE
  1
TABLEFORMAT_BEGIN
 90
        5
170
     1
 91
        0
 92
    32768
 62
   257
 93
        1
300
CONTENTFORMAT
  1
CONTENTFORMAT_BEGIN
 90
        0
 91
        0
 92
      512
 93
        0
300

 40
0.0
140
1.0
 94
        5
 62
     0
340
55
144
0.25
309
CONTENTFORMAT_END
171
     0
 94
        0
309
TABLEFORMAT_END
  1
CELLSTYLE_BEGIN
 90
        1
 91
        1
300
_TITLE
309
CELLSTYLE_END
300
CELLSTYLE
  1
TABLEFORMAT_BEGIN
 90
        5
170
     1
 91
        0
 92
        0
 62
   257
 93
        1
300
CONTENTFORMAT
  1
CONTENTFORMAT_BEGIN
 90
        0
 91
        0
 92
      512
 93
        0
300

 40
0.0
140
1.0
 94
        5
 62
     0
340
55
144
0.18
309
CONTENTFORMAT_END
171
     0
 94
        0
309
TABLEFORMAT_END
  1
CELLSTYLE_BEGIN
 90
        2
 91
        1
300
_HEADER
309
CELLSTYLE_END
300
CELLSTYLE
  1
TABLEFORMAT_BEGIN
 90
        5
170
     1
 91
        0
 92
        0
 62
   257
 93
        1
300
CONTENTFORMAT
  1
CONTENTFORMAT_BEGIN
 90
        0
 91
        0
 92
      512
 93
        0
300

 40
0.0
140
1.0
 94
        2
 62
     0
340
55
144
0.18
309
CONTENTFORMAT_END
171
     0
 94
        0
309
TABLEFORMAT_END
  1
CELLSTYLE_BEGIN
 90
        3
 91
        2
300
_DATA
309
CELLSTYLE_END
  0
XRECORD
  5
F49
102
{ACAD_REACTORS
330
D3E
102
}
330
D3E
100
AcDbXrecord
280
     1
102
ACAD_ROUNDTRIP_PRE2007_TABLESTYLE
 90
      512
 91
        0
  1

 92
      512
 93
        0
  2

 94
      512
 95
        0
  3

  0
XRECORD
  5
F24
102
{ACAD_REACTORS
330
F23
102
}
330
F23
100
AcDbXrecord
280
     1
102
RTVSPropertyOp0
 70
     1
102
RTVSPropertyOp1
 70
     1
102
RTVSPropertyOp2
 70
     1
102
RTVSPropertyOp3
 70
     1
102
RTVSPropertyOp4
 70
     1
102
RTVSPropertyOp5
 70
     1
102
RTVSPropertyOp6
 70
     1
102
RTVSPropertyOp7
 70
     1
102
RTVSPropertyOp8
 70
     1
102
RTVSPropertyOp9
 70
     1
102
RTVSPropertyOp10
 70
     1
102
RTVSPropertyOp11
 70
     1
102
RTVSPropertyOp12
 70
     1
102
RTVSPropertyOp13
 70
     1
102
RTVSPropertyOp14
 70
     1
102
RTVSPropertyOp15
 70
     1
102
RTVSPropertyOp16
 70
     1
102
RTVSPropertyOp17
 70
     1
102
RTVSPropertyOp18
 70
     1
102
RTVSPropertyOp19
 70
     1
102
RTVSPropertyOp20
 70
     1
102
RTVSPropertyOp21
 70
     1
102
RTVSPropertyOp22
 70
     1
102
RTVSPropertyOp23
 70
     1
102
RTVSPropertyOp24
 70
     1
102
RTVSPropertyOp25
 70
     1
102
RTVSPropertyOp26
 70
     1
102
RTVSPropertyOp27
 70
     1
102
RTVSPropertyOp28
 70
     1
102
RTVSPropertyOp29
 70
     1
102
RTVSPropertyOp30
 70
     1
102
RTVSPropertyOp31
 70
     1
102
RTVSPropertyOp32
 70
     1
  0
XRECORD
  5
F22
102
{ACAD_REACTORS
330
F21
102
}
330
F21
100
AcDbXrecord
280
     1
102
RTVSPropertyOp0
 70
     1
102
RTVSPropertyOp1
 70
     1
102
RTVSPropertyOp2
 70
     1
102
RTVSPropertyOp3
 70
     1
102
RTVSPropertyOp4
 70
     1
102
RTVSPropertyOp5
 70
     1
102
RTVSPropertyOp6
 70
     1
102
RTVSPropertyOp7
 70
     1
102
RTVSPropertyOp8
 70
     1
102
RTVSPropertyOp9
 70
     1
102
RTVSPropertyOp10
 70
     1
102
RTVSPropertyOp11
 70
     1
102
RTVSPropertyOp12
 70
     1
102
RTVSPropertyOp13
 70
     1
102
RTVSPropertyOp14
 70
     1
102
RTVSPropertyOp15
 70
     1
102
RTVSPropertyOp16
 70
     1
102
RTVSPropertyOp17
 70
     1
102
RTVSPropertyOp18
 70
     1
102
RTVSPropertyOp19
 70
     1
102
RTVSPropertyOp20
 70
     1
102
RTVSPropertyOp21
 70
     1
102
RTVSPropertyOp22
 70
     1
102
RTVSPropertyOp23
 70
     1
102
RTVSPropertyOp24
 70
     1
102
RTVSPropertyOp25
 70
     1
102
RTVSPropertyOp26
 70
     1
102
RTVSPropertyOp27
 70
     1
102
RTVSPropertyOp28
 70
     1
102
RTVSPropertyOp29
 70
     1
102
RTVSPropertyOp30
 70
     1
102
RTVSPropertyOp31
 70
     1
102
RTVSPropertyOp32
 70
     1
  0
XRECORD
  5
F30
102
{ACAD_REACTORS
330
F2F
102
}
330
F2F
100
AcDbXrecord
280
     1
102
RTVSPropertyOp0
 70
     1
102
RTVSPropertyOp1
 70
     1
102
RTVSPropertyOp2
 70
     1
102
RTVSPropertyOp3
 70
     1
102
RTVSPropertyOp4
 70
     1
102
RTVSPropertyOp5
 70
     1
102
RTVSPropertyOp6
 70
     1
102
RTVSPropertyOp7
 70
     1
102
RTVSPropertyOp8
 70
     1
102
RTVSPropertyOp9
 70
     1
102
RTVSPropertyOp10
 70
     1
102
RTVSPropertyOp11
 70
     1
102
RTVSPropertyOp12
 70
     1
102
RTVSPropertyOp13
 70
     1
102
RTVSPropertyOp14
 70
     1
102
RTVSPropertyOp15
 70
     1
102
RTVSPropertyOp16
 70
     1
102
RTVSPropertyOp17
 70
     1
102
RTVSPropertyOp18
 70
     1
102
RTVSPropertyOp19
 70
     1
102
RTVSPropertyOp20
 70
     1
102
RTVSPropertyOp21
 70
     1
102
RTVSPropertyOp22
 70
     1
102
RTVSPropertyOp23
 70
     1
102
RTVSPropertyOp24
 70
     1
102
RTVSPropertyOp25
 70
     1
102
RTVSPropertyOp26
 70
     1
102
RTVSPropertyOp27
 70
     1
102
RTVSPropertyOp28
 70
     1
102
RTVSPropertyOp29
 70
     1
102
RTVSPropertyOp30
 70
     1
102
RTVSPropertyOp31
 70
     1
102
RTVSPropertyOp32
 70
     1
  0
XRECORD
  5
F38
102
{ACAD_REACTORS
330
F37
102
}
330
F37
100
AcDbXrecord
280
     1
102
RTVSPropertyOp0
 70
     1
102
RTVSPropertyOp1
 70
     1
102
RTVSPropertyOp2
 70
     1
102
RTVSPropertyOp3
 70
     1
102
RTVSPropertyOp4
 70
     1
102
RTVSPropertyOp5
 70
     1
102
RTVSPropertyOp6
 70
     1
102
RTVSPropertyOp7
 70
     1
102
RTVSPropertyOp8
 70
     1
102
RTVSPropertyOp9
 70
     1
102
RTVSPropertyOp10
 70
     1
102
RTVSPropertyOp11
 70
     1
102
RTVSPropertyOp12
 70
     1
102
RTVSPropertyOp13
 70
     1
102
RTVSPropertyOp14
 70
     1
102
RTVSPropertyOp15
 70
     1
102
RTVSPropertyOp16
 70
     1
102
RTVSPropertyOp17
 70
     1
102
RTVSPropertyOp18
 70
     1
102
RTVSPropertyOp19
 70
     1
102
RTVSPropertyOp20
 70
     1
102
RTVSPropertyOp21
 70
     1
102
RTVSPropertyOp22
 70
     1
102
RTVSPropertyOp23
 70
     1
102
RTVSPropertyOp24
 70
     1
102
RTVSPropertyOp25
 70
     1
102
RTVSPropertyOp26
 70
     1
102
RTVSPropertyOp27
 70
     1
102
RTVSPropertyOp28
 70
     1
102
RTVSPropertyOp29
 70
     1
102
RTVSPropertyOp30
 70
     1
102
RTVSPropertyOp31
 70
     1
102
RTVSPropertyOp32
 70
     1
  0
XRECORD
  5
F2A
102
{ACAD_REACTORS
330
F29
102
}
330
F29
100
AcDbXrecord
280
     1
102
RTVSPropertyOp0
 70
     1
102
RTVSPropertyOp1
 70
     1
102
RTVSPropertyOp2
 70
     1
102
RTVSPropertyOp3
 70
     1
102
RTVSPropertyOp4
 70
     1
102
RTVSPropertyOp5
 70
     1
102
RTVSPropertyOp6
 70
     1
102
RTVSPropertyOp7
 70
     1
102
RTVSPropertyOp8
 70
     1
102
RTVSPropertyOp9
 70
     1
102
RTVSPropertyOp10
 70
     1
102
RTVSPropertyOp11
 70
     1
102
RTVSPropertyOp12
 70
     1
102
RTVSPropertyOp13
 70
     1
102
RTVSPropertyOp14
 70
     1
102
RTVSPropertyOp15
 70
     1
102
RTVSPropertyOp16
 70
     1
102
RTVSPropertyOp17
 70
     1
102
RTVSPropertyOp18
 70
     1
102
RTVSPropertyOp19
 70
     1
102
RTVSPropertyOp20
 70
     1
102
RTVSPropertyOp21
 70
     1
102
RTVSPropertyOp22
 70
     1
102
RTVSPropertyOp23
 70
     1
102
RTVSPropertyOp24
 70
     1
102
RTVSPropertyOp25
 70
     1
102
RTVSPropertyOp26
 70
     1
102
RTVSPropertyOp27
 70
     1
102
RTVSPropertyOp28
 70
     1
102
RTVSPropertyOp29
 70
     1
102
RTVSPropertyOp30
 70
     1
102
RTVSPropertyOp31
 70
     1
102
RTVSPropertyOp32
 70
     1
  0
XRECORD
  5
F2E
102
{ACAD_REACTORS
330
F2D
102
}
330
F2D
100
AcDbXrecord
280
     1
102
RTVSPropertyOp0
 70
     1
102
RTVSPropertyOp1
 70
     1
102
RTVSPropertyOp2
 70
     1
102
RTVSPropertyOp3
 70
     1
102
RTVSPropertyOp4
 70
     1
102
RTVSPropertyOp5
 70
     1
102
RTVSPropertyOp6
 70
     1
102
RTVSPropertyOp7
 70
     1
102
RTVSPropertyOp8
 70
     1
102
RTVSPropertyOp9
 70
     1
102
RTVSPropertyOp10
 70
     1
102
RTVSPropertyOp11
 70
     1
102
RTVSPropertyOp12
 70
     1
102
RTVSPropertyOp13
 70
     1
102
RTVSPropertyOp14
 70
     1
102
RTVSPropertyOp15
 70
     1
102
RTVSPropertyOp16
 70
     1
102
RTVSPropertyOp17
 70
     1
102
RTVSPropertyOp18
 70
     1
102
RTVSPropertyOp19
 70
     1
102
RTVSPropertyOp20
 70
     1
102
RTVSPropertyOp21
 70
     1
102
RTVSPropertyOp22
 70
     1
102
RTVSPropertyOp23
 70
     1
102
RTVSPropertyOp24
 70
     1
102
RTVSPropertyOp25
 70
     1
102
RTVSPropertyOp26
 70
     1
102
RTVSPropertyOp27
 70
     1
102
RTVSPropertyOp28
 70
     1
102
RTVSPropertyOp29
 70
     1
102
RTVSPropertyOp30
 70
     1
102
RTVSPropertyOp31
 70
     1
102
RTVSPropertyOp32
 70
     1
  0
XRECORD
  5
F48
102
{ACAD_REACTORS
330
F47
102
}
330
F47
100
AcDbXrecord
280
     1
102
RTVSPropertyOp0
 70
     0
102
RTVSPropertyOp1
 70
     0
102
RTVSPropertyOp2
 70
     0
102
RTVSPropertyOp3
 70
     0
102
RTVSPropertyOp4
 70
     0
102
RTVSPropertyOp5
 70
     0
102
RTVSPropertyOp6
 70
     0
102
RTVSPropertyOp7
 70
     0
102
RTVSPropertyOp8
 70
     0
102
RTVSPropertyOp9
 70
     0
102
RTVSPropertyOp10
 70
     0
102
RTVSPropertyOp11
 70
     0
102
RTVSPropertyOp12
 70
     0
102
RTVSPropertyOp13
 70
     0
102
RTVSPropertyOp14
 70
     2
102
RTVSPropertyOp15
 70
     0
102
RTVSPropertyOp16
 70
     0
102
RTVSPropertyOp17
 70
     0
102
RTVSPropertyOp18
 70
     0
102
RTVSPropertyOp19
 70
     0
102
RTVSPropertyOp20
 70
     0
102
RTVSPropertyOp21
 70
     0
102
RTVSPropertyOp22
 70
     0
102
RTVSPropertyOp23
 70
     0
102
RTVSPropertyOp24
 70
     0
102
RTVSPropertyOp25
 70
     0
102
RTVSPropertyOp26
 70
     0
102
RTVSPropertyOp27
 70
     0
102
RTVSPropertyOp28
 70
     0
102
RTVSPropertyOp29
 70
     0
102
RTVSPropertyOp30
 70
     0
102
RTVSPropertyOp31
 70
     0
102
RTVSPropertyOp32
 70
     0
  0
XRECORD
  5
F36
102
{ACAD_REACTORS
330
F35
102
}
330
F35
100
AcDbXrecord
280
     1
102
RTVSPropertyOp0
 70
     1
102
RTVSPropertyOp1
 70
     1
102
RTVSPropertyOp2
 70
     1
102
RTVSPropertyOp3
 70
     1
102
RTVSPropertyOp4
 70
     1
102
RTVSPropertyOp5
 70
     1
102
RTVSPropertyOp6
 70
     1
102
RTVSPropertyOp7
 70
     1
102
RTVSPropertyOp8
 70
     1
102
RTVSPropertyOp9
 70
     1
102
RTVSPropertyOp10
 70
     1
102
RTVSPropertyOp11
 70
     1
102
RTVSPropertyOp12
 70
     1
102
RTVSPropertyOp13
 70
     1
102
RTVSPropertyOp14
 70
     1
102
RTVSPropertyOp15
 70
     1
102
RTVSPropertyOp16
 70
     1
102
RTVSPropertyOp17
 70
     1
102
RTVSPropertyOp18
 70
     1
102
RTVSPropertyOp19
 70
     1
102
RTVSPropertyOp20
 70
     1
102
RTVSPropertyOp21
 70
     1
102
RTVSPropertyOp22
 70
     1
102
RTVSPropertyOp23
 70
     1
102
RTVSPropertyOp24
 70
     1
102
RTVSPropertyOp25
 70
     1
102
RTVSPropertyOp26
 70
     1
102
RTVSPropertyOp27
 70
     1
102
RTVSPropertyOp28
 70
     1
102
RTVSPropertyOp29
 70
     1
102
RTVSPropertyOp30
 70
     1
102
RTVSPropertyOp31
 70
     1
102
RTVSPropertyOp32
 70
     1
  0
XRECORD
  5
F1A
102
{ACAD_REACTORS
330
F19
102
}
330
F19
100
AcDbXrecord
280
     1
102
RTVSPropertyOp0
 70
     1
102
RTVSPropertyOp1
 70
     1
102
RTVSPropertyOp2
 70
     1
102
RTVSPropertyOp3
 70
     1
102
RTVSPropertyOp4
 70
     1
102
RTVSPropertyOp5
 70
     1
102
RTVSPropertyOp6
 70
     1
102
RTVSPropertyOp7
 70
     1
102
RTVSPropertyOp8
 70
     1
102
RTVSPropertyOp9
 70
     1
102
RTVSPropertyOp10
 70
     1
102
RTVSPropertyOp11
 70
     1
102
RTVSPropertyOp12
 70
     1
102
RTVSPropertyOp13
 70
     1
102
RTVSPropertyOp14
 70
     1
102
RTVSPropertyOp15
 70
     1
102
RTVSPropertyOp16
 70
     1
102
RTVSPropertyOp17
 70
     1
102
RTVSPropertyOp18
 70
     1
102
RTVSPropertyOp19
 70
     1
102
RTVSPropertyOp20
 70
     1
102
RTVSPropertyOp21
 70
     1
102
RTVSPropertyOp22
 70
     1
102
RTVSPropertyOp23
 70
     1
102
RTVSPropertyOp24
 70
     1
102
RTVSPropertyOp25
 70
     1
102
RTVSPropertyOp26
 70
     1
102
RTVSPropertyOp27
 70
     1
102
RTVSPropertyOp28
 70
     1
102
RTVSPropertyOp29
 70
     1
102
RTVSPropertyOp30
 70
     1
102
RTVSPropertyOp31
 70
     1
102
RTVSPropertyOp32
 70
     1
  0
XRECORD
  5
F1C
102
{ACAD_REACTORS
330
F1B
102
}
330
F1B
100
AcDbXrecord
280
     1
102
RTVSPropertyOp0
 70
     1
102
RTVSPropertyOp1
 70
     1
102
RTVSPropertyOp2
 70
     1
102
RTVSPropertyOp3
 70
     1
102
RTVSPropertyOp4
 70
     1
102
RTVSPropertyOp5
 70
     1
102
RTVSPropertyOp6
 70
     1
102
RTVSPropertyOp7
 70
     1
102
RTVSPropertyOp8
 70
     1
102
RTVSPropertyOp9
 70
     1
102
RTVSPropertyOp10
 70
     1
102
RTVSPropertyOp11
 70
     1
102
RTVSPropertyOp12
 70
     1
102
RTVSPropertyOp13
 70
     1
102
RTVSPropertyOp14
 70
     1
102
RTVSPropertyOp15
 70
     1
102
RTVSPropertyOp16
 70
     1
102
RTVSPropertyOp17
 70
     1
102
RTVSPropertyOp18
 70
     1
102
RTVSPropertyOp19
 70
     1
102
RTVSPropertyOp20
 70
     1
102
RTVSPropertyOp21
 70
     1
102
RTVSPropertyOp22
 70
     1
102
RTVSPropertyOp23
 70
     1
102
RTVSPropertyOp24
 70
     1
102
RTVSPropertyOp25
 70
     1
102
RTVSPropertyOp26
 70
     1
102
RTVSPropertyOp27
 70
     1
102
RTVSPropertyOp28
 70
     1
102
RTVSPropertyOp29
 70
     1
102
RTVSPropertyOp30
 70
     1
102
RTVSPropertyOp31
 70
     1
102
RTVSPropertyOp32
 70
     1
  0
XRECORD
  5
F1E
102
{ACAD_REACTORS
330
F1D
102
}
330
F1D
100
AcDbXrecord
280
     1
102
RTVSPropertyOp0
 70
     1
102
RTVSPropertyOp1
 70
     1
102
RTVSPropertyOp2
 70
     1
102
RTVSPropertyOp3
 70
     1
102
RTVSPropertyOp4
 70
     1
102
RTVSPropertyOp5
 70
     1
102
RTVSPropertyOp6
 70
     1
102
RTVSPropertyOp7
 70
     1
102
RTVSPropertyOp8
 70
     1
102
RTVSPropertyOp9
 70
     1
102
RTVSPropertyOp10
 70
     1
102
RTVSPropertyOp11
 70
     1
102
RTVSPropertyOp12
 70
     1
102
RTVSPropertyOp13
 70
     1
102
RTVSPropertyOp14
 70
     1
102
RTVSPropertyOp15
 70
     1
102
RTVSPropertyOp16
 70
     1
102
RTVSPropertyOp17
 70
     1
102
RTVSPropertyOp18
 70
     1
102
RTVSPropertyOp19
 70
     1
102
RTVSPropertyOp20
 70
     1
102
RTVSPropertyOp21
 70
     1
102
RTVSPropertyOp22
 70
     1
102
RTVSPropertyOp23
 70
     1
102
RTVSPropertyOp24
 70
     1
102
RTVSPropertyOp25
 70
     1
102
RTVSPropertyOp26
 70
     1
102
RTVSPropertyOp27
 70
     1
102
RTVSPropertyOp28
 70
     1
102
RTVSPropertyOp29
 70
     1
102
RTVSPropertyOp30
 70
     1
102
RTVSPropertyOp31
 70
     1
102
RTVSPropertyOp32
 70
     1
  0
XRECORD
  5
F20
102
{ACAD_REACTORS
330
F1F
102
}
330
F1F
100
AcDbXrecord
280
     1
102
RTVSPropertyOp0
 70
     1
102
RTVSPropertyOp1
 70
     1
102
RTVSPropertyOp2
 70
     1
102
RTVSPropertyOp3
 70
     1
102
RTVSPropertyOp4
 70
     1
102
RTVSPropertyOp5
 70
     1
102
RTVSPropertyOp6
 70
     1
102
RTVSPropertyOp7
 70
     1
102
RTVSPropertyOp8
 70
     1
102
RTVSPropertyOp9
 70
     1
102
RTVSPropertyOp10
 70
     1
102
RTVSPropertyOp11
 70
     1
102
RTVSPropertyOp12
 70
     1
102
RTVSPropertyOp13
 70
     1
102
RTVSPropertyOp14
 70
     1
102
RTVSPropertyOp15
 70
     1
102
RTVSPropertyOp16
 70
     1
102
RTVSPropertyOp17
 70
     1
102
RTVSPropertyOp18
 70
     1
102
RTVSPropertyOp19
 70
     1
102
RTVSPropertyOp20
 70
     1
102
RTVSPropertyOp21
 70
     1
102
RTVSPropertyOp22
 70
     1
102
RTVSPropertyOp23
 70
     1
102
RTVSPropertyOp24
 70
     1
102
RTVSPropertyOp25
 70
     1
102
RTVSPropertyOp26
 70
     1
102
RTVSPropertyOp27
 70
     1
102
RTVSPropertyOp28
 70
     1
102
RTVSPropertyOp29
 70
     1
102
RTVSPropertyOp30
 70
     1
102
RTVSPropertyOp31
 70
     1
102
RTVSPropertyOp32
 70
     1
  0
XRECORD
  5
F28
102
{ACAD_REACTORS
330
F27
102
}
330
F27
100
AcDbXrecord
280
     1
102
RTVSPropertyOp0
 70
     1
102
RTVSPropertyOp1
 70
     1
102
RTVSPropertyOp2
 70
     1
102
RTVSPropertyOp3
 70
     1
102
RTVSPropertyOp4
 70
     1
102
RTVSPropertyOp5
 70
     1
102
RTVSPropertyOp6
 70
     1
102
RTVSPropertyOp7
 70
     1
102
RTVSPropertyOp8
 70
     1
102
RTVSPropertyOp9
 70
     1
102
RTVSPropertyOp10
 70
     1
102
RTVSPropertyOp11
 70
     1
102
RTVSPropertyOp12
 70
     1
102
RTVSPropertyOp13
 70
     1
102
RTVSPropertyOp14
 70
     1
102
RTVSPropertyOp15
 70
     1
102
RTVSPropertyOp16
 70
     1
102
RTVSPropertyOp17
 70
     1
102
RTVSPropertyOp18
 70
     1
102
RTVSPropertyOp19
 70
     1
102
RTVSPropertyOp20
 70
     1
102
RTVSPropertyOp21
 70
     1
102
RTVSPropertyOp22
 70
     1
102
RTVSPropertyOp23
 70
     1
102
RTVSPropertyOp24
 70
     1
102
RTVSPropertyOp25
 70
     1
102
RTVSPropertyOp26
 70
     1
102
RTVSPropertyOp27
 70
     1
102
RTVSPropertyOp28
 70
     1
102
RTVSPropertyOp29
 70
     1
102
RTVSPropertyOp30
 70
     1
102
RTVSPropertyOp31
 70
     1
102
RTVSPropertyOp32
 70
     1
  0
XRECORD
  5
F44
102
{ACAD_REACTORS
330
F43
102
}
330
F43
100
AcDbXrecord
280
     1
102
RTVSPropertyOp0
 70
     0
102
RTVSPropertyOp1
 70
     0
102
RTVSPropertyOp2
 70
     0
102
RTVSPropertyOp3
 70
     0
102
RTVSPropertyOp4
 70
     0
102
RTVSPropertyOp5
 70
     0
102
RTVSPropertyOp6
 70
     0
102
RTVSPropertyOp7
 70
     0
102
RTVSPropertyOp8
 70
     0
102
RTVSPropertyOp9
 70
     0
102
RTVSPropertyOp10
 70
     0
102
RTVSPropertyOp11
 70
     0
102
RTVSPropertyOp12
 70
     0
102
RTVSPropertyOp13
 70
     0
102
RTVSPropertyOp14
 70
     2
102
RTVSPropertyOp15
 70
     0
102
RTVSPropertyOp16
 70
     0
102
RTVSPropertyOp17
 70
     0
102
RTVSPropertyOp18
 70
     0
102
RTVSPropertyOp19
 70
     0
102
RTVSPropertyOp20
 70
     0
102
RTVSPropertyOp21
 70
     0
102
RTVSPropertyOp22
 70
     0
102
RTVSPropertyOp23
 70
     0
102
RTVSPropertyOp24
 70
     0
102
RTVSPropertyOp25
 70
     0
102
RTVSPropertyOp26
 70
     0
102
RTVSPropertyOp27
 70
     0
102
RTVSPropertyOp28
 70
     0
102
RTVSPropertyOp29
 70
     0
102
RTVSPropertyOp30
 70
     0
102
RTVSPropertyOp31
 70
     0
102
RTVSPropertyOp32
 70
     0
  0
XRECORD
  5
F34
102
{ACAD_REACTORS
330
F33
102
}
330
F33
100
AcDbXrecord
280
     1
102
RTVSPropertyOp0
 70
     1
102
RTVSPropertyOp1
 70
     1
102
RTVSPropertyOp2
 70
     1
102
RTVSPropertyOp3
 70
     1
102
RTVSPropertyOp4
 70
     1
102
RTVSPropertyOp5
 70
     1
102
RTVSPropertyOp6
 70
     1
102
RTVSPropertyOp7
 70
     1
102
RTVSPropertyOp8
 70
     1
102
RTVSPropertyOp9
 70
     1
102
RTVSPropertyOp10
 70
     1
102
RTVSPropertyOp11
 70
     1
102
RTVSPropertyOp12
 70
     1
102
RTVSPropertyOp13
 70
     1
102
RTVSPropertyOp14
 70
     1
102
RTVSPropertyOp15
 70
     1
102
RTVSPropertyOp16
 70
     1
102
RTVSPropertyOp17
 70
     1
102
RTVSPropertyOp18
 70
     1
102
RTVSPropertyOp19
 70
     1
102
RTVSPropertyOp20
 70
     1
102
RTVSPropertyOp21
 70
     1
102
RTVSPropertyOp22
 70
     1
102
RTVSPropertyOp23
 70
     1
102
RTVSPropertyOp24
 70
     1
102
RTVSPropertyOp25
 70
     1
102
RTVSPropertyOp26
 70
     1
102
RTVSPropertyOp27
 70
     1
102
RTVSPropertyOp28
 70
     1
102
RTVSPropertyOp29
 70
     1
102
RTVSPropertyOp30
 70
     1
102
RTVSPropertyOp31
 70
     1
102
RTVSPropertyOp32
 70
     1
  0
XRECORD
  5
F46
102
{ACAD_REACTORS
330
F45
102
}
330
F45
100
AcDbXrecord
280
     1
102
RTVSPropertyOp0
 70
     0
102
RTVSPropertyOp1
 70
     0
102
RTVSPropertyOp2
 70
     0
102
RTVSPropertyOp3
 70
     0
102
RTVSPropertyOp4
 70
     0
102
RTVSPropertyOp5
 70
     0
102
RTVSPropertyOp6
 70
     0
102
RTVSPropertyOp7
 70
     0
102
RTVSPropertyOp8
 70
     0
102
RTVSPropertyOp9
 70
     0
102
RTVSPropertyOp10
 70
     0
102
RTVSPropertyOp11
 70
     0
102
RTVSPropertyOp12
 70
     0
102
RTVSPropertyOp13
 70
     0
102
RTVSPropertyOp14
 70
     2
102
RTVSPropertyOp15
 70
     0
102
RTVSPropertyOp16
 70
     0
102
RTVSPropertyOp17
 70
     0
102
RTVSPropertyOp18
 70
     0
102
RTVSPropertyOp19
 70
     0
102
RTVSPropertyOp20
 70
     0
102
RTVSPropertyOp21
 70
     0
102
RTVSPropertyOp22
 70
     0
102
RTVSPropertyOp23
 70
     0
102
RTVSPropertyOp24
 70
     0
102
RTVSPropertyOp25
 70
     0
102
RTVSPropertyOp26
 70
     0
102
RTVSPropertyOp27
 70
     0
102
RTVSPropertyOp28
 70
     0
102
RTVSPropertyOp29
 70
     0
102
RTVSPropertyOp30
 70
     0
102
RTVSPropertyOp31
 70
     0
102
RTVSPropertyOp32
 70
     0
  0
XRECORD
  5
F2C
102
{ACAD_REACTORS
330
F2B
102
}
330
F2B
100
AcDbXrecord
280
     1
102
RTVSPropertyOp0
 70
     1
102
RTVSPropertyOp1
 70
     1
102
RTVSPropertyOp2
 70
     1
102
RTVSPropertyOp3
 70
     1
102
RTVSPropertyOp4
 70
     1
102
RTVSPropertyOp5
 70
     1
102
RTVSPropertyOp6
 70
     1
102
RTVSPropertyOp7
 70
     1
102
RTVSPropertyOp8
 70
     1
102
RTVSPropertyOp9
 70
     1
102
RTVSPropertyOp10
 70
     1
102
RTVSPropertyOp11
 70
     1
102
RTVSPropertyOp12
 70
     1
102
RTVSPropertyOp13
 70
     1
102
RTVSPropertyOp14
 70
     1
102
RTVSPropertyOp15
 70
     1
102
RTVSPropertyOp16
 70
     1
102
RTVSPropertyOp17
 70
     1
102
RTVSPropertyOp18
 70
     1
102
RTVSPropertyOp19
 70
     1
102
RTVSPropertyOp20
 70
     1
102
RTVSPropertyOp21
 70
     1
102
RTVSPropertyOp22
 70
     1
102
RTVSPropertyOp23
 70
     1
102
RTVSPropertyOp24
 70
     1
102
RTVSPropertyOp25
 70
     1
102
RTVSPropertyOp26
 70
     1
102
RTVSPropertyOp27
 70
     1
102
RTVSPropertyOp28
 70
     1
102
RTVSPropertyOp29
 70
     1
102
RTVSPropertyOp30
 70
     1
102
RTVSPropertyOp31
 70
     1
102
RTVSPropertyOp32
 70
     1
  0
XRECORD
  5
F42
102
{ACAD_REACTORS
330
F41
102
}
330
F41
100
AcDbXrecord
280
     1
102
RTVSPropertyOp0
 70
     1
102
RTVSPropertyOp1
 70
     1
102
RTVSPropertyOp2
 70
     1
102
RTVSPropertyOp3
 70
     1
102
RTVSPropertyOp4
 70
     1
102
RTVSPropertyOp5
 70
     1
102
RTVSPropertyOp6
 70
     1
102
RTVSPropertyOp7
 70
     1
102
RTVSPropertyOp8
 70
     1
102
RTVSPropertyOp9
 70
     1
102
RTVSPropertyOp10
 70
     1
102
RTVSPropertyOp11
 70
     1
102
RTVSPropertyOp12
 70
     1
102
RTVSPropertyOp13
 70
     1
102
RTVSPropertyOp14
 70
     1
102
RTVSPropertyOp15
 70
     1
102
RTVSPropertyOp16
 70
     1
102
RTVSPropertyOp17
 70
     1
102
RTVSPropertyOp18
 70
     1
102
RTVSPropertyOp19
 70
     1
102
RTVSPropertyOp20
 70
     1
102
RTVSPropertyOp21
 70
     1
102
RTVSPropertyOp22
 70
     1
102
RTVSPropertyOp23
 70
     1
102
RTVSPropertyOp24
 70
     1
102
RTVSPropertyOp25
 70
     1
102
RTVSPropertyOp26
 70
     1
102
RTVSPropertyOp27
 70
     1
102
RTVSPropertyOp28
 70
     1
102
RTVSPropertyOp29
 70
     1
102
RTVSPropertyOp30
 70
     1
102
RTVSPropertyOp31
 70
     1
102
RTVSPropertyOp32
 70
     1
  0
XRECORD
  5
F40
102
{ACAD_REACTORS
330
F3F
102
}
330
F3F
100
AcDbXrecord
280
     1
102
RTVSPropertyOp0
 70
     1
102
RTVSPropertyOp1
 70
     1
102
RTVSPropertyOp2
 70
     1
102
RTVSPropertyOp3
 70
     1
102
RTVSPropertyOp4
 70
     1
102
RTVSPropertyOp5
 70
     1
102
RTVSPropertyOp6
 70
     1
102
RTVSPropertyOp7
 70
     1
102
RTVSPropertyOp8
 70
     1
102
RTVSPropertyOp9
 70
     1
102
RTVSPropertyOp10
 70
     1
102
RTVSPropertyOp11
 70
     1
102
RTVSPropertyOp12
 70
     1
102
RTVSPropertyOp13
 70
     1
102
RTVSPropertyOp14
 70
     1
102
RTVSPropertyOp15
 70
     1
102
RTVSPropertyOp16
 70
     1
102
RTVSPropertyOp17
 70
     1
102
RTVSPropertyOp18
 70
     1
102
RTVSPropertyOp19
 70
     1
102
RTVSPropertyOp20
 70
     1
102
RTVSPropertyOp21
 70
     1
102
RTVSPropertyOp22
 70
     1
102
RTVSPropertyOp23
 70
     1
102
RTVSPropertyOp24
 70
     1
102
RTVSPropertyOp25
 70
     1
102
RTVSPropertyOp26
 70
     1
102
RTVSPropertyOp27
 70
     1
102
RTVSPropertyOp28
 70
     1
102
RTVSPropertyOp29
 70
     1
102
RTVSPropertyOp30
 70
     1
102
RTVSPropertyOp31
 70
     1
102
RTVSPropertyOp32
 70
     1
  0
XRECORD
  5
F3A
102
{ACAD_REACTORS
330
F39
102
}
330
F39
100
AcDbXrecord
280
     1
102
RTVSPropertyOp0
 70
     1
102
RTVSPropertyOp1
 70
     1
102
RTVSPropertyOp2
 70
     1
102
RTVSPropertyOp3
 70
     1
102
RTVSPropertyOp4
 70
     1
102
RTVSPropertyOp5
 70
     1
102
RTVSPropertyOp6
 70
     1
102
RTVSPropertyOp7
 70
     1
102
RTVSPropertyOp8
 70
     1
102
RTVSPropertyOp9
 70
     1
102
RTVSPropertyOp10
 70
     1
102
RTVSPropertyOp11
 70
     1
102
RTVSPropertyOp12
 70
     1
102
RTVSPropertyOp13
 70
     1
102
RTVSPropertyOp14
 70
     1
102
RTVSPropertyOp15
 70
     1
102
RTVSPropertyOp16
 70
     1
102
RTVSPropertyOp17
 70
     1
102
RTVSPropertyOp18
 70
     1
102
RTVSPropertyOp19
 70
     1
102
RTVSPropertyOp20
 70
     1
102
RTVSPropertyOp21
 70
     1
102
RTVSPropertyOp22
 70
     1
102
RTVSPropertyOp23
 70
     1
102
RTVSPropertyOp24
 70
     1
102
RTVSPropertyOp25
 70
     1
102
RTVSPropertyOp26
 70
     1
102
RTVSPropertyOp27
 70
     1
102
RTVSPropertyOp28
 70
     1
102
RTVSPropertyOp29
 70
     1
102
RTVSPropertyOp30
 70
     1
102
RTVSPropertyOp31
 70
     1
102
RTVSPropertyOp32
 70
     1
  0
XRECORD
  5
F3C
102
{ACAD_REACTORS
330
F3B
102
}
330
F3B
100
AcDbXrecord
280
     1
102
RTVSPropertyOp0
 70
     1
102
RTVSPropertyOp1
 70
     1
102
RTVSPropertyOp2
 70
     1
102
RTVSPropertyOp3
 70
     1
102
RTVSPropertyOp4
 70
     1
102
RTVSPropertyOp5
 70
     1
102
RTVSPropertyOp6
 70
     1
102
RTVSPropertyOp7
 70
     1
102
RTVSPropertyOp8
 70
     1
102
RTVSPropertyOp9
 70
     1
102
RTVSPropertyOp10
 70
     1
102
RTVSPropertyOp11
 70
     1
102
RTVSPropertyOp12
 70
     1
102
RTVSPropertyOp13
 70
     1
102
RTVSPropertyOp14
 70
     1
102
RTVSPropertyOp15
 70
     1
102
RTVSPropertyOp16
 70
     1
102
RTVSPropertyOp17
 70
     1
102
RTVSPropertyOp18
 70
     1
102
RTVSPropertyOp19
 70
     1
102
RTVSPropertyOp20
 70
     1
102
RTVSPropertyOp21
 70
     1
102
RTVSPropertyOp22
 70
     1
102
RTVSPropertyOp23
 70
     1
102
RTVSPropertyOp24
 70
     1
102
RTVSPropertyOp25
 70
     1
102
RTVSPropertyOp26
 70
     1
102
RTVSPropertyOp27
 70
     1
102
RTVSPropertyOp28
 70
     1
102
RTVSPropertyOp29
 70
     1
102
RTVSPropertyOp30
 70
     1
102
RTVSPropertyOp31
 70
     1
102
RTVSPropertyOp32
 70
     1
  0
XRECORD
  5
F32
102
{ACAD_REACTORS
330
F31
102
}
330
F31
100
AcDbXrecord
280
     1
102
RTVSPropertyOp0
 70
     1
102
RTVSPropertyOp1
 70
     1
102
RTVSPropertyOp2
 70
     1
102
RTVSPropertyOp3
 70
     1
102
RTVSPropertyOp4
 70
     1
102
RTVSPropertyOp5
 70
     1
102
RTVSPropertyOp6
 70
     1
102
RTVSPropertyOp7
 70
     1
102
RTVSPropertyOp8
 70
     1
102
RTVSPropertyOp9
 70
     1
102
RTVSPropertyOp10
 70
     1
102
RTVSPropertyOp11
 70
     1
102
RTVSPropertyOp12
 70
     1
102
RTVSPropertyOp13
 70
     1
102
RTVSPropertyOp14
 70
     1
102
RTVSPropertyOp15
 70
     1
102
RTVSPropertyOp16
 70
     1
102
RTVSPropertyOp17
 70
     1
102
RTVSPropertyOp18
 70
     1
102
RTVSPropertyOp19
 70
     1
102
RTVSPropertyOp20
 70
     1
102
RTVSPropertyOp21
 70
     1
102
RTVSPropertyOp22
 70
     1
102
RTVSPropertyOp23
 70
     1
102
RTVSPropertyOp24
 70
     1
102
RTVSPropertyOp25
 70
     1
102
RTVSPropertyOp26
 70
     1
102
RTVSPropertyOp27
 70
     1
102
RTVSPropertyOp28
 70
     1
102
RTVSPropertyOp29
 70
     1
102
RTVSPropertyOp30
 70
     1
102
RTVSPropertyOp31
 70
     1
102
RTVSPropertyOp32
 70
     1
  0
XRECORD
  5
F26
102
{ACAD_REACTORS
330
F25
102
}
330
F25
100
AcDbXrecord
280
     1
102
RTVSPropertyOp0
 70
     1
102
RTVSPropertyOp1
 70
     1
102
RTVSPropertyOp2
 70
     1
102
RTVSPropertyOp3
 70
     1
102
RTVSPropertyOp4
 70
     1
102
RTVSPropertyOp5
 70
     1
102
RTVSPropertyOp6
 70
     1
102
RTVSPropertyOp7
 70
     1
102
RTVSPropertyOp8
 70
     1
102
RTVSPropertyOp9
 70
     1
102
RTVSPropertyOp10
 70
     1
102
RTVSPropertyOp11
 70
     1
102
RTVSPropertyOp12
 70
     1
102
RTVSPropertyOp13
 70
     1
102
RTVSPropertyOp14
 70
     1
102
RTVSPropertyOp15
 70
     1
102
RTVSPropertyOp16
 70
     1
102
RTVSPropertyOp17
 70
     1
102
RTVSPropertyOp18
 70
     1
102
RTVSPropertyOp19
 70
     1
102
RTVSPropertyOp20
 70
     1
102
RTVSPropertyOp21
 70
     1
102
RTVSPropertyOp22
 70
     1
102
RTVSPropertyOp23
 70
     1
102
RTVSPropertyOp24
 70
     1
102
RTVSPropertyOp25
 70
     1
102
RTVSPropertyOp26
 70
     1
102
RTVSPropertyOp27
 70
     1
102
RTVSPropertyOp28
 70
     1
102
RTVSPropertyOp29
 70
     1
102
RTVSPropertyOp30
 70
     1
102
RTVSPropertyOp31
 70
     1
102
RTVSPropertyOp32
 70
     1
  0
XRECORD
  5
F3E
102
{ACAD_REACTORS
330
F3D
102
}
330
F3D
100
AcDbXrecord
280
     1
102
RTVSPropertyOp0
 70
     1
102
RTVSPropertyOp1
 70
     1
102
RTVSPropertyOp2
 70
     1
102
RTVSPropertyOp3
 70
     1
102
RTVSPropertyOp4
 70
     1
102
RTVSPropertyOp5
 70
     1
102
RTVSPropertyOp6
 70
     1
102
RTVSPropertyOp7
 70
     1
102
RTVSPropertyOp8
 70
     1
102
RTVSPropertyOp9
 70
     1
102
RTVSPropertyOp10
 70
     1
102
RTVSPropertyOp11
 70
     1
102
RTVSPropertyOp12
 70
     1
102
RTVSPropertyOp13
 70
     1
102
RTVSPropertyOp14
 70
     1
102
RTVSPropertyOp15
 70
     1
102
RTVSPropertyOp16
 70
     1
102
RTVSPropertyOp17
 70
     1
102
RTVSPropertyOp18
 70
     1
102
RTVSPropertyOp19
 70
     1
102
RTVSPropertyOp20
 70
     1
102
RTVSPropertyOp21
 70
     1
102
RTVSPropertyOp22
 70
     1
102
RTVSPropertyOp23
 70
     1
102
RTVSPropertyOp24
 70
     1
102
RTVSPropertyOp25
 70
     1
102
RTVSPropertyOp26
 70
     1
102
RTVSPropertyOp27
 70
     1
102
RTVSPropertyOp28
 70
     1
102
RTVSPropertyOp29
 70
     1
102
RTVSPropertyOp30
 70
     1
102
RTVSPropertyOp31
 70
     1
102
RTVSPropertyOp32
 70
     1
  0
ENDSEC
  0
EOF
