  0
SECTION
  2
HEADER
  9
$ACADVER
  1
AC1015
  9
$ACADMAINTVER
 70
    20
  9
$DWGCODEPAGE
  3
ANSI_1250
  9
$INSBASE
 10
0.0
 20
0.0
 30
0.0
  9
$EXTMIN
 10
27239.73445604449
 20
-98.93664651891677
 30
0.0
  9
$EXTMAX
 10
41421.08862852836
 20
15934.19574292417
 30
0.0
  9
$LIMMIN
 10
0.0
 20
0.0
  9
$LIMMAX
 10
29700.0
 20
21000.0
  9
$ORTHOMODE
 70
     0
  9
$REGENMODE
 70
     1
  9
$FILLMODE
 70
     1
  9
$QTEXTMODE
 70
     0
  9
$MIRRTEXT
 70
     0
  9
$LTSCALE
 40
100.0
  9
$ATTMODE
 70
     1
  9
$TEXTSIZE
 40
0.2
  9
$TRACEWID
 40
0.05
  9
$TEXTSTYLE
  7
Standard
  9
$CLAYER
  8
0
  9
$CELTYPE
  6
ByLayer
  9
$CECOLOR
 62
   256
  9
$CELTSCALE
 40
1.0
  9
$DISPSILH
 70
     0
  9
$DIMSCALE
 40
1.0
  9
$DIMASZ
 40
1.799999999999999
  9
$DIMEXO
 40
0.0625
  9
$DIMDLI
 40
0.38
  9
$DIMRND
 40
0.0
  9
$DIMDLE
 40
0.0
  9
$DIMEXE
 40
0.18
  9
$DIMTP
 40
0.0
  9
$DIMTM
 40
0.0
  9
$DIMTXT
 40
0.25
  9
$DIMCEN
 40
0.09
  9
$DIMTSZ
 40
0.0
  9
$DIMTOL
 70
     0
  9
$DIMLIM
 70
     0
  9
$DIMTIH
 70
     1
  9
$DIMTOH
 70
     1
  9
$DIMSE1
 70
     0
  9
$DIMSE2
 70
     0
  9
$DIMTAD
 70
     0
  9
$DIMZIN
 70
     0
  9
$DIMBLK
  1

  9
$DIMASO
 70
     1
  9
$DIMSHO
 70
     1
  9
$DIMPOST
  1

  9
$DIMAPOST
  1

  9
$DIMALT
 70
     0
  9
$DIMALTD
 70
     2
  9
$DIMALTF
 40
25.4
  9
$DIMLFAC
 40
1.0
  9
$DIMTOFL
 70
     0
  9
$DIMTVP
 40
0.0
  9
$DIMTIX
 70
     0
  9
$DIMSOXD
 70
     0
  9
$DIMSAH
 70
     0
  9
$DIMBLK1
  1

  9
$DIMBLK2
  1

  9
$DIMSTYLE
  2
Standard
  9
$DIMCLRD
 70
     0
  9
$DIMCLRE
 70
     0
  9
$DIMCLRT
 70
     0
  9
$DIMTFAC
 40
1.0
  9
$DIMGAP
 40
0.09
  9
$DIMJUST
 70
     0
  9
$DIMSD1
 70
     0
  9
$DIMSD2
 70
     0
  9
$DIMTOLJ
 70
     1
  9
$DIMTZIN
 70
     0
  9
$DIMALTZ
 70
     0
  9
$DIMALTTZ
 70
     0
  9
$DIMUPT
 70
     0
  9
$DIMDEC
 70
     4
  9
$DIMTDEC
 70
     4
  9
$DIMALTU
 70
     2
  9
$DIMALTTD
 70
     2
  9
$DIMTXSTY
  7
Standard
  9
$DIMAUNIT
 70
     0
  9
$DIMADEC
 70
     0
  9
$DIMALTRND
 40
0.0
  9
$DIMAZIN
 70
     0
  9
$DIMDSEP
 70
    46
  9
$DIMATFIT
 70
     3
  9
$DIMFRAC
 70
     0
  9
$DIMLDRBLK
  1

  9
$DIMLUNIT
 70
     2
  9
$DIMLWD
 70
    -2
  9
$DIMLWE
 70
    -2
  9
$DIMTMOVE
 70
     0
  9
$LUNITS
 70
     2
  9
$LUPREC
 70
     4
  9
$SKETCHINC
 40
0.1
  9
$FILLETRAD
 40
0.0
  9
$AUNITS
 70
     0
  9
$AUPREC
 70
     0
  9
$MENU
  1
.
  9
$ELEVATION
 40
0.0
  9
$PELEVATION
 40
0.0
  9
$THICKNESS
 40
0.0
  9
$LIMCHECK
 70
     0
  9
$CHAMFERA
 40
0.0
  9
$CHAMFERB
 40
0.0
  9
$CHAMFERC
 40
0.0
  9
$CHAMFERD
 40
0.0
  9
$SKPOLY
 70
     0
  9
$TDCREATE
 40
2458569.356039224
  9
$TDUCREATE
 40
2458569.272705891
  9
$TDUPDATE
 40
2458621.603085394
  9
$TDUUPDATE
 40
2458621.519752060
  9
$TDINDWG
 40
0.0005746181
  9
$TDUSRTIMER
 40
0.0005746181
  9
$USRTIMER
 70
     1
  9
$ANGBASE
 50
0.0
  9
$ANGDIR
 70
     0
  9
$PDMODE
 70
     0
  9
$PDSIZE
 40
0.0
  9
$PLINEWID
 40
0.0
  9
$SPLFRAME
 70
     0
  9
$SPLINETYPE
 70
     6
  9
$SPLINESEGS
 70
     8
  9
$HANDSEED
  5
115C
  9
$SURFTAB1
 70
     6
  9
$SURFTAB2
 70
     6
  9
$SURFTYPE
 70
     6
  9
$SURFU
 70
     6
  9
$SURFV
 70
     6
  9
$UCSBASE
  2

  9
$UCSNAME
  2

  9
$UCSORG
 10
0.0
 20
0.0
 30
0.0
  9
$UCSXDIR
 10
1.0
 20
0.0
 30
0.0
  9
$UCSYDIR
 10
0.0
 20
1.0
 30
0.0
  9
$UCSORTHOREF
  2

  9
$UCSORTHOVIEW
 70
     0
  9
$UCSORGTOP
 10
0.0
 20
0.0
 30
0.0
  9
$UCSORGBOTTOM
 10
0.0
 20
0.0
 30
0.0
  9
$UCSORGLEFT
 10
0.0
 20
0.0
 30
0.0
  9
$UCSORGRIGHT
 10
0.0
 20
0.0
 30
0.0
  9
$UCSORGFRONT
 10
0.0
 20
0.0
 30
0.0
  9
$UCSORGBACK
 10
0.0
 20
0.0
 30
0.0
  9
$PUCSBASE
  2

  9
$PUCSNAME
  2

  9
$PUCSORG
 10
0.0
 20
0.0
 30
0.0
  9
$PUCSXDIR
 10
1.0
 20
0.0
 30
0.0
  9
$PUCSYDIR
 10
0.0
 20
1.0
 30
0.0
  9
$PUCSORTHOREF
  2

  9
$PUCSORTHOVIEW
 70
     0
  9
$PUCSORGTOP
 10
0.0
 20
0.0
 30
0.0
  9
$PUCSORGBOTTOM
 10
0.0
 20
0.0
 30
0.0
  9
$PUCSORGLEFT
 10
0.0
 20
0.0
 30
0.0
  9
$PUCSORGRIGHT
 10
0.0
 20
0.0
 30
0.0
  9
$PUCSORGFRONT
 10
0.0
 20
0.0
 30
0.0
  9
$PUCSORGBACK
 10
0.0
 20
0.0
 30
0.0
  9
$USERI1
 70
     0
  9
$USERI2
 70
     0
  9
$USERI3
 70
     0
  9
$USERI4
 70
     0
  9
$USERI5
 70
     0
  9
$USERR1
 40
0.0
  9
$USERR2
 40
0.0
  9
$USERR3
 40
0.0
  9
$USERR4
 40
0.0
  9
$USERR5
 40
0.0
  9
$WORLDVIEW
 70
     1
  9
$SHADEDGE
 70
     3
  9
$SHADEDIF
 70
    70
  9
$TILEMODE
 70
     1
  9
$MAXACTVP
 70
    64
  9
$PINSBASE
 10
0.0
 20
0.0
 30
0.0
  9
$PLIMCHECK
 70
     0
  9
$PEXTMIN
 10
0.0
 20
0.0
 30
0.0
  9
$PEXTMAX
 10
29700.0
 20
21000.0
 30
0.0
  9
$PLIMMIN
 10
0.0
 20
0.0
  9
$PLIMMAX
 10
29700.0
 20
21000.0
  9
$UNITMODE
 70
     0
  9
$VISRETAIN
 70
     1
  9
$PLINEGEN
 70
     0
  9
$PSLTSCALE
 70
     1
  9
$TREEDEPTH
 70
  3020
  9
$CMLSTYLE
  2
Standard
  9
$CMLJUST
 70
     0
  9
$CMLSCALE
 40
1.0
  9
$PROXYGRAPHICS
 70
     1
  9
$MEASUREMENT
 70
     1
  9
$CELWEIGHT
370
    -1
  9
$ENDCAPS
280
     0
  9
$JOINSTYLE
280
     0
  9
$LWDISPLAY
290
     0
  9
$INSUNITS
 70
     4
  9
$HYPERLINKBASE
  1
www.muller.com.pl
  9
$STYLESHEET
  1

  9
$XEDIT
290
     1
  9
$CEPSNTYPE
380
     0
  9
$PSTYLEMODE
290
     1
  9
$FINGERPRINTGUID
  2
{9E506D57-566E-4880-8876-F615CDD75825}
  9
$VERSIONGUID
  2
{4DD902C2-CA0F-4353-866A-BF64AE8E2556}
  9
$EXTNAMES
290
     1
  9
$PSVPSCALE
 40
0.0
  9
$OLESTARTUP
290
     0
  0
ENDSEC
  0
SECTION
  2
CLASSES
  0
CLASS
  1
ACDBDICTIONARYWDFLT
  2
AcDbDictionaryWithDefault
  3
ObjectDBX Classes
 90
        0
280
     0
281
     0
  0
CLASS
  1
MATERIAL
  2
AcDbMaterial
  3
ObjectDBX Classes
 90
     1153
280
     0
281
     0
  0
CLASS
  1
VISUALSTYLE
  2
AcDbVisualStyle
  3
ObjectDBX Classes
 90
     4095
280
     0
281
     0
  0
CLASS
  1
SCALE
  2
AcDbScale
  3
ObjectDBX Classes
 90
     1153
280
     0
281
     0
  0
CLASS
  1
TABLESTYLE
  2
AcDbTableStyle
  3
ObjectDBX Classes
 90
     4095
280
     0
281
     0
  0
CLASS
  1
MLEADERSTYLE
  2
AcDbMLeaderStyle
  3
ACDB_MLEADERSTYLE_CLASS
 90
     4095
280
     0
281
     0
  0
CLASS
  1
CELLSTYLEMAP
  2
AcDbCellStyleMap
  3
ObjectDBX Classes
 90
     1152
280
     0
281
     0
  0
CLASS
  1
DICTIONARYVAR
  2
AcDbDictionaryVar
  3
ObjectDBX Classes
 90
        0
280
     0
281
     0
  0
CLASS
  1
ACDBPLACEHOLDER
  2
AcDbPlaceHolder
  3
ObjectDBX Classes
 90
        0
280
     0
281
     0
  0
CLASS
  1
LAYOUT
  2
AcDbLayout
  3
ObjectDBX Classes
 90
        0
280
     0
281
     0
  0
CLASS
  1
EXACXREFPANELOBJECT
  2
ExAcXREFPanelObject
  3
EXAC_ESW
 90
     1025
280
     0
281
     0
  0
CLASS
  1
NPOCOLLECTION
  2
AcDbImpNonPersistentObjectsCollection
  3
ObjectDBX Classes
 90
     1153
280
     0
281
     0
  0
ENDSEC
  0
SECTION
  2
TABLES
  0
TABLE
  2
VPORT
  5
8
102
{ACAD_XDICTIONARY
360
F20
102
}
330
0
100
AcDbSymbolTable
 70
     1
  0
VPORT
  5
57
330
8
100
AcDbSymbolTableRecord
100
AcDbViewportTableRecord
  2
*Active
 70
     0
 10
0.0
 20
0.0
 11
1.0
 21
1.0
 12
35773.74686687842
 22
8266.062394032307
 13
0.0
 23
0.0
 14
1.0
 24
1.0
 15
0.0
 25
0.0
 16
0.0
 26
0.0
 36
1.0
 17
0.0
 27
0.0
 37
0.0
 40
18147.86417470121
 41
2.430203045685279
 42
50.0
 43
0.0
 44
0.0
 50
0.0
 51
0.0
 71
     0
 72
   100
 73
     1
 74
     1
 75
     0
 76
     0
 77
     0
 78
     0
281
     0
 65
     1
110
0.0
120
0.0
130
0.0
111
1.0
121
0.0
131
0.0
112
0.0
122
1.0
132
0.0
 79
     0
146
0.0
  0
ENDTAB
  0
TABLE
  2
LTYPE
  5
5
330
0
100
AcDbSymbolTable
 70
    59
  0
LTYPE
  5
5B
330
5
100
AcDbSymbolTableRecord
100
AcDbLinetypeTableRecord
  2
ByBlock
 70
     0
  3

 72
    65
 73
     0
 40
0.0
  0
LTYPE
  5
5C
330
5
100
AcDbSymbolTableRecord
100
AcDbLinetypeTableRecord
  2
ByLayer
 70
     0
  3

 72
    65
 73
     0
 40
0.0
  0
LTYPE
  5
5D
330
5
100
AcDbSymbolTableRecord
100
AcDbLinetypeTableRecord
  2
Continuous
 70
     0
  3
Solid line
 72
    65
 73
     0
 40
0.0
  0
LTYPE
  5
74
330
5
100
AcDbSymbolTableRecord
100
AcDbLinetypeTableRecord
  2
Section_View_Lines
 70
     0
  3
Section View Lines
 72
    65
 73
     4
 40
0.8406
 49
0.6614
 74
     0
 49
-0.0827
 74
     0
 49
0.0138
 74
     0
 49
-0.0827
 74
     0
  0
LTYPE
  5
75
330
5
100
AcDbSymbolTableRecord
100
AcDbLinetypeTableRecord
  2
CHAIN
 70
     0
  3
Chain ____ _ ____ _ ____ _ ____ _ ____ _ ____
 72
    65
 73
     4
 40
0.3543
 49
0.2362
 74
     0
 49
-0.0295
 74
     0
 49
0.0591
 74
     0
 49
-0.0295
 74
     0
  0
LTYPE
  5
76
330
5
100
AcDbSymbolTableRecord
100
AcDbLinetypeTableRecord
  2
DASH_DOT
 70
     0
  3
Dash dot _._._._._._._._._._._._._._._.
 72
    65
 73
     4
 40
0.182
 49
0.1181
 74
     0
 49
-0.0295
 74
     0
 49
0.0049
 74
     0
 49
-0.0295
 74
     0
  0
LTYPE
  5
77
330
5
100
AcDbSymbolTableRecord
100
AcDbLinetypeTableRecord
  2
DASH_DOUBLE_DOT
 70
     0
  3
Dash Double Dot __ __ . __ __ . __ __ . __ _
 72
    65
 73
     6
 40
0.2164
 49
0.1181
 74
     0
 49
-0.0295
 74
     0
 49
0.0049
 74
     0
 49
-0.0295
 74
     0
 49
0.0049
 74
     0
 49
-0.0295
 74
     0
  0
LTYPE
  5
78
330
5
100
AcDbSymbolTableRecord
100
AcDbLinetypeTableRecord
  2
DASH_TRIPLE_DOT
 70
     0
  3
Dash Triple-Dot _ . . . _ . . . _ . . . _
 72
    65
 73
     8
 40
0.2508
 49
0.1181
 74
     0
 49
-0.0295
 74
     0
 49
0.0049
 74
     0
 49
-0.0295
 74
     0
 49
0.0049
 74
     0
 49
-0.0295
 74
     0
 49
0.0049
 74
     0
 49
-0.0295
 74
     0
  0
LTYPE
  5
79
330
5
100
AcDbSymbolTableRecord
100
AcDbLinetypeTableRecord
  2
DASHED
 70
     0
  3
Dashed __ __ __ __ __ __ __ __ __ __ __ __ __ _
 72
    65
 73
     2
 40
0.2068
 49
0.1655
 74
     0
 49
-0.0413
 74
     0
  0
LTYPE
  5
7A
330
5
100
AcDbSymbolTableRecord
100
AcDbLinetypeTableRecord
  2
DASHED_SPACE
 70
     0
  3
Dashed Space __ __ __ __ __ __ __ __ __ __ __ _
 72
    65
 73
     2
 40
0.2067
 49
0.1654
 74
     0
 49
-0.0413
 74
     0
  0
LTYPE
  5
7B
330
5
100
AcDbSymbolTableRecord
100
AcDbLinetypeTableRecord
  2
DOTTED
 70
     0
  3
Dotted . . . . . . . . . . . . . . . . . . . . 
 72
    65
 73
     2
 40
0.0481
 49
0.0068
 74
     0
 49
-0.0413
 74
     0
  0
LTYPE
  5
7C
330
5
100
AcDbSymbolTableRecord
100
AcDbLinetypeTableRecord
  2
DOUBLE_DASH_CHAIN
 70
     0
  3
Double Dash Chain ___ _ _ ___ _ _ ___ _ _ ___ _
 72
    65
 73
     6
 40
1.240299999999999
 49
0.6614
 74
     0
 49
-0.0827
 74
     0
 49
0.1654
 74
     0
 49
-0.0827
 74
     0
 49
0.1654
 74
     0
 49
-0.0827
 74
     0
  0
LTYPE
  5
7D
330
5
100
AcDbSymbolTableRecord
100
AcDbLinetypeTableRecord
  2
DOUBLE_DASH_DOT
 70
     0
  3
Double Dash Dot __ __ . __ __ . __ __ . __ _
 72
    65
 73
     6
 40
0.3296
 49
0.1181
 74
     0
 49
-0.0295
 74
     0
 49
0.1181
 74
     0
 49
-0.0295
 74
     0
 49
0.0049
 74
     0
 49
-0.0295
 74
     0
  0
LTYPE
  5
7E
330
5
100
AcDbSymbolTableRecord
100
AcDbLinetypeTableRecord
  2
DOUBLE_DASH_DOUBLE_DOT
 70
     0
  3
Double Dash Double Dot _ _ . . _ _ . . _ _
 72
    65
 73
     8
 40
0.364
 49
0.1181
 74
     0
 49
-0.0295
 74
     0
 49
0.1181
 74
     0
 49
-0.0295
 74
     0
 49
0.0049
 74
     0
 49
-0.0295
 74
     0
 49
0.0049
 74
     0
 49
-0.0295
 74
     0
  0
LTYPE
  5
7F
330
5
100
AcDbSymbolTableRecord
100
AcDbLinetypeTableRecord
  2
DOUBLE_DASH_TRIPLE_DOT
 70
     0
  3
Double Dash Triple Dot __ __ . . . __ __ . . .
 72
    65
 73
    10
 40
0.3984
 49
0.1181
 74
     0
 49
-0.0295
 74
     0
 49
0.1181
 74
     0
 49
-0.0295
 74
     0
 49
0.0049
 74
     0
 49
-0.0295
 74
     0
 49
0.0049
 74
     0
 49
-0.0295
 74
     0
 49
0.0049
 74
     0
 49
-0.0295
 74
     0
  0
LTYPE
  5
80
330
5
100
AcDbSymbolTableRecord
100
AcDbLinetypeTableRecord
  2
LONG_DASH_DOTTED
 70
     0
  3
Long Dash Dotted ____ . ____ . ____ . ____ . _
 72
    65
 73
     4
 40
0.3001
 49
0.2362
 74
     0
 49
-0.0295
 74
     0
 49
0.0049
 74
     0
 49
-0.0295
 74
     0
  0
LTYPE
  5
81
330
5
100
AcDbSymbolTableRecord
100
AcDbLinetypeTableRecord
  2
LONG_DASH_DOUBLE_DOT
 70
     0
  3
Long Dash Double Dot ____ . . ____ . . ____ . .
 72
    65
 73
     6
 40
0.3345
 49
0.2362
 74
     0
 49
-0.0295
 74
     0
 49
0.0049
 74
     0
 49
-0.0295
 74
     0
 49
0.0049
 74
     0
 49
-0.0295
 74
     0
  0
LTYPE
  5
82
330
5
100
AcDbSymbolTableRecord
100
AcDbLinetypeTableRecord
  2
LONG_DASH_TRIPLE_DOT
 70
     0
  3
Long Dash Triple Dot ____ ... ____ ... ____
 72
    65
 73
     8
 40
0.3689
 49
0.2362
 74
     0
 49
-0.0295
 74
     0
 49
0.0049
 74
     0
 49
-0.0295
 74
     0
 49
0.0049
 74
     0
 49
-0.0295
 74
     0
 49
0.0049
 74
     0
 49
-0.0295
 74
     0
  0
LTYPE
  5
83
330
5
100
AcDbSymbolTableRecord
100
AcDbLinetypeTableRecord
  2
BORDER
 70
     0
  3
Border __ __ . __ __ . __ __ . __ __ . __ __ .
 72
    65
 73
     6
 40
44.45
 49
12.7
 74
     0
 49
-6.349999999999999
 74
     0
 49
12.7
 74
     0
 49
-6.349999999999999
 74
     0
 49
0.0
 74
     0
 49
-6.349999999999999
 74
     0
  0
LTYPE
  5
84
330
5
100
AcDbSymbolTableRecord
100
AcDbLinetypeTableRecord
  2
BORDER2
 70
     0
  3
Border (.5x) __.__.__.__.__.__.__.__.__.__.__.
 72
    65
 73
     6
 40
22.225
 49
6.349999999999999
 74
     0
 49
-3.174999999999999
 74
     0
 49
6.349999999999999
 74
     0
 49
-3.174999999999999
 74
     0
 49
0.0
 74
     0
 49
-3.174999999999999
 74
     0
  0
LTYPE
  5
85
330
5
100
AcDbSymbolTableRecord
100
AcDbLinetypeTableRecord
  2
BORDERX2
 70
     0
  3
Border (2x) ____  ____  .  ____  ____  .  ___
 72
    65
 73
     6
 40
88.9
 49
25.4
 74
     0
 49
-12.7
 74
     0
 49
25.4
 74
     0
 49
-12.7
 74
     0
 49
0.0
 74
     0
 49
-12.7
 74
     0
  0
LTYPE
  5
86
330
5
100
AcDbSymbolTableRecord
100
AcDbLinetypeTableRecord
  2
CENTER
 70
     0
  3
Center ____ _ ____ _ ____ _ ____ _ ____ _ ____
 72
    65
 73
     4
 40
50.8
 49
31.75
 74
     0
 49
-6.349999999999999
 74
     0
 49
6.349999999999999
 74
     0
 49
-6.349999999999999
 74
     0
  0
LTYPE
  5
87
330
5
100
AcDbSymbolTableRecord
100
AcDbLinetypeTableRecord
  2
CENTER2
 70
     0
  3
Center (.5x) ___ _ ___ _ ___ _ ___ _ ___ _ ___
 72
    65
 73
     4
 40
28.575
 49
19.05
 74
     0
 49
-3.174999999999999
 74
     0
 49
3.174999999999999
 74
     0
 49
-3.174999999999999
 74
     0
  0
LTYPE
  5
88
330
5
100
AcDbSymbolTableRecord
100
AcDbLinetypeTableRecord
  2
CENTERX2
 70
     0
  3
Center (2x) ________  __  ________  __  _____
 72
    65
 73
     4
 40
101.6
 49
63.5
 74
     0
 49
-12.7
 74
     0
 49
12.7
 74
     0
 49
-12.7
 74
     0
  0
LTYPE
  5
89
330
5
100
AcDbSymbolTableRecord
100
AcDbLinetypeTableRecord
  2
DASHDOT2
 70
     0
  3
Dash dot (.5x) _._._._._._._._._._._._._._._.
 72
    65
 73
     4
 40
12.7
 49
6.349999999999999
 74
     0
 49
-3.174999999999999
 74
     0
 49
0.0
 74
     0
 49
-3.174999999999999
 74
     0
  0
LTYPE
  5
8A
330
5
100
AcDbSymbolTableRecord
100
AcDbLinetypeTableRecord
  2
DASHDOTX2
 70
     0
  3
Dash dot (2x) ____  .  ____  .  ____  .  ___
 72
    65
 73
     4
 40
50.8
 49
25.4
 74
     0
 49
-12.7
 74
     0
 49
0.0
 74
     0
 49
-12.7
 74
     0
  0
LTYPE
  5
8B
330
5
100
AcDbSymbolTableRecord
100
AcDbLinetypeTableRecord
  2
DASHED2
 70
     0
  3
Dashed (.5x) _ _ _ _ _ _ _ _ _ _ _ _ _ _ _ _ _
 72
    65
 73
     2
 40
9.524999999999998
 49
6.349999999999999
 74
     0
 49
-3.174999999999999
 74
     0
  0
LTYPE
  5
8C
330
5
100
AcDbSymbolTableRecord
100
AcDbLinetypeTableRecord
  2
DASHEDX2
 70
     0
  3
Dashed (2x) ____  ____  ____  ____  ____  ___
 72
    65
 73
     2
 40
38.1
 49
25.4
 74
     0
 49
-12.7
 74
     0
  0
LTYPE
  5
8D
330
5
100
AcDbSymbolTableRecord
100
AcDbLinetypeTableRecord
  2
DIVIDE
 70
     0
  3
Divide ____ . . ____ . . ____ . . ____ . . ____
 72
    65
 73
     6
 40
31.75
 49
12.7
 74
     0
 49
-6.349999999999999
 74
     0
 49
0.0
 74
     0
 49
-6.349999999999999
 74
     0
 49
0.0
 74
     0
 49
-6.349999999999999
 74
     0
  0
LTYPE
  5
8E
330
5
100
AcDbSymbolTableRecord
100
AcDbLinetypeTableRecord
  2
DIVIDE2
 70
     0
  3
Divide (.5x) __..__..__..__..__..__..__..__.._
 72
    65
 73
     6
 40
15.875
 49
6.349999999999999
 74
     0
 49
-3.174999999999999
 74
     0
 49
0.0
 74
     0
 49
-3.174999999999999
 74
     0
 49
0.0
 74
     0
 49
-3.174999999999999
 74
     0
  0
LTYPE
  5
8F
330
5
100
AcDbSymbolTableRecord
100
AcDbLinetypeTableRecord
  2
DIVIDEX2
 70
     0
  3
Divide (2x) ________  .  .  ________  .  .  _
 72
    65
 73
     6
 40
63.49999999999999
 49
25.4
 74
     0
 49
-12.7
 74
     0
 49
0.0
 74
     0
 49
-12.7
 74
     0
 49
0.0
 74
     0
 49
-12.7
 74
     0
  0
LTYPE
  5
90
330
5
100
AcDbSymbolTableRecord
100
AcDbLinetypeTableRecord
  2
DOT
 70
     0
  3
Dot . . . . . . . . . . . . . . . . . . . . . .
 72
    65
 73
     2
 40
6.349999999999999
 49
0.0
 74
     0
 49
-6.349999999999999
 74
     0
  0
LTYPE
  5
91
330
5
100
AcDbSymbolTableRecord
100
AcDbLinetypeTableRecord
  2
DOT2
 70
     0
  3
Dot (.5x) .....................................
 72
    65
 73
     2
 40
3.174999999999999
 49
0.0
 74
     0
 49
-3.174999999999999
 74
     0
  0
LTYPE
  5
92
330
5
100
AcDbSymbolTableRecord
100
AcDbLinetypeTableRecord
  2
DOTX2
 70
     0
  3
Dot (2x) .  .  .  .  .  .  .  .  .  .  .  .  . 
 72
    65
 73
     2
 40
12.7
 49
0.0
 74
     0
 49
-12.7
 74
     0
  0
LTYPE
  5
93
330
5
100
AcDbSymbolTableRecord
100
AcDbLinetypeTableRecord
  2
HIDDEN
 70
     0
  3
Hidden __ __ __ __ __ __ __ __ __ __ __ __ __ _
 72
    65
 73
     2
 40
9.524999999999998
 49
6.349999999999999
 74
     0
 49
-3.174999999999999
 74
     0
  0
LTYPE
  5
94
330
5
100
AcDbSymbolTableRecord
100
AcDbLinetypeTableRecord
  2
HIDDEN2
 70
     0
  3
Hidden (.5x) _ _ _ _ _ _ _ _ _ _ _ _ _ _ _ _ _
 72
    65
 73
     2
 40
4.762499999999999
 49
3.174999999999999
 74
     0
 49
-1.587499999999999
 74
     0
  0
LTYPE
  5
95
330
5
100
AcDbSymbolTableRecord
100
AcDbLinetypeTableRecord
  2
HIDDENX2
 70
     0
  3
Hidden (2x) ____ ____ ____ ____ ____ ____ ____
 72
    65
 73
     2
 40
19.05
 49
12.7
 74
     0
 49
-6.349999999999999
 74
     0
  0
LTYPE
  5
96
330
5
100
AcDbSymbolTableRecord
100
AcDbLinetypeTableRecord
  2
PHANTOM
 70
     0
  3
Phantom ______  __  __  ______  __  __  ______
 72
    65
 73
     6
 40
63.5
 49
31.75
 74
     0
 49
-6.349999999999999
 74
     0
 49
6.349999999999999
 74
     0
 49
-6.349999999999999
 74
     0
 49
6.349999999999999
 74
     0
 49
-6.349999999999999
 74
     0
  0
LTYPE
  5
97
330
5
100
AcDbSymbolTableRecord
100
AcDbLinetypeTableRecord
  2
PHANTOM2
 70
     0
  3
Phantom (.5x) ___ _ _ ___ _ _ ___ _ _ ___ _ _
 72
    65
 73
     6
 40
31.75
 49
15.875
 74
     0
 49
-3.174999999999999
 74
     0
 49
3.174999999999999
 74
     0
 49
-3.174999999999999
 74
     0
 49
3.174999999999999
 74
     0
 49
-3.174999999999999
 74
     0
  0
LTYPE
  5
98
330
5
100
AcDbSymbolTableRecord
100
AcDbLinetypeTableRecord
  2
PHANTOMX2
 70
     0
  3
Phantom (2x) ____________    ____    ____   _
 72
    65
 73
     6
 40
127.0
 49
63.5
 74
     0
 49
-12.7
 74
     0
 49
12.7
 74
     0
 49
-12.7
 74
     0
 49
12.7
 74
     0
 49
-12.7
 74
     0
  0
LTYPE
  5
99
330
5
100
AcDbSymbolTableRecord
100
AcDbLinetypeTableRecord
  2
ACAD_ISO02W100
 70
     0
  3
ISO dash __ __ __ __ __ __ __ __ __ __ __ __ __
 72
    65
 73
     2
 40
15.0
 49
12.0
 74
     0
 49
-3.0
 74
     0
  0
LTYPE
  5
9A
330
5
100
AcDbSymbolTableRecord
100
AcDbLinetypeTableRecord
  2
ACAD_ISO03W100
 70
     0
  3
ISO dash space __    __    __    __    __    __
 72
    65
 73
     2
 40
30.0
 49
12.0
 74
     0
 49
-18.0
 74
     0
  0
LTYPE
  5
9B
330
5
100
AcDbSymbolTableRecord
100
AcDbLinetypeTableRecord
  2
ACAD_ISO04W100
 70
     0
  3
ISO long-dash dot ____ . ____ . ____ . ____ . _
 72
    65
 73
     4
 40
30.0
 49
24.0
 74
     0
 49
-3.0
 74
     0
 49
0.0
 74
     0
 49
-3.0
 74
     0
  0
LTYPE
  5
9C
330
5
100
AcDbSymbolTableRecord
100
AcDbLinetypeTableRecord
  2
ACAD_ISO05W100
 70
     0
  3
ISO long-dash double-dot ____ .. ____ .. ____ .
 72
    65
 73
     6
 40
33.0
 49
24.0
 74
     0
 49
-3.0
 74
     0
 49
0.0
 74
     0
 49
-3.0
 74
     0
 49
0.0
 74
     0
 49
-3.0
 74
     0
  0
LTYPE
  5
9D
330
5
100
AcDbSymbolTableRecord
100
AcDbLinetypeTableRecord
  2
ACAD_ISO06W100
 70
     0
  3
ISO long-dash triple-dot ____ ... ____ ... ____
 72
    65
 73
     8
 40
36.0
 49
24.0
 74
     0
 49
-3.0
 74
     0
 49
0.0
 74
     0
 49
-3.0
 74
     0
 49
0.0
 74
     0
 49
-3.0
 74
     0
 49
0.0
 74
     0
 49
-3.0
 74
     0
  0
LTYPE
  5
9E
330
5
100
AcDbSymbolTableRecord
100
AcDbLinetypeTableRecord
  2
ACAD_ISO07W100
 70
     0
  3
ISO dot . . . . . . . . . . . . . . . . . . . .
 72
    65
 73
     2
 40
3.0
 49
0.0
 74
     0
 49
-3.0
 74
     0
  0
LTYPE
  5
9F
330
5
100
AcDbSymbolTableRecord
100
AcDbLinetypeTableRecord
  2
ACAD_ISO08W100
 70
     0
  3
ISO long-dash short-dash ____ __ ____ __ ____ _
 72
    65
 73
     4
 40
36.0
 49
24.0
 74
     0
 49
-3.0
 74
     0
 49
6.0
 74
     0
 49
-3.0
 74
     0
  0
LTYPE
  5
A0
330
5
100
AcDbSymbolTableRecord
100
AcDbLinetypeTableRecord
  2
ACAD_ISO09W100
 70
     0
  3
ISO long-dash double-short-dash ____ __ __ ____
 72
    65
 73
     6
 40
45.0
 49
24.0
 74
     0
 49
-3.0
 74
     0
 49
6.0
 74
     0
 49
-3.0
 74
     0
 49
6.0
 74
     0
 49
-3.0
 74
     0
  0
LTYPE
  5
A1
330
5
100
AcDbSymbolTableRecord
100
AcDbLinetypeTableRecord
  2
ACAD_ISO10W100
 70
     0
  3
ISO dash dot __ . __ . __ . __ . __ . __ . __ .
 72
    65
 73
     4
 40
18.0
 49
12.0
 74
     0
 49
-3.0
 74
     0
 49
0.0
 74
     0
 49
-3.0
 74
     0
  0
LTYPE
  5
A2
330
5
100
AcDbSymbolTableRecord
100
AcDbLinetypeTableRecord
  2
ACAD_ISO11W100
 70
     0
  3
ISO double-dash dot __ __ . __ __ . __ __ . __ 
 72
    65
 73
     6
 40
33.0
 49
12.0
 74
     0
 49
-3.0
 74
     0
 49
12.0
 74
     0
 49
-3.0
 74
     0
 49
0.0
 74
     0
 49
-3.0
 74
     0
  0
LTYPE
  5
A3
330
5
100
AcDbSymbolTableRecord
100
AcDbLinetypeTableRecord
  2
ACAD_ISO12W100
 70
     0
  3
ISO dash double-dot __ . . __ . . __ . . __ . .
 72
    65
 73
     6
 40
21.0
 49
12.0
 74
     0
 49
-3.0
 74
     0
 49
0.0
 74
     0
 49
-3.0
 74
     0
 49
0.0
 74
     0
 49
-3.0
 74
     0
  0
LTYPE
  5
A4
330
5
100
AcDbSymbolTableRecord
100
AcDbLinetypeTableRecord
  2
ACAD_ISO13W100
 70
     0
  3
ISO double-dash double-dot __ __ . . __ __ . . 
 72
    65
 73
     8
 40
36.0
 49
12.0
 74
     0
 49
-3.0
 74
     0
 49
12.0
 74
     0
 49
-3.0
 74
     0
 49
0.0
 74
     0
 49
-3.0
 74
     0
 49
0.0
 74
     0
 49
-3.0
 74
     0
  0
LTYPE
  5
A5
330
5
100
AcDbSymbolTableRecord
100
AcDbLinetypeTableRecord
  2
ACAD_ISO14W100
 70
     0
  3
ISO dash triple-dot __ . . . __ . . . __ . . . 
 72
    65
 73
     8
 40
24.0
 49
12.0
 74
     0
 49
-3.0
 74
     0
 49
0.0
 74
     0
 49
-3.0
 74
     0
 49
0.0
 74
     0
 49
-3.0
 74
     0
 49
0.0
 74
     0
 49
-3.0
 74
     0
  0
LTYPE
  5
A6
330
5
100
AcDbSymbolTableRecord
100
AcDbLinetypeTableRecord
  2
ACAD_ISO15W100
 70
     0
  3
ISO double-dash triple-dot __ __ . . . __ __ . 
 72
    65
 73
    10
 40
39.0
 49
12.0
 74
     0
 49
-3.0
 74
     0
 49
12.0
 74
     0
 49
-3.0
 74
     0
 49
0.0
 74
     0
 49
-3.0
 74
     0
 49
0.0
 74
     0
 49
-3.0
 74
     0
 49
0.0
 74
     0
 49
-3.0
 74
     0
  0
LTYPE
  5
A9
330
5
100
AcDbSymbolTableRecord
100
AcDbLinetypeTableRecord
  2
FENCELINE1
 70
     0
  3
Fenceline circle ----0-----0----0-----0----0---
 72
    65
 73
     4
 40
36.83
 49
6.349999999999999
 74
     0
 49
-2.54
 74
     4
 75
   133
340
A8
 46
2.54
 50
0.0
 44
-2.54
 45
0.0
 49
-2.54
 74
     0
 49
25.4
 74
     0
  0
LTYPE
  5
AA
330
5
100
AcDbSymbolTableRecord
100
AcDbLinetypeTableRecord
  2
FENCELINE2
 70
     0
  3
Fenceline square ----[]-----[]----[]-----[]----
 72
    65
 73
     4
 40
36.83
 49
6.349999999999999
 74
     0
 49
-2.54
 74
     4
 75
   132
340
A8
 46
2.54
 50
0.0
 44
-2.54
 45
0.0
 49
-2.54
 74
     0
 49
25.4
 74
     0
  0
LTYPE
  5
AB
330
5
100
AcDbSymbolTableRecord
100
AcDbLinetypeTableRecord
  2
TRACKS
 70
     0
  3
Tracks -|-|-|-|-|-|-|-|-|-|-|-|-|-|-|-|-|-|-|-|
 72
    65
 73
     2
 40
7.62
 49
3.81
 74
     4
 75
   130
340
A8
 46
6.349999999999999
 50
0.0
 44
0.0
 45
0.0
 49
3.81
 74
     0
  0
LTYPE
  5
AC
330
5
100
AcDbSymbolTableRecord
100
AcDbLinetypeTableRecord
  2
BATTING
 70
     0
  3
Batting SSSSSSSSSSSSSSSSSSSSSSSSSSSSSSSSSSSSSSS
 72
    65
 73
     4
 40
10.16254
 49
0.00254
 74
     0
 49
-2.54
 74
     4
 75
   134
340
A8
 46
2.54
 50
0.0
 44
-2.54
 45
0.0
 49
-5.08
 74
     4
 75
   134
340
A8
 46
2.54
 50
180.0
 44
2.54
 45
0.0
 49
-2.54
 74
     0
  0
LTYPE
  5
AD
330
5
100
AcDbSymbolTableRecord
100
AcDbLinetypeTableRecord
  2
HOT_WATER_SUPPLY
 70
     0
  3
Hot water supply ---- HW ---- HW ---- HW ----
 72
    65
 73
     3
 40
22.86
 49
12.7
 74
     0
 49
-5.08
 74
     2
 75
     0
340
55
 46
2.54
 50
0.0
 44
-2.54
 45
-1.27
  9
HW
 49
-5.08
 74
     0
  0
LTYPE
  5
AE
330
5
100
AcDbSymbolTableRecord
100
AcDbLinetypeTableRecord
  2
GAS_LINE
 70
     0
  3
Gas line ----GAS----GAS----GAS----GAS----GAS---
 72
    65
 73
     3
 40
24.13
 49
12.7
 74
     0
 49
-5.08
 74
     2
 75
     0
340
55
 46
2.54
 50
0.0
 44
-2.54
 45
-1.27
  9
GAS
 49
-6.349999999999999
 74
     0
  0
LTYPE
  5
AF
330
5
100
AcDbSymbolTableRecord
100
AcDbLinetypeTableRecord
  2
ZIGZAG
 70
     0
  3
Zig zag /\/\/\/\/\/\/\/\/\/\/\/\/\/\/\/\/\/\/\/
 72
    65
 73
     4
 40
20.32254
 49
0.00254
 74
     0
 49
-5.08
 74
     4
 75
   131
340
A8
 46
5.08
 50
0.0
 44
-5.08
 45
0.0
 49
-10.16
 74
     4
 75
   131
340
A8
 46
5.08
 50
180.0
 44
5.08
 45
0.0
 49
-5.08
 74
     0
  0
ENDTAB
  0
TABLE
  2
LAYER
  5
2
330
0
100
AcDbSymbolTable
 70
     8
  0
LAYER
  5
54
330
2
100
AcDbSymbolTableRecord
100
AcDbLayerTableRecord
  2
0
 70
     0
 62
     7
  6
Continuous
370
    -3
390
F
  0
LAYER
  5
BA
330
2
100
AcDbSymbolTableRecord
100
AcDbLayerTableRecord
  2
Dimension (ISO)
 70
     0
 62
   161
  6
Continuous
370
    18
390
F
  0
LAYER
  5
BB
330
2
100
AcDbSymbolTableRecord
100
AcDbLayerTableRecord
  2
Hatch (ISO)
 70
     0
 62
   176
  6
Continuous
370
    18
390
F
  0
LAYER
  5
C3
330
2
100
AcDbSymbolTableRecord
100
AcDbLayerTableRecord
  2
Sketch Geometry (ISO)
 70
     0
 62
     7
  6
Continuous
370
    25
390
F
  0
LAYER
  5
C4
330
2
100
AcDbSymbolTableRecord
100
AcDbLayerTableRecord
  2
Symbol (ISO)
 70
     0
 62
     7
  6
Continuous
370
    25
390
F
  0
LAYER
  5
C5
330
2
100
AcDbSymbolTableRecord
100
AcDbLayerTableRecord
  2
Title (ISO)
 70
     0
 62
     7
  6
Continuous
370
    30
390
F
  0
LAYER
  5
C8
330
2
100
AcDbSymbolTableRecord
100
AcDbLayerTableRecord
  2
Visible (ISO)
 70
     0
 62
     7
  6
Continuous
370
    35
390
F
  0
LAYER
  5
5F5
330
2
100
AcDbSymbolTableRecord
100
AcDbLayerTableRecord
  2
Defpoints
 70
     0
 62
     7
  6
Continuous
290
     0
370
    -3
390
F
  0
ENDTAB
  0
TABLE
  2
STYLE
  5
3
330
0
100
AcDbSymbolTable
 70
     7
  0
STYLE
  5
55
330
3
100
AcDbSymbolTableRecord
100
AcDbTextStyleTableRecord
  2
Standard
 70
     0
 40
0.0
 41
1.0
 50
0.0
 71
     0
 42
0.2
  3
tahoma.ttf
  4

1001
ACAD
1000
Tahoma
1071
      256
  0
STYLE
  5
5A
330
3
100
AcDbSymbolTableRecord
100
AcDbTextStyleTableRecord
  2
Annotative
 70
     0
 40
0.0
 41
1.0
 50
0.0
 71
     0
 42
0.2
  3
txt
  4

1001
AcadAnnotative
1000
AnnotativeData
1002
{
1070
     1
1070
     1
1002
}
  0
STYLE
  5
A8
330
3
100
AcDbSymbolTableRecord
100
AcDbTextStyleTableRecord
  2

 70
     1
 40
0.0
 41
1.0
 50
0.0
 71
     0
 42
0.2
  3
ltypeshp.shx
  4

  0
STYLE
  5
CD
330
3
100
AcDbSymbolTableRecord
100
AcDbTextStyleTableRecord
  2
Label Text (ISO)
 70
     0
 40
0.0
 41
1.0
 50
0.0
 71
     0
 42
0.2
  3
tahoma.ttf
  4

1001
ACAD
1000
Tahoma
1071
      256
  0
STYLE
  5
CE
330
3
100
AcDbSymbolTableRecord
100
AcDbTextStyleTableRecord
  2
Note Text (ISO)
 70
     0
 40
0.0
 41
1.0
 50
0.0
 71
     0
 42
0.2
  3
tahoma.ttf
  4

1001
ACAD
1000
Tahoma
1071
      256
  0
STYLE
  5
CF
330
3
100
AcDbSymbolTableRecord
100
AcDbTextStyleTableRecord
  2
Tekst mały
 70
     0
 40
0.0
 41
1.0
 50
0.0
 71
     0
 42
0.2
  3
tahoma.ttf
  4

1001
ACAD
1000
Tahoma
1071
      256
  0
STYLE
  5
D0
330
3
100
AcDbSymbolTableRecord
100
AcDbTextStyleTableRecord
  2
Tekst notatki (ISO)
 70
     0
 40
0.0
 41
1.0
 50
0.0
 71
     0
 42
0.2
  3
tahoma.ttf
  4

1001
ACAD
1000
Tahoma
1071
      256
  0
ENDTAB
  0
TABLE
  2
VIEW
  5
6
330
0
100
AcDbSymbolTable
 70
     0
  0
ENDTAB
  0
TABLE
  2
UCS
  5
7
330
0
100
AcDbSymbolTable
 70
     0
  0
ENDTAB
  0
TABLE
  2
APPID
  5
9
330
0
100
AcDbSymbolTable
 70
     4
  0
APPID
  5
56
330
9
100
AcDbSymbolTableRecord
100
AcDbRegAppTableRecord
  2
ACAD
 70
     0
  0
APPID
  5
5E
330
9
100
AcDbSymbolTableRecord
100
AcDbRegAppTableRecord
  2
AcadAnnotative
 70
     0
  0
APPID
  5
F09
330
9
100
AcDbSymbolTableRecord
100
AcDbRegAppTableRecord
  2
AcadAnnoPO
 70
     0
  0
APPID
  5
F56
330
9
100
AcDbSymbolTableRecord
100
AcDbRegAppTableRecord
  2
ACAD_MLEADERVER
 70
     0
  0
ENDTAB
  0
TABLE
  2
DIMSTYLE
  5
A
330
0
100
AcDbSymbolTable
 70
    12
100
AcDbDimStyleTable
 71
     2
340
D5
340
58
  0
DIMSTYLE
105
58
330
A
100
AcDbSymbolTableRecord
100
AcDbDimStyleTableRecord
  2
Standard
 70
     0
340
55
  0
DIMSTYLE
105
59
330
A
100
AcDbSymbolTableRecord
100
AcDbDimStyleTableRecord
  2
Annotative
 70
     0
340
55
1001
AcadAnnotative
1000
AnnotativeData
1002
{
1070
     1
1070
     1
1002
}
  0
DIMSTYLE
105
D1
330
A
100
AcDbSymbolTableRecord
100
AcDbDimStyleTableRecord
  2
Default - Method 1b (ISO)
 70
     0
 40
100.0
 41
2.5
 42
0.0
 43
5.999999999999999
 44
3.174999999999999
 45
0.00000001
 46
10.0
 73
     0
 77
     1
 78
     8
 79
     2
140
2.5
143
0.03937
146
1.399999976158142
147
0.762
171
     3
172
     1
176
   256
177
   256
178
   256
179
     2
271
     2
272
     2
274
     3
278
    44
284
     8
286
     8
340
CE
371
    -1
372
    -1
  0
DIMSTYLE
105
D2
330
A
100
AcDbSymbolTableRecord
100
AcDbDimStyleTableRecord
  2
Default - Method 1b (ISO)$7
 70
     0
 40
100.0
 41
2.5
 42
0.0
 43
5.999999999999999
 44
3.174999999999999
 45
0.00000001
 46
10.0
 73
     0
 77
     1
 78
     8
 79
     2
140
2.5
143
0.03937
146
1.399999976158142
147
0.762
171
     3
172
     1
176
   256
177
   256
178
   256
179
     2
271
     2
272
     2
274
     3
278
    44
284
     8
286
     8
340
CE
371
    -1
372
    -1
  0
DIMSTYLE
105
D3
330
A
100
AcDbSymbolTableRecord
100
AcDbDimStyleTableRecord
  2
Default - mm [in] (ISO)
 70
     0
  4
 cal
 40
100.0
 41
2.5
 42
0.0
 43
5.999999999999999
 44
3.174999999999999
 45
0.00000001
 46
10.0
 73
     0
 74
     0
 77
     1
 78
     8
 79
     2
140
2.5
143
0.03937
146
1.399999976158142
147
0.762
170
     1
171
     3
172
     1
176
   256
177
   256
178
   256
179
     3
271
     3
272
     2
274
     3
275
     1
278
    44
284
     8
285
     8
286
     8
340
CE
371
    -1
372
    -1
  0
DIMSTYLE
105
D4
330
A
100
AcDbSymbolTableRecord
100
AcDbDimStyleTableRecord
  2
Default - mm [in] (ISO)$7
 70
     0
  4
 cal
 40
100.0
 41
2.5
 42
0.0
 43
5.999999999999999
 44
3.174999999999999
 45
0.00000001
 46
10.0
 73
     0
 74
     0
 77
     1
 78
     8
 79
     2
140
2.5
143
0.03937
146
1.399999976158142
147
0.762
170
     1
171
     3
172
     1
176
   256
177
   256
178
   256
179
     3
271
     3
272
     2
274
     3
275
     1
278
    44
284
     8
285
     8
286
     8
340
CE
371
    -1
372
    -1
  0
DIMSTYLE
105
D5
102
{ACAD_REACTORS
330
5F4
330
6DD
330
7BF
330
8A1
330
989
330
A6E
330
B53
330
C38
330
D19
330
E01
102
}
330
A
100
AcDbSymbolTableRecord
100
AcDbDimStyleTableRecord
  2
Default (ISO)
 70
     0
 40
100.0
 41
2.5
 42
0.5
 43
5.999999999999999
 44
1.0
 45
0.00000001
 46
10.0
 73
     0
 77
     1
 78
     8
 79
     2
140
3.5
143
0.03937
146
0.7142857313156128
147
0.762
171
     3
172
     1
176
   256
177
   256
178
   256
271
     2
272
     2
274
     3
278
    44
340
CD
371
    -1
372
    -1
  0
DIMSTYLE
105
D6
330
A
100
AcDbSymbolTableRecord
100
AcDbDimStyleTableRecord
  2
Default (ISO)$7
 70
     0
 40
100.0
 41
2.5
 42
0.5
 43
5.999999999999999
 44
1.0
 45
0.00000001
 46
10.0
 73
     0
 77
     1
 78
     8
 79
     2
140
3.5
143
0.03937
146
0.7142857313156128
147
0.762
171
     3
172
     1
176
   256
177
   256
178
   256
271
     2
272
     2
274
     3
278
    44
340
CD
371
    -1
372
    -1
  0
DIMSTYLE
105
E5
330
A
100
AcDbSymbolTableRecord
100
AcDbDimStyleTableRecord
  2
Obiekt mieszany (ISO)
 70
     0
 40
100.0
 41
2.5
 42
0.0
 43
5.999999999999999
 44
3.174999999999999
 45
0.00000001
 46
10.0
 73
     0
 74
     0
 77
     1
140
3.5
143
0.03937
146
1.001485705375671
147
0.762
171
     3
172
     1
176
   256
177
   256
178
   256
179
     2
271
     2
272
     2
274
     3
278
    44
340
CD
341
D7
371
    -1
372
    -1
  0
DIMSTYLE
105
E6
330
A
100
AcDbSymbolTableRecord
100
AcDbDimStyleTableRecord
  2
Obiekt mieszany (ISO)$7
 70
     0
 40
100.0
 41
5.0
 42
0.0
 43
5.999999999999999
 44
3.174999999999999
 45
0.00000001
 46
10.0
 73
     0
 74
     0
 77
     1
140
3.5
143
0.03937
146
1.001485705375671
147
0.762
171
     3
172
     1
176
   256
177
   256
178
   256
179
     2
271
     2
272
     2
274
     3
278
    44
340
CD
341
D7
371
    25
372
    -1
  0
DIMSTYLE
105
E7
330
A
100
AcDbSymbolTableRecord
100
AcDbDimStyleTableRecord
  2
Alternate (ISO)
 70
     0
 40
100.0
 41
2.5
340
55
342
E8
  0
DIMSTYLE
105
F9
330
A
100
AcDbSymbolTableRecord
100
AcDbDimStyleTableRecord
  2
Datum (ISO)
 70
     0
 40
100.0
 41
2.5
340
55
342
E8
  0
ENDTAB
  0
TABLE
  2
BLOCK_RECORD
  5
1
330
0
100
AcDbSymbolTable
 70
    19
  0
BLOCK_RECORD
  5
6C
330
1
100
AcDbSymbolTableRecord
100
AcDbBlockTableRecord
  2
*Model_Space
340
6F
  0
BLOCK_RECORD
  5
68
330
1
100
AcDbSymbolTableRecord
100
AcDbBlockTableRecord
  2
*Paper_Space
340
6B
  0
BLOCK_RECORD
  5
70
330
1
100
AcDbSymbolTableRecord
100
AcDbBlockTableRecord
  2
*Paper_Space0
340
73
  0
BLOCK_RECORD
  5
D7
330
1
100
AcDbSymbolTableRecord
100
AcDbBlockTableRecord
  2
Filled-1
340
0
  0
BLOCK_RECORD
  5
E8
330
1
100
AcDbSymbolTableRecord
100
AcDbBlockTableRecord
  2
_Closed
340
0
  0
BLOCK_RECORD
  5
EF
330
1
100
AcDbSymbolTableRecord
100
AcDbBlockTableRecord
  2
DatumFilled45
340
0
  0
BLOCK_RECORD
  5
FA
330
1
100
AcDbSymbolTableRecord
100
AcDbBlockTableRecord
  2
Poziom gruntu
340
0
  0
BLOCK_RECORD
  5
104
330
1
100
AcDbSymbolTableRecord
100
AcDbBlockTableRecord
  2
Poziom
340
0
  0
BLOCK_RECORD
  5
10A
330
1
100
AcDbSymbolTableRecord
100
AcDbBlockTableRecord
  2
Podział ramki pełny
340
0
  0
BLOCK_RECORD
  5
5F6
330
1
100
AcDbSymbolTableRecord
100
AcDbBlockTableRecord
  2
*D7
340
0
  0
BLOCK_RECORD
  5
6DE
330
1
100
AcDbSymbolTableRecord
100
AcDbBlockTableRecord
  2
*D8
340
0
  0
BLOCK_RECORD
  5
7C0
330
1
100
AcDbSymbolTableRecord
100
AcDbBlockTableRecord
  2
*D9
340
0
  0
BLOCK_RECORD
  5
8A2
330
1
100
AcDbSymbolTableRecord
100
AcDbBlockTableRecord
  2
*D10
340
0
  0
BLOCK_RECORD
  5
98A
330
1
100
AcDbSymbolTableRecord
100
AcDbBlockTableRecord
  2
*D11
340
0
  0
BLOCK_RECORD
  5
A6F
330
1
100
AcDbSymbolTableRecord
100
AcDbBlockTableRecord
  2
*D12
340
0
  0
BLOCK_RECORD
  5
B54
330
1
100
AcDbSymbolTableRecord
100
AcDbBlockTableRecord
  2
*D13
340
0
  0
BLOCK_RECORD
  5
C39
330
1
100
AcDbSymbolTableRecord
100
AcDbBlockTableRecord
  2
*D14
340
0
  0
BLOCK_RECORD
  5
D1A
330
1
100
AcDbSymbolTableRecord
100
AcDbBlockTableRecord
  2
*D15
340
0
  0
BLOCK_RECORD
  5
E02
330
1
100
AcDbSymbolTableRecord
100
AcDbBlockTableRecord
  2
*D16
340
0
  0
BLOCK_RECORD
  5
F01
330
1
100
AcDbSymbolTableRecord
100
AcDbBlockTableRecord
  2
Tabelki rysunkowe Rzut
340
0
102
{BLKREFS
331
F0C
102
}
  0
BLOCK_RECORD
  5
F76
330
1
100
AcDbSymbolTableRecord
100
AcDbBlockTableRecord
  2
88504_Street-workout-parkour-4
340
0
310
2800000020000000200000000100080000000000000400000000000000000000000000000000000000000000000080000080000000808000800000008000800080800000C0C0C000C0DCC000F0CAA6000020400000206000002080000020A0000020C0000020E00000400000004020000040400000406000004080000040A0
310
000040C0000040E00000600000006020000060400000606000006080000060A0000060C0000060E00000800000008020000080400000806000008080000080A0000080C0000080E00000A0000000A0200000A0400000A0600000A0800000A0A00000A0C00000A0E00000C0000000C0200000C0400000C0600000C0800000C0
310
A00000C0C00000C0E00000E0000000E0200000E0400000E0600000E0800000E0A00000E0C00000E0E00040000000400020004000400040006000400080004000A0004000C0004000E00040200000402020004020400040206000402080004020A0004020C0004020E000404000004040200040404000404060004040800040
310
40A0004040C0004040E00040600000406020004060400040606000406080004060A0004060C0004060E00040800000408020004080400040806000408080004080A0004080C0004080E00040A0000040A0200040A0400040A0600040A0800040A0A00040A0C00040A0E00040C0000040C0200040C0400040C0600040C08000
310
40C0A00040C0C00040C0E00040E0000040E0200040E0400040E0600040E0800040E0A00040E0C00040E0E00080000000800020008000400080006000800080008000A0008000C0008000E00080200000802020008020400080206000802080008020A0008020C0008020E00080400000804020008040400080406000804080
310
008040A0008040C0008040E00080600000806020008060400080606000806080008060A0008060C0008060E00080800000808020008080400080806000808080008080A0008080C0008080E00080A0000080A0200080A0400080A0600080A0800080A0A00080A0C00080A0E00080C0000080C0200080C0400080C0600080C0
310
800080C0A00080C0C00080C0E00080E0000080E0200080E0400080E0600080E0800080E0A00080E0C00080E0E000C0000000C0002000C0004000C0006000C0008000C000A000C000C000C000E000C0200000C0202000C0204000C0206000C0208000C020A000C020C000C020E000C0400000C0402000C0404000C0406000C0
310
408000C040A000C040C000C040E000C0600000C0602000C0604000C0606000C0608000C060A000C060C000C060E000C0800000C0802000C0804000C0806000C0808000C080A000C080C000C080E000C0A00000C0A02000C0A04000C0A06000C0A08000C0A0A000C0A0C000C0A0E000C0C00000C0C02000C0C04000C0C06000
310
C0C08000C0C0A000F0FBFF00A4A0A000808080000000FF0000FF000000FFFF00FF000000FF00FF00FFFF0000FFFFFF0049494949494949494949494949494949494949494949494949494949494949494949494949494949494949494949494949494949494949494949494949494949494949494949494949494949494949
310
49494949494949494949494949494949494949494949494949494949494949494949494949494949494949494949494949494949494949494949494949494949494949494949494949494949494949494949494949494949494949494949494949494949494949494949494949494949494949494949494949494949494949
310
4949494949494949494949494949494949494949494949494949494949494949494949FFFFFFFFFFFFFFFFFFFFFF4949494949494949FFFFFF49494949494949494949FF494949494949494949FFFF4949494949FFFF494949FFFF49494949494949FF4949494949494949494949FF4949494949FF4949494949FF49494949
310
494949FF4949FFFFFFFFFFFFFF4949FF49494949FF494949FF4949FFFFFFFFFFFFFFFFFF4949FFFFFFFFFFFFFF4949FF49494949FF494949FF49494949494949494949494949494949494949494949FF49494949FF494949FF49494949494949494949494949494949494949494949FF49494949FF494949FFFFFFFFFFFFFF
310
FFFFFF49494949494949494949494949FF49494949FF494949FFFFFFFFFF49FF4949FF4949494949FF49494949494949FF49494949FF494949FFFFFFFFFF49FF4949FF4949494949FF49494949494949FF49494949FF494949FFFFFFFFFFFFFFFFFFFFFFFFFFFFFFFFFFFFFF49494949FF49494949FF494949FF4949494949
310
494949FF4949494949FF4949FF4949494949FF494949FF494949FF4949494949494949FF4949494949FF4949FF4949494949FFFF4949FF494949FF4949494949494949FF4949494949FFFFFFFFFFFFFF494949FF4949FF494949FF4949494949494949494949494949494949494949494949FFFF4949FFFF49494949494949
310
49494949494949494949494949494949494949FF49494949FF494949494949494949494949494949494949494949494949FFFF494949494949FFFFFFFFFFFFFFFFFFFFFFFFFFFFFFFFFFFFFFFFFFFFFFFFFF494949494949494949494949494949494949494949494949494949494949494949494949494949494949494949
310
49494949494949494949494949494949494949494949494949494949494949494949494949494949494949494949494949494949494949494949494949494949494949494949494949494949494949494949494949494949494949494949494949494949494949494949494949494949494949494949494949494949494949
310
4949494949494949494949494949494949494949494949494949494949494949494949494949494949494949494949494949494949494949
102
{BLKREFS
331
1115
102
}
1001
ACAD
1000
DesignCenter Data
1002
{
1070
     1
1070
     4
1002
}
  0
ENDTAB
  0
ENDSEC
  0
SECTION
  2
BLOCKS
  0
BLOCK
  5
6D
330
6C
100
AcDbEntity
  8
0
100
AcDbBlockBegin
  2
*Model_Space
 70
     0
 10
0.0
 20
0.0
 30
0.0
  3
*Model_Space
  1

  0
ENDBLK
  5
6E
330
6C
100
AcDbEntity
  8
0
100
AcDbBlockEnd
  0
BLOCK
  5
69
330
68
100
AcDbEntity
 67
     1
  8
0
100
AcDbBlockBegin
  2
*Paper_Space
 70
     0
 10
0.0
 20
0.0
 30
0.0
  3
*Paper_Space
  1

  0
ENDBLK
  5
6A
330
68
100
AcDbEntity
 67
     1
  8
0
100
AcDbBlockEnd
  0
BLOCK
  5
71
330
70
100
AcDbEntity
 67
     1
  8
0
100
AcDbBlockBegin
  2
*Paper_Space0
 70
     0
 10
0.0
 20
0.0
 30
0.0
  3
*Paper_Space0
  1

  0
ENDBLK
  5
72
330
70
100
AcDbEntity
 67
     1
  8
0
100
AcDbBlockEnd
  0
BLOCK
  5
D8
330
D7
100
AcDbEntity
  8
0
100
AcDbBlockBegin
  2
Filled-1
 70
     0
 10
0.0
 20
0.0
 30
0.0
  3
Filled-1
  1

  0
LINE
  5
DA
330
D7
100
AcDbEntity
  8
0
 62
     0
100
AcDbLine
 10
-1.0
 20
0.0
 30
0.0
 11
0.0
 21
0.0
 31
0.0
  0
POLYLINE
  5
DB
330
D7
100
AcDbEntity
  8
0
 62
     0
100
AcDb2dPolyline
 66
     1
 10
0.0
 20
0.0
 30
0.0
 70
   128
  0
VERTEX
  5
DC
330
DB
100
AcDbEntity
  8
0
 62
     0
100
AcDbVertex
100
AcDb2dVertex
 10
-1.0
 20
-0.1
 30
0.0
  0
VERTEX
  5
DD
330
DB
100
AcDbEntity
  8
0
 62
     0
100
AcDbVertex
100
AcDb2dVertex
 10
0.0
 20
0.0
 30
0.0
  0
VERTEX
  5
DF
330
DB
100
AcDbEntity
  8
0
 62
     0
100
AcDbVertex
100
AcDb2dVertex
 10
-1.0
 20
0.1
 30
0.0
  0
VERTEX
  5
E0
330
DB
100
AcDbEntity
  8
0
 62
     0
100
AcDbVertex
100
AcDb2dVertex
 10
-1.0
 20
-0.1
 30
0.0
  0
SEQEND
  5
DE
330
DB
100
AcDbEntity
  8
0
 62
     0
  0
SOLID
  5
E1
330
D7
100
AcDbEntity
  8
0
 62
     0
100
AcDbTrace
 10
-1.0
 20
-0.1
 30
0.0
 11
0.0
 21
0.0
 31
0.0
 12
-1.0
 22
0.1
 32
0.0
 13
-1.0
 23
-0.1
 33
0.0
  0
LINE
  5
E2
330
D7
100
AcDbEntity
  8
0
 62
     0
100
AcDbLine
 10
-1.0
 20
-0.1
 30
0.0
 11
0.0
 21
0.0
 31
0.0
  0
LINE
  5
E3
330
D7
100
AcDbEntity
  8
0
 62
     0
100
AcDbLine
 10
0.0
 20
0.0
 30
0.0
 11
-1.0
 21
0.1
 31
0.0
  0
LINE
  5
E4
330
D7
100
AcDbEntity
  8
0
 62
     0
100
AcDbLine
 10
-1.0
 20
0.1
 30
0.0
 11
-1.0
 21
-0.1
 31
0.0
  0
ENDBLK
  5
D9
330
D7
100
AcDbEntity
  8
0
100
AcDbBlockEnd
  0
BLOCK
  5
ED
330
E8
100
AcDbEntity
  8
0
100
AcDbBlockBegin
  2
_Closed
 70
     0
 10
0.0
 20
0.0
 30
0.0
  3
_Closed
  1

  0
LINE
  5
E9
330
E8
100
AcDbEntity
  8
0
  6
ByBlock
 62
     0
370
    -2
100
AcDbLine
 10
-1.0
 20
0.1666666666666666
 30
0.0
 11
0.0
 21
0.0
 31
0.0
  0
LINE
  5
EA
330
E8
100
AcDbEntity
  8
0
  6
ByBlock
 62
     0
370
    -2
100
AcDbLine
 10
0.0
 20
0.0
 30
0.0
 11
-1.0
 21
-0.1666666666666666
 31
0.0
  0
LINE
  5
EB
330
E8
100
AcDbEntity
  8
0
  6
ByBlock
 62
     0
370
    -2
100
AcDbLine
 10
-1.0
 20
0.1666666666666666
 30
0.0
 11
-1.0
 21
-0.1666666666666666
 31
0.0
  0
LINE
  5
EC
330
E8
100
AcDbEntity
  8
0
  6
ByBlock
 62
     0
370
    -2
100
AcDbLine
 10
0.0
 20
0.0
 30
0.0
 11
-1.0
 21
0.0
 31
0.0
  0
ENDBLK
  5
EE
330
E8
100
AcDbEntity
  8
0
100
AcDbBlockEnd
  0
BLOCK
  5
F0
330
EF
100
AcDbEntity
  8
0
100
AcDbBlockBegin
  2
DatumFilled45
 70
     0
 10
0.0
 20
0.0
 30
0.0
  3
DatumFilled45
  1

  0
POLYLINE
  5
F2
330
EF
100
AcDbEntity
  8
0
 62
     0
100
AcDb2dPolyline
 66
     1
 10
0.0
 20
0.0
 30
0.0
 70
   128
  0
VERTEX
  5
F3
330
F2
100
AcDbEntity
  8
0
 62
     0
100
AcDbVertex
100
AcDb2dVertex
 10
0.0
 20
1.0
 30
0.0
  0
VERTEX
  5
F4
330
F2
100
AcDbEntity
  8
0
 62
     0
100
AcDbVertex
100
AcDb2dVertex
 10
0.0
 20
-1.0
 30
0.0
  0
VERTEX
  5
F6
330
F2
100
AcDbEntity
  8
0
 62
     0
100
AcDbVertex
100
AcDb2dVertex
 10
-1.0
 20
0.0
 30
0.0
  0
VERTEX
  5
F7
330
F2
100
AcDbEntity
  8
0
 62
     0
100
AcDbVertex
100
AcDb2dVertex
 10
0.0
 20
1.0
 30
0.0
  0
SEQEND
  5
F5
330
F2
100
AcDbEntity
  8
0
 62
     0
  0
SOLID
  5
F8
330
EF
100
AcDbEntity
  8
0
 62
     0
100
AcDbTrace
 10
0.0
 20
1.0
 30
0.0
 11
0.0
 21
-1.0
 31
0.0
 12
-1.0
 22
0.0
 32
0.0
 13
0.0
 23
1.0
 33
0.0
  0
ENDBLK
  5
F1
330
EF
100
AcDbEntity
  8
0
100
AcDbBlockEnd
  0
BLOCK
  5
FB
330
FA
100
AcDbEntity
  8
0
100
AcDbBlockBegin
  2
Poziom gruntu
 70
     0
 10
0.0
 20
0.0
 30
0.0
  3
Poziom gruntu
  1

  0
HATCH
  5
100
330
FA
100
AcDbEntity
  8
Hatch (ISO)
 62
     7
100
AcDbHatch
 10
0.0
 20
0.0
 30
0.0
210
0.0
220
0.0
230
1.0
  2
SOLID
 70
     1
 71
     0
 91
        1
 92
        1
 93
        3
 72
     1
 10
-1.750000000000024
 20
1.515544456622812
 11
1.750000000000024
 21
1.515544456622812
 72
     1
 10
1.750000000000024
 20
1.515544456622812
 11
0.0
 21
-1.515544456622794
 72
     1
 10
0.0
 20
-1.515544456622794
 11
-1.750000000000024
 21
1.515544456622812
 97
        0
 75
     0
 76
     1
 98
        1
 10
0.0
 20
0.0
  0
LINE
  5
101
330
FA
100
AcDbEntity
  8
Sketch Geometry (ISO)
100
AcDbLine
 10
0.0
 20
-1.515544456622794
 30
0.0
 11
-1.750000000000024
 21
1.515544456622812
 31
0.0
  0
LINE
  5
102
330
FA
100
AcDbEntity
  8
Sketch Geometry (ISO)
100
AcDbLine
 10
-1.750000000000024
 20
1.515544456622812
 30
0.0
 11
1.750000000000024
 21
1.515544456622812
 31
0.0
  0
LINE
  5
103
330
FA
100
AcDbEntity
  8
Sketch Geometry (ISO)
100
AcDbLine
 10
1.750000000000024
 20
1.515544456622812
 30
0.0
 11
0.0
 21
-1.515544456622794
 31
0.0
  0
ENDBLK
  5
FC
330
FA
100
AcDbEntity
  8
0
100
AcDbBlockEnd
  0
BLOCK
  5
105
330
104
100
AcDbEntity
  8
0
100
AcDbBlockBegin
  2
Poziom
 70
     0
 10
0.0
 20
0.0
 30
0.0
  3
Poziom
  1

  0
LINE
  5
107
330
104
100
AcDbEntity
  8
Sketch Geometry (ISO)
100
AcDbLine
 10
-4.613248654051878
 20
5.0
 30
0.0
 11
-4.613248654051878
 21
-5.0
 31
0.0
  0
LINE
  5
108
330
104
100
AcDbEntity
  8
Sketch Geometry (ISO)
100
AcDbLine
 10
-4.613248654051878
 20
-5.0
 30
0.0
 11
-7.5
 21
0.0
 31
0.0
  0
LINE
  5
109
330
104
100
AcDbEntity
  8
Sketch Geometry (ISO)
100
AcDbLine
 10
-7.5
 20
0.0
 30
0.0
 11
7.5
 21
0.0
 31
0.0
  0
ENDBLK
  5
106
330
104
100
AcDbEntity
  8
0
100
AcDbBlockEnd
  0
BLOCK
  5
10B
330
10A
100
AcDbEntity
  8
0
100
AcDbBlockBegin
  2
Podział ramki pełny
 70
     0
 10
0.0
 20
0.0
 30
0.0
  3
Podział ramki pełny
  1

  0
LINE
  5
10D
330
10A
100
AcDbEntity
  8
Sketch Geometry (ISO)
100
AcDbLine
 10
0.0
 20
190.0
 30
0.0
 11
0.0
 21
-190.0
 31
0.0
  0
LINE
  5
10E
330
10A
100
AcDbEntity
  8
Sketch Geometry (ISO)
100
AcDbLine
 10
0.0
 20
119.9999999999998
 30
0.0
 11
-148.5
 21
120.0000000000001
 31
0.0
  0
LINE
  5
10F
330
10A
100
AcDbEntity
  8
Sketch Geometry (ISO)
100
AcDbLine
 10
0.0
 20
119.9999999999998
 30
0.0
 11
148.5
 21
120.0000000000001
 31
0.0
  0
LINE
  5
110
330
10A
100
AcDbEntity
  8
Sketch Geometry (ISO)
100
AcDbLine
 10
0.0
 20
49.99999999999992
 30
0.0
 11
148.5
 21
49.99999999999992
 31
0.0
  0
LINE
  5
111
330
10A
100
AcDbEntity
  8
Sketch Geometry (ISO)
100
AcDbLine
 10
0.0
 20
49.99999999999992
 30
0.0
 11
-148.5
 21
49.99999999999992
 31
0.0
  0
LINE
  5
112
330
10A
100
AcDbEntity
  8
Sketch Geometry (ISO)
100
AcDbLine
 10
0.0
 20
-20.00000000000021
 30
0.0
 11
148.5
 21
-20.00000000000021
 31
0.0
  0
LINE
  5
113
330
10A
100
AcDbEntity
  8
Sketch Geometry (ISO)
100
AcDbLine
 10
0.0
 20
-20.00000000000021
 30
0.0
 11
-148.5
 21
-20.00000000000021
 31
0.0
  0
LINE
  5
114
330
10A
100
AcDbEntity
  8
Sketch Geometry (ISO)
100
AcDbLine
 10
0.0
 20
-90.00000000000035
 30
0.0
 11
148.5
 21
-90.00000000000035
 31
0.0
  0
LINE
  5
115
330
10A
100
AcDbEntity
  8
Sketch Geometry (ISO)
100
AcDbLine
 10
0.0
 20
-90.00000000000035
 30
0.0
 11
-148.5
 21
-90.00000000000035
 31
0.0
  0
LINE
  5
116
330
10A
100
AcDbEntity
  8
Sketch Geometry (ISO)
100
AcDbLine
 10
0.0
 20
-160.0000000000005
 30
0.0
 11
-148.4999999999999
 21
-160.0000000000005
 31
0.0
  0
LINE
  5
117
330
10A
100
AcDbEntity
  8
Sketch Geometry (ISO)
100
AcDbLine
 10
0.0
 20
119.9999999999998
 30
0.0
 11
-138.5
 21
119.9999999999999
 31
0.0
  0
LINE
  5
118
330
10A
100
AcDbEntity
  8
Sketch Geometry (ISO)
100
AcDbLine
 10
-138.5
 20
119.9999999999999
 30
0.0
 11
-138.5
 21
129.9999999999999
 31
0.0
  0
LINE
  5
119
330
10A
100
AcDbEntity
  8
Sketch Geometry (ISO)
100
AcDbLine
 10
-138.5
 20
129.9999999999999
 30
0.0
 11
0.0
 21
129.9999999999999
 31
0.0
  0
LINE
  5
11A
330
10A
100
AcDbEntity
  8
Sketch Geometry (ISO)
100
AcDbLine
 10
0.0
 20
129.9999999999999
 30
0.0
 11
0.0
 21
119.9999999999998
 31
0.0
  0
LINE
  5
11B
330
10A
100
AcDbEntity
  8
Sketch Geometry (ISO)
100
AcDbLine
 10
0.0
 20
119.9999999999998
 30
0.0
 11
136.4093077252598
 21
119.9999999999998
 31
0.0
  0
LINE
  5
11C
330
10A
100
AcDbEntity
  8
Sketch Geometry (ISO)
100
AcDbLine
 10
0.0
 20
135.4651696825694
 30
0.0
 11
0.0
 21
119.9999999999998
 31
0.0
  0
LINE
  5
11D
330
10A
100
AcDbEntity
  8
Sketch Geometry (ISO)
100
AcDbLine
 10
-59.99999999999999
 20
129.9999999999999
 30
0.0
 11
-59.99999999999999
 21
119.9999999999999
 31
0.0
  0
LINE
  5
11E
330
10A
100
AcDbEntity
  8
Sketch Geometry (ISO)
100
AcDbLine
 10
-39.99999999999999
 20
129.9999999999999
 30
0.0
 11
-39.99999999999999
 21
119.9999999999999
 31
0.0
  0
LINE
  5
11F
330
10A
100
AcDbEntity
  8
Sketch Geometry (ISO)
100
AcDbLine
 10
-19.99999999999998
 20
129.9999999999999
 30
0.0
 11
-19.99999999999998
 21
119.9999999999999
 31
0.0
  0
LINE
  5
120
330
10A
100
AcDbEntity
  8
Sketch Geometry (ISO)
100
AcDbLine
 10
0.0
 20
129.9999999999999
 30
0.0
 11
138.5
 21
129.9999999999998
 31
0.0
  0
LINE
  5
121
330
10A
100
AcDbEntity
  8
Sketch Geometry (ISO)
100
AcDbLine
 10
138.5
 20
129.9999999999998
 30
0.0
 11
138.5
 21
119.9999999999998
 31
0.0
  0
LINE
  5
122
330
10A
100
AcDbEntity
  8
Sketch Geometry (ISO)
100
AcDbLine
 10
138.5
 20
119.9999999999998
 30
0.0
 11
0.0
 21
120.0000000000001
 31
0.0
  0
LINE
  5
123
330
10A
100
AcDbEntity
  8
Sketch Geometry (ISO)
100
AcDbLine
 10
0.0
 20
120.0000000000001
 30
0.0
 11
0.0
 21
129.9999999999999
 31
0.0
  0
LINE
  5
124
330
10A
100
AcDbEntity
  8
Sketch Geometry (ISO)
100
AcDbLine
 10
118.5
 20
129.9999999999998
 30
0.0
 11
118.5
 21
119.9999999999998
 31
0.0
  0
LINE
  5
125
330
10A
100
AcDbEntity
  8
Sketch Geometry (ISO)
100
AcDbLine
 10
98.50000000000001
 20
129.9999999999998
 30
0.0
 11
98.50000000000001
 21
119.9999999999998
 31
0.0
  0
LINE
  5
126
330
10A
100
AcDbEntity
  8
Sketch Geometry (ISO)
100
AcDbLine
 10
78.5
 20
129.9999999999998
 30
0.0
 11
78.5
 21
119.9999999999998
 31
0.0
  0
LINE
  5
127
330
10A
100
AcDbEntity
  8
Sketch Geometry (ISO)
100
AcDbLine
 10
-138.5
 20
59.99999999999992
 30
0.0
 11
0.0
 21
59.99999999999992
 31
0.0
  0
LINE
  5
128
330
10A
100
AcDbEntity
  8
Sketch Geometry (ISO)
100
AcDbLine
 10
-138.5
 20
49.99999999999992
 30
0.0
 11
-138.5
 21
59.99999999999992
 31
0.0
  0
LINE
  5
129
330
10A
100
AcDbEntity
  8
Sketch Geometry (ISO)
100
AcDbLine
 10
-59.99999999999996
 20
59.99999999999992
 30
0.0
 11
-59.99999999999996
 21
49.99999999999992
 31
0.0
  0
LINE
  5
12A
330
10A
100
AcDbEntity
  8
Sketch Geometry (ISO)
100
AcDbLine
 10
-39.99999999999996
 20
59.99999999999992
 30
0.0
 11
-39.99999999999996
 21
49.99999999999992
 31
0.0
  0
LINE
  5
12B
330
10A
100
AcDbEntity
  8
Sketch Geometry (ISO)
100
AcDbLine
 10
-19.99999999999996
 20
59.99999999999992
 30
0.0
 11
-19.99999999999996
 21
49.99999999999992
 31
0.0
  0
LINE
  5
12C
330
10A
100
AcDbEntity
  8
Sketch Geometry (ISO)
100
AcDbLine
 10
0.0
 20
59.99999999999992
 30
0.0
 11
0.0
 21
49.99999999999985
 31
0.0
  0
LINE
  5
12D
330
10A
100
AcDbEntity
  8
Sketch Geometry (ISO)
100
AcDbLine
 10
0.0
 20
50.00000000000007
 30
0.0
 11
0.0
 21
59.99999999999992
 31
0.0
  0
LINE
  5
12E
330
10A
100
AcDbEntity
  8
Sketch Geometry (ISO)
100
AcDbLine
 10
0.0
 20
49.99999999999985
 30
0.0
 11
-138.5
 21
49.99999999999992
 31
0.0
  0
LINE
  5
12F
330
10A
100
AcDbEntity
  8
Sketch Geometry (ISO)
100
AcDbLine
 10
-138.5
 20
-10.00000000000007
 30
0.0
 11
0.0
 21
-10.00000000000007
 31
0.0
  0
LINE
  5
130
330
10A
100
AcDbEntity
  8
Sketch Geometry (ISO)
100
AcDbLine
 10
-138.5
 20
-20.00000000000007
 30
0.0
 11
-138.5
 21
-10.00000000000007
 31
0.0
  0
LINE
  5
131
330
10A
100
AcDbEntity
  8
Sketch Geometry (ISO)
100
AcDbLine
 10
-59.99999999999996
 20
-10.00000000000007
 30
0.0
 11
-59.99999999999996
 21
-20.00000000000007
 31
0.0
  0
LINE
  5
132
330
10A
100
AcDbEntity
  8
Sketch Geometry (ISO)
100
AcDbLine
 10
-39.99999999999996
 20
-10.00000000000007
 30
0.0
 11
-39.99999999999996
 21
-20.00000000000007
 31
0.0
  0
LINE
  5
133
330
10A
100
AcDbEntity
  8
Sketch Geometry (ISO)
100
AcDbLine
 10
-19.99999999999996
 20
-10.00000000000007
 30
0.0
 11
-19.99999999999996
 21
-20.00000000000007
 31
0.0
  0
LINE
  5
134
330
10A
100
AcDbEntity
  8
Sketch Geometry (ISO)
100
AcDbLine
 10
0.0
 20
-10.00000000000007
 30
0.0
 11
0.0
 21
-20.00000000000014
 31
0.0
  0
LINE
  5
135
330
10A
100
AcDbEntity
  8
Sketch Geometry (ISO)
100
AcDbLine
 10
0.0
 20
-19.99999999999993
 30
0.0
 11
0.0
 21
-10.00000000000007
 31
0.0
  0
LINE
  5
136
330
10A
100
AcDbEntity
  8
Sketch Geometry (ISO)
100
AcDbLine
 10
0.0
 20
-20.00000000000014
 30
0.0
 11
-138.5
 21
-20.00000000000007
 31
0.0
  0
LINE
  5
137
330
10A
100
AcDbEntity
  8
Sketch Geometry (ISO)
100
AcDbLine
 10
-138.5
 20
-80.00000000000007
 30
0.0
 11
0.0
 21
-80.00000000000007
 31
0.0
  0
LINE
  5
138
330
10A
100
AcDbEntity
  8
Sketch Geometry (ISO)
100
AcDbLine
 10
-138.5
 20
-90.00000000000007
 30
0.0
 11
-138.5
 21
-80.00000000000007
 31
0.0
  0
LINE
  5
139
330
10A
100
AcDbEntity
  8
Sketch Geometry (ISO)
100
AcDbLine
 10
-59.99999999999994
 20
-80.00000000000007
 30
0.0
 11
-59.99999999999994
 21
-90.00000000000007
 31
0.0
  0
LINE
  5
13A
330
10A
100
AcDbEntity
  8
Sketch Geometry (ISO)
100
AcDbLine
 10
-39.99999999999995
 20
-80.00000000000007
 30
0.0
 11
-39.99999999999995
 21
-90.00000000000007
 31
0.0
  0
LINE
  5
13B
330
10A
100
AcDbEntity
  8
Sketch Geometry (ISO)
100
AcDbLine
 10
-19.99999999999994
 20
-80.00000000000007
 30
0.0
 11
-19.99999999999994
 21
-90.00000000000007
 31
0.0
  0
LINE
  5
13C
330
10A
100
AcDbEntity
  8
Sketch Geometry (ISO)
100
AcDbLine
 10
0.0
 20
-80.00000000000007
 30
0.0
 11
0.0
 21
-90.00000000000014
 31
0.0
  0
LINE
  5
13D
330
10A
100
AcDbEntity
  8
Sketch Geometry (ISO)
100
AcDbLine
 10
0.0
 20
-89.99999999999992
 30
0.0
 11
0.0
 21
-80.00000000000007
 31
0.0
  0
LINE
  5
13E
330
10A
100
AcDbEntity
  8
Sketch Geometry (ISO)
100
AcDbLine
 10
0.0
 20
-90.00000000000014
 30
0.0
 11
-138.5
 21
-90.00000000000007
 31
0.0
  0
LINE
  5
13F
330
10A
100
AcDbEntity
  8
Sketch Geometry (ISO)
100
AcDbLine
 10
-138.5
 20
-150.0
 30
0.0
 11
0.0
 21
-150.0
 31
0.0
  0
LINE
  5
140
330
10A
100
AcDbEntity
  8
Sketch Geometry (ISO)
100
AcDbLine
 10
-138.5
 20
-160.0
 30
0.0
 11
-138.5
 21
-150.0
 31
0.0
  0
LINE
  5
141
330
10A
100
AcDbEntity
  8
Sketch Geometry (ISO)
100
AcDbLine
 10
-59.99999999999992
 20
-150.0
 30
0.0
 11
-59.99999999999992
 21
-160.0
 31
0.0
  0
LINE
  5
142
330
10A
100
AcDbEntity
  8
Sketch Geometry (ISO)
100
AcDbLine
 10
-39.99999999999993
 20
-150.0
 30
0.0
 11
-39.99999999999993
 21
-160.0
 31
0.0
  0
LINE
  5
143
330
10A
100
AcDbEntity
  8
Sketch Geometry (ISO)
100
AcDbLine
 10
-19.99999999999993
 20
-150.0
 30
0.0
 11
-19.99999999999993
 21
-160.0
 31
0.0
  0
LINE
  5
144
330
10A
100
AcDbEntity
  8
Sketch Geometry (ISO)
100
AcDbLine
 10
0.0
 20
-150.0
 30
0.0
 11
0.0
 21
-160.0000000000001
 31
0.0
  0
LINE
  5
145
330
10A
100
AcDbEntity
  8
Sketch Geometry (ISO)
100
AcDbLine
 10
0.0
 20
-159.9999999999999
 30
0.0
 11
0.0
 21
-150.0
 31
0.0
  0
LINE
  5
146
330
10A
100
AcDbEntity
  8
Sketch Geometry (ISO)
100
AcDbLine
 10
0.0
 20
-160.0000000000001
 30
0.0
 11
-138.5
 21
-160.0
 31
0.0
  0
LINE
  5
147
330
10A
100
AcDbEntity
  8
Sketch Geometry (ISO)
100
AcDbLine
 10
0.0
 20
49.99999999999985
 30
0.0
 11
148.5
 21
50.00000000000007
 31
0.0
  0
LINE
  5
148
330
10A
100
AcDbEntity
  8
Sketch Geometry (ISO)
100
AcDbLine
 10
0.0
 20
49.99999999999985
 30
0.0
 11
136.4093077252598
 21
49.99999999999985
 31
0.0
  0
LINE
  5
149
330
10A
100
AcDbEntity
  8
Sketch Geometry (ISO)
100
AcDbLine
 10
138.5
 20
49.99999999999985
 30
0.0
 11
0.0
 21
50.00000000000007
 31
0.0
  0
LINE
  5
14A
330
10A
100
AcDbEntity
  8
Sketch Geometry (ISO)
100
AcDbLine
 10
0.0
 20
59.99999999999992
 30
0.0
 11
138.5
 21
59.99999999999985
 31
0.0
  0
LINE
  5
14B
330
10A
100
AcDbEntity
  8
Sketch Geometry (ISO)
100
AcDbLine
 10
78.5
 20
59.99999999999985
 30
0.0
 11
78.5
 21
49.99999999999985
 31
0.0
  0
LINE
  5
14C
330
10A
100
AcDbEntity
  8
Sketch Geometry (ISO)
100
AcDbLine
 10
98.50000000000001
 20
59.99999999999985
 30
0.0
 11
98.50000000000001
 21
49.99999999999985
 31
0.0
  0
LINE
  5
14D
330
10A
100
AcDbEntity
  8
Sketch Geometry (ISO)
100
AcDbLine
 10
118.5
 20
59.99999999999985
 30
0.0
 11
118.5
 21
49.99999999999985
 31
0.0
  0
LINE
  5
14E
330
10A
100
AcDbEntity
  8
Sketch Geometry (ISO)
100
AcDbLine
 10
138.5
 20
59.99999999999985
 30
0.0
 11
138.5
 21
49.99999999999985
 31
0.0
  0
LINE
  5
14F
330
10A
100
AcDbEntity
  8
Sketch Geometry (ISO)
100
AcDbLine
 10
0.0
 20
59.99999999999992
 30
0.0
 11
0.0
 21
49.99999999999985
 31
0.0
  0
LINE
  5
150
330
10A
100
AcDbEntity
  8
Sketch Geometry (ISO)
100
AcDbLine
 10
0.0
 20
50.00000000000007
 30
0.0
 11
0.0
 21
59.99999999999992
 31
0.0
  0
LINE
  5
151
330
10A
100
AcDbEntity
  8
Sketch Geometry (ISO)
100
AcDbLine
 10
0.0
 20
65.46516968256945
 30
0.0
 11
0.0
 21
49.99999999999985
 31
0.0
  0
LINE
  5
152
330
10A
100
AcDbEntity
  8
Sketch Geometry (ISO)
100
AcDbLine
 10
0.0
 20
-20.00000000000014
 30
0.0
 11
148.5
 21
-19.99999999999993
 31
0.0
  0
LINE
  5
153
330
10A
100
AcDbEntity
  8
Sketch Geometry (ISO)
100
AcDbLine
 10
0.0
 20
-20.00000000000014
 30
0.0
 11
136.4093077252598
 21
-20.00000000000014
 31
0.0
  0
LINE
  5
154
330
10A
100
AcDbEntity
  8
Sketch Geometry (ISO)
100
AcDbLine
 10
138.5
 20
-20.00000000000014
 30
0.0
 11
0.0
 21
-19.99999999999993
 31
0.0
  0
LINE
  5
155
330
10A
100
AcDbEntity
  8
Sketch Geometry (ISO)
100
AcDbLine
 10
0.0
 20
-10.00000000000007
 30
0.0
 11
138.5
 21
-10.00000000000014
 31
0.0
  0
LINE
  5
156
330
10A
100
AcDbEntity
  8
Sketch Geometry (ISO)
100
AcDbLine
 10
78.50000000000003
 20
-10.00000000000014
 30
0.0
 11
78.50000000000003
 21
-20.00000000000014
 31
0.0
  0
LINE
  5
157
330
10A
100
AcDbEntity
  8
Sketch Geometry (ISO)
100
AcDbLine
 10
98.50000000000003
 20
-10.00000000000014
 30
0.0
 11
98.50000000000003
 21
-20.00000000000014
 31
0.0
  0
LINE
  5
158
330
10A
100
AcDbEntity
  8
Sketch Geometry (ISO)
100
AcDbLine
 10
118.5
 20
-10.00000000000014
 30
0.0
 11
118.5
 21
-20.00000000000014
 31
0.0
  0
LINE
  5
159
330
10A
100
AcDbEntity
  8
Sketch Geometry (ISO)
100
AcDbLine
 10
138.5
 20
-10.00000000000014
 30
0.0
 11
138.5
 21
-20.00000000000014
 31
0.0
  0
LINE
  5
15A
330
10A
100
AcDbEntity
  8
Sketch Geometry (ISO)
100
AcDbLine
 10
0.0
 20
-10.00000000000007
 30
0.0
 11
0.0
 21
-20.00000000000014
 31
0.0
  0
LINE
  5
15B
330
10A
100
AcDbEntity
  8
Sketch Geometry (ISO)
100
AcDbLine
 10
0.0
 20
-19.99999999999993
 30
0.0
 11
0.0
 21
-10.00000000000007
 31
0.0
  0
LINE
  5
15C
330
10A
100
AcDbEntity
  8
Sketch Geometry (ISO)
100
AcDbLine
 10
0.0
 20
-4.534830317430547
 30
0.0
 11
0.0
 21
-20.00000000000014
 31
0.0
  0
LINE
  5
15D
330
10A
100
AcDbEntity
  8
Sketch Geometry (ISO)
100
AcDbLine
 10
0.0
 20
-90.00000000000014
 30
0.0
 11
148.5
 21
-89.99999999999992
 31
0.0
  0
LINE
  5
15E
330
10A
100
AcDbEntity
  8
Sketch Geometry (ISO)
100
AcDbLine
 10
0.0
 20
-90.00000000000014
 30
0.0
 11
136.4093077252598
 21
-90.00000000000014
 31
0.0
  0
LINE
  5
15F
330
10A
100
AcDbEntity
  8
Sketch Geometry (ISO)
100
AcDbLine
 10
138.5
 20
-90.00000000000014
 30
0.0
 11
0.0
 21
-89.99999999999992
 31
0.0
  0
LINE
  5
160
330
10A
100
AcDbEntity
  8
Sketch Geometry (ISO)
100
AcDbLine
 10
0.0
 20
-80.00000000000007
 30
0.0
 11
138.5
 21
-80.00000000000014
 31
0.0
  0
LINE
  5
161
330
10A
100
AcDbEntity
  8
Sketch Geometry (ISO)
100
AcDbLine
 10
78.50000000000003
 20
-80.00000000000014
 30
0.0
 11
78.50000000000003
 21
-90.00000000000014
 31
0.0
  0
LINE
  5
162
330
10A
100
AcDbEntity
  8
Sketch Geometry (ISO)
100
AcDbLine
 10
98.50000000000003
 20
-80.00000000000014
 30
0.0
 11
98.50000000000003
 21
-90.00000000000014
 31
0.0
  0
LINE
  5
163
330
10A
100
AcDbEntity
  8
Sketch Geometry (ISO)
100
AcDbLine
 10
118.5
 20
-80.00000000000014
 30
0.0
 11
118.5
 21
-90.00000000000014
 31
0.0
  0
LINE
  5
164
330
10A
100
AcDbEntity
  8
Sketch Geometry (ISO)
100
AcDbLine
 10
138.5
 20
-80.00000000000014
 30
0.0
 11
138.5
 21
-90.00000000000014
 31
0.0
  0
LINE
  5
165
330
10A
100
AcDbEntity
  8
Sketch Geometry (ISO)
100
AcDbLine
 10
0.0
 20
-80.00000000000007
 30
0.0
 11
0.0
 21
-90.00000000000014
 31
0.0
  0
LINE
  5
166
330
10A
100
AcDbEntity
  8
Sketch Geometry (ISO)
100
AcDbLine
 10
0.0
 20
-89.99999999999992
 30
0.0
 11
0.0
 21
-80.00000000000007
 31
0.0
  0
LINE
  5
167
330
10A
100
AcDbEntity
  8
Sketch Geometry (ISO)
100
AcDbLine
 10
0.0
 20
-74.53483031743054
 30
0.0
 11
0.0
 21
-90.00000000000014
 31
0.0
  0
MTEXT
  5
168
330
10A
100
AcDbEntity
  8
Symbol (ISO)
100
AcDbMText
 10
-99.25
 20
124.9999999999998
 30
0.0
 40
2.5
 41
78.50000000000005
 71
     5
 72
     1
  1
Tabela kontroli
  7
Note Text (ISO)
 73
     1
 44
1.0
1001
ACAD
1000
MTEXTBEGIN
1070
    73
1070
     1
1070
    44
1040
1.0
1070
    74
1070
     0
1000
MTEXTEND
  0
MTEXT
  5
16A
330
10A
100
AcDbEntity
  8
Symbol (ISO)
100
AcDbMText
 10
39.24999999999992
 20
124.9999999999998
 30
0.0
 40
2.5
 41
78.49999999999987
 71
     5
 72
     1
  1
Tabela kontroli
  7
Note Text (ISO)
 73
     1
 44
1.0
1001
ACAD
1000
MTEXTBEGIN
1070
    73
1070
     1
1070
    44
1040
1.0
1070
    74
1070
     0
1000
MTEXTEND
  0
MTEXT
  5
16B
330
10A
100
AcDbEntity
  8
Symbol (ISO)
100
AcDbMText
 10
39.2500000000001
 20
55.00000000000003
 30
0.0
 40
2.5
 41
78.50000000000008
 71
     5
 72
     1
  1
Tabela kontroli
  7
Note Text (ISO)
 73
     1
 44
1.0
1001
ACAD
1000
MTEXTBEGIN
1070
    73
1070
     1
1070
    44
1040
1.0
1070
    74
1070
     0
1000
MTEXTEND
  0
MTEXT
  5
16C
330
10A
100
AcDbEntity
  8
Symbol (ISO)
100
AcDbMText
 10
-99.24999999999991
 20
-85.00000000000007
 30
0.0
 40
2.5
 41
78.50000000000015
 71
     5
 72
     1
  1
Tabela kontroli
  7
Note Text (ISO)
 73
     1
 44
1.0
1001
ACAD
1000
MTEXTBEGIN
1070
    73
1070
     1
1070
    44
1040
1.0
1070
    74
1070
     0
1000
MTEXTEND
  0
MTEXT
  5
16D
330
10A
100
AcDbEntity
  8
Symbol (ISO)
100
AcDbMText
 10
-99.25
 20
54.99999999999992
 30
0.0
 40
2.5
 41
78.50000000000003
 71
     5
 72
     1
  1
Tabela kontroli
  7
Note Text (ISO)
 73
     1
 44
1.0
1001
ACAD
1000
MTEXTBEGIN
1070
    73
1070
     1
1070
    44
1040
1.0
1070
    74
1070
     0
1000
MTEXTEND
  0
MTEXT
  5
16E
330
10A
100
AcDbEntity
  8
Symbol (ISO)
100
AcDbMText
 10
39.2500000000001
 20
-15.00000000000007
 30
0.0
 40
2.5
 41
78.50000000000008
 71
     5
 72
     1
  1
Tabela kontroli
  7
Note Text (ISO)
 73
     1
 44
1.0
1001
ACAD
1000
MTEXTBEGIN
1070
    73
1070
     1
1070
    44
1040
1.0
1070
    74
1070
     0
1000
MTEXTEND
  0
MTEXT
  5
16F
330
10A
100
AcDbEntity
  8
Symbol (ISO)
100
AcDbMText
 10
-99.24999999999991
 20
-15.00000000000007
 30
0.0
 40
2.5
 41
78.50000000000015
 71
     5
 72
     1
  1
Tabela kontroli
  7
Note Text (ISO)
 73
     1
 44
1.0
1001
ACAD
1000
MTEXTBEGIN
1070
    73
1070
     1
1070
    44
1040
1.0
1070
    74
1070
     0
1000
MTEXTEND
  0
MTEXT
  5
170
330
10A
100
AcDbEntity
  8
Symbol (ISO)
100
AcDbMText
 10
-99.2499999999999
 20
-155.0
 30
0.0
 40
2.5
 41
78.50000000000015
 71
     5
 72
     1
  1
Tabela kontroli
  7
Note Text (ISO)
 73
     1
 44
1.0
1001
ACAD
1000
MTEXTBEGIN
1070
    73
1070
     1
1070
    44
1040
1.0
1070
    74
1070
     0
1000
MTEXTEND
  0
MTEXT
  5
171
330
10A
100
AcDbEntity
  8
Symbol (ISO)
100
AcDbMText
 10
39.25000000000017
 20
-85.00000000000001
 30
0.0
 40
2.5
 41
78.50000000000015
 71
     5
 72
     1
  1
Tabela kontroli
  7
Note Text (ISO)
 73
     1
 44
1.0
1001
ACAD
1000
MTEXTBEGIN
1070
    73
1070
     1
1070
    44
1040
1.0
1070
    74
1070
     0
1000
MTEXTEND
  0
ENDBLK
  5
10C
330
10A
100
AcDbEntity
  8
0
100
AcDbBlockEnd
  0
BLOCK
  5
5F7
330
5F6
100
AcDbEntity
  8
0
100
AcDbBlockBegin
  2
*D7
 70
     1
 10
0.0
 20
0.0
 30
0.0
  3
*D7
  1

  0
LINE
  5
6D4
330
5F6
100
AcDbEntity
  8
Dimension (ISO)
100
AcDbLine
 10
30121.08862852653
 20
10716.76826626358
 30
0.0
 11
27709.55433279335
 21
10716.76826626358
 31
0.0
  0
LINE
  5
6D5
330
5F6
100
AcDbEntity
  8
Dimension (ISO)
100
AcDbLine
 10
30121.08862852652
 20
3419.029329796474
 30
0.0
 11
27709.55433279334
 21
3419.029329796475
 31
0.0
  0
LINE
  5
6D6
330
5F6
100
AcDbEntity
  8
Dimension (ISO)
100
AcDbLine
 10
27809.55433279335
 20
10466.76826626358
 30
0.0
 11
27809.55433279335
 21
3669.029329796475
 31
0.0
  0
SOLID
  5
6D7
330
5F6
100
AcDbEntity
  8
Dimension (ISO)
100
AcDbTrace
 10
27767.88766612668
 20
10466.76826626358
 30
0.0
 11
27851.22099946002
 21
10466.76826626358
 31
0.0
 12
27809.55433279335
 22
10716.76826626358
 32
0.0
 13
27809.55433279335
 23
10716.76826626358
 33
0.0
  0
SOLID
  5
6D8
330
5F6
100
AcDbEntity
  8
Dimension (ISO)
100
AcDbTrace
 10
27767.88766612668
 20
3669.029329796475
 30
0.0
 11
27851.22099946002
 21
3669.029329796475
 31
0.0
 12
27809.55433279335
 22
3419.029329796475
 32
0.0
 13
27809.55433279335
 23
3419.029329796475
 33
0.0
  0
MTEXT
  5
6D9
330
5F6
100
AcDbEntity
  8
Dimension (ISO)
100
AcDbMText
 10
27367.37045335812
 20
7067.898798030025
 30
0.0
 40
350.0
 41
0.0
 71
     2
 72
     1
  1
\A1;7298
  7
Label Text (ISO)
 11
0.0000000000000001
 21
1.0
 31
0.0
 73
     1
 44
1.0
1001
ACAD
1000
MTEXTBEGIN
1070
    73
1070
     1
1070
    44
1040
1.0
1070
    74
1070
     0
1000
MTEXTEND
  0
POINT
  5
6DA
330
5F6
100
AcDbEntity
  8
Defpoints
 62
     0
100
AcDbPoint
 10
30171.08862852654
 20
10716.76826626358
 30
0.0
  0
POINT
  5
6DB
330
5F6
100
AcDbEntity
  8
Defpoints
 62
     0
100
AcDbPoint
 10
30171.08862852652
 20
3419.029329796474
 30
0.0
  0
POINT
  5
6DC
330
5F6
100
AcDbEntity
  8
Defpoints
 62
     0
100
AcDbPoint
 10
27809.55433279335
 20
3419.029329796475
 30
0.0
  0
ENDBLK
  5
5F8
330
5F6
100
AcDbEntity
  8
0
100
AcDbBlockEnd
  0
BLOCK
  5
6DF
330
6DE
100
AcDbEntity
  8
0
100
AcDbBlockBegin
  2
*D8
 70
     1
 10
0.0
 20
0.0
 30
0.0
  3
*D8
  1

  0
LINE
  5
7B6
330
6DE
100
AcDbEntity
  8
Dimension (ISO)
100
AcDbLine
 10
28671.08862852652
 20
4869.029329796473
 30
0.0
 11
28671.08862852652
 21
1543.736319807454
 31
0.0
  0
LINE
  5
7B7
330
6DE
100
AcDbEntity
  8
Dimension (ISO)
100
AcDbLine
 10
41421.08862852654
 20
8769.029329796456
 30
0.0
 11
41421.08862852654
 21
1543.736319807454
 31
0.0
  0
LINE
  5
7B8
330
6DE
100
AcDbEntity
  8
Dimension (ISO)
100
AcDbLine
 10
28921.08862852652
 20
1643.736319807454
 30
0.0
 11
41171.08862852654
 21
1643.736319807454
 31
0.0
  0
SOLID
  5
7B9
330
6DE
100
AcDbEntity
  8
Dimension (ISO)
100
AcDbTrace
 10
28921.08862852652
 20
1685.402986474121
 30
0.0
 11
28921.08862852652
 21
1602.069653140787
 31
0.0
 12
28671.08862852652
 22
1643.736319807454
 32
0.0
 13
28671.08862852652
 23
1643.736319807454
 33
0.0
  0
SOLID
  5
7BA
330
6DE
100
AcDbEntity
  8
Dimension (ISO)
100
AcDbTrace
 10
41171.08862852654
 20
1685.402986474121
 30
0.0
 11
41171.08862852654
 21
1602.069653140787
 31
0.0
 12
41421.08862852654
 22
1643.736319807454
 32
0.0
 13
41421.08862852654
 23
1643.736319807454
 33
0.0
  0
MTEXT
  5
7BB
330
6DE
100
AcDbEntity
  8
Dimension (ISO)
100
AcDbMText
 10
35046.08862852653
 20
2084.509856740039
 30
0.0
 40
350.0
 41
0.0
 71
     2
 72
     1
  1
\A1;12750
  7
Label Text (ISO)
 73
     1
 44
1.0
1001
ACAD
1000
MTEXTBEGIN
1070
    73
1070
     1
1070
    44
1040
1.0
1070
    74
1070
     0
1000
MTEXTEND
  0
POINT
  5
7BC
330
6DE
100
AcDbEntity
  8
Defpoints
 62
     0
100
AcDbPoint
 10
28671.08862852652
 20
4919.029329796472
 30
0.0
  0
POINT
  5
7BD
330
6DE
100
AcDbEntity
  8
Defpoints
 62
     0
100
AcDbPoint
 10
41421.08862852654
 20
8819.029329796455
 30
0.0
  0
POINT
  5
7BE
330
6DE
100
AcDbEntity
  8
Defpoints
 62
     0
100
AcDbPoint
 10
41421.08862852654
 20
1643.736319807454
 30
0.0
  0
ENDBLK
  5
6E0
330
6DE
100
AcDbEntity
  8
0
100
AcDbBlockEnd
  0
BLOCK
  5
7C1
330
7C0
100
AcDbEntity
  8
0
100
AcDbBlockBegin
  2
*D9
 70
     1
 10
0.0
 20
0.0
 30
0.0
  3
*D9
  1

  0
LINE
  5
898
330
7C0
100
AcDbEntity
  8
Dimension (ISO)
100
AcDbLine
 10
30171.08862852652
 20
9261.768266264535
 30
0.0
 11
30171.08862852652
 21
9699.338347826966
 31
0.0
  0
LINE
  5
899
330
7C0
100
AcDbEntity
  8
Dimension (ISO)
100
AcDbLine
 10
39921.08862852653
 20
8966.029329796915
 30
0.0
 11
39921.08862852653
 21
9699.338347826966
 31
0.0
  0
LINE
  5
89A
330
7C0
100
AcDbEntity
  8
Dimension (ISO)
100
AcDbLine
 10
30421.08862852652
 20
9599.338347826964
 30
0.0
 11
39671.08862852653
 21
9599.338347826964
 31
0.0
  0
SOLID
  5
89B
330
7C0
100
AcDbEntity
  8
Dimension (ISO)
100
AcDbTrace
 10
30421.08862852652
 20
9641.005014493631
 30
0.0
 11
30421.08862852652
 21
9557.671681160298
 31
0.0
 12
30171.08862852652
 22
9599.338347826964
 32
0.0
 13
30171.08862852652
 23
9599.338347826964
 33
0.0
  0
SOLID
  5
89C
330
7C0
100
AcDbEntity
  8
Dimension (ISO)
100
AcDbTrace
 10
39671.08862852653
 20
9641.005014493631
 30
0.0
 11
39671.08862852653
 21
9557.671681160298
 31
0.0
 12
39921.08862852653
 22
9599.338347826964
 32
0.0
 13
39921.08862852653
 23
9599.338347826964
 33
0.0
  0
MTEXT
  5
89D
330
7C0
100
AcDbEntity
  8
Dimension (ISO)
100
AcDbMText
 10
35046.08862852653
 20
10039.87682767577
 30
0.0
 40
350.0
 41
0.0
 71
     2
 72
     1
  1
\A1;9750
  7
Label Text (ISO)
 73
     1
 44
1.0
1001
ACAD
1000
MTEXTBEGIN
1070
    73
1070
     1
1070
    44
1040
1.0
1070
    74
1070
     0
1000
MTEXTEND
  0
POINT
  5
89E
330
7C0
100
AcDbEntity
  8
Defpoints
 62
     0
100
AcDbPoint
 10
30171.08862852652
 20
9211.768266264535
 30
0.0
  0
POINT
  5
89F
330
7C0
100
AcDbEntity
  8
Defpoints
 62
     0
100
AcDbPoint
 10
39921.08862852653
 20
8916.029329796916
 30
0.0
  0
POINT
  5
8A0
330
7C0
100
AcDbEntity
  8
Defpoints
 62
     0
100
AcDbPoint
 10
39921.08862852653
 20
9599.338347826964
 30
0.0
  0
ENDBLK
  5
7C2
330
7C0
100
AcDbEntity
  8
0
100
AcDbBlockEnd
  0
BLOCK
  5
8A3
330
8A2
100
AcDbEntity
  8
0
100
AcDbBlockBegin
  2
*D10
 70
     1
 10
0.0
 20
0.0
 30
0.0
  3
*D10
  1

  0
LINE
  5
980
330
8A2
100
AcDbEntity
  8
Dimension (ISO)
100
AcDbLine
 10
30126.08862852652
 20
9216.768266264535
 30
0.0
 11
29505.75914290784
 21
9216.768266264535
 31
0.0
  0
LINE
  5
981
330
8A2
100
AcDbEntity
  8
Dimension (ISO)
100
AcDbLine
 10
36716.08862852654
 20
4255.029329796785
 30
0.0
 11
29505.75914290784
 21
4255.029329796787
 31
0.0
  0
LINE
  5
982
330
8A2
100
AcDbEntity
  8
Dimension (ISO)
100
AcDbLine
 10
29605.75914290784
 20
8966.768266264535
 30
0.0
 11
29605.75914290784
 21
4505.029329796787
 31
0.0
  0
SOLID
  5
983
330
8A2
100
AcDbEntity
  8
Dimension (ISO)
100
AcDbTrace
 10
29564.09247624117
 20
8966.768266264535
 30
0.0
 11
29647.42580957451
 21
8966.768266264535
 31
0.0
 12
29605.75914290784
 22
9216.768266264535
 32
0.0
 13
29605.75914290784
 23
9216.768266264535
 33
0.0
  0
SOLID
  5
984
330
8A2
100
AcDbEntity
  8
Dimension (ISO)
100
AcDbTrace
 10
29564.09247624117
 20
4505.029329796787
 30
0.0
 11
29647.42580957451
 21
4505.029329796787
 31
0.0
 12
29605.75914290784
 22
4255.029329796787
 32
0.0
 13
29605.75914290784
 23
4255.029329796787
 33
0.0
  0
MTEXT
  5
985
330
8A2
100
AcDbEntity
  8
Dimension (ISO)
100
AcDbMText
 10
29164.98560597526
 20
6735.89879803066
 30
0.0
 40
350.0
 41
0.0
 71
     2
 72
     1
  1
\A1;4962
  7
Label Text (ISO)
 11
0.0000000000000001
 21
1.0
 31
0.0
 73
     1
 44
1.0
1001
ACAD
1000
MTEXTBEGIN
1070
    73
1070
     1
1070
    44
1040
1.0
1070
    74
1070
     0
1000
MTEXTEND
  0
POINT
  5
986
330
8A2
100
AcDbEntity
  8
Defpoints
 62
     0
100
AcDbPoint
 10
30176.08862852652
 20
9216.768266264535
 30
0.0
  0
POINT
  5
987
330
8A2
100
AcDbEntity
  8
Defpoints
 62
     0
100
AcDbPoint
 10
36766.08862852654
 20
4255.029329796785
 30
0.0
  0
POINT
  5
988
330
8A2
100
AcDbEntity
  8
Defpoints
 62
     0
100
AcDbPoint
 10
29605.75914290784
 20
4255.029329796787
 30
0.0
  0
ENDBLK
  5
8A4
330
8A2
100
AcDbEntity
  8
0
100
AcDbBlockEnd
  0
BLOCK
  5
98B
330
98A
100
AcDbEntity
  8
0
100
AcDbBlockBegin
  2
*D11
 70
     1
 10
0.0
 20
0.0
 30
0.0
  3
*D11
  1

  0
LINE
  5
A66
330
98A
100
AcDbEntity
  8
Dimension (ISO)
100
AcDbLine
 10
30126.08862852834
 20
15931.19574292411
 30
0.0
 11
29510.31300169823
 21
15931.19574292411
 31
0.0
  0
LINE
  5
A67
330
98A
100
AcDbEntity
  8
Dimension (ISO)
100
AcDbLine
 10
29610.31300169823
 20
15681.19574292411
 30
0.0
 11
29610.31300169823
 21
12280.05796627301
 31
0.0
  0
SOLID
  5
A68
330
98A
100
AcDbEntity
  8
Dimension (ISO)
100
AcDbTrace
 10
29568.64633503156
 20
15681.19574292411
 30
0.0
 11
29651.9796683649
 21
15681.19574292411
 31
0.0
 12
29610.31300169823
 22
15931.19574292411
 32
0.0
 13
29610.31300169823
 23
15931.19574292411
 33
0.0
  0
SOLID
  5
A69
330
98A
100
AcDbEntity
  8
Dimension (ISO)
100
AcDbTrace
 10
29568.64633503156
 20
12280.05796627301
 30
0.0
 11
29651.9796683649
 21
12280.05796627301
 31
0.0
 12
29610.31300169823
 22
12030.05796627301
 32
0.0
 13
29610.31300169823
 23
12030.05796627301
 33
0.0
  0
MTEXT
  5
A6A
330
98A
100
AcDbEntity
  8
Dimension (ISO)
100
AcDbMText
 10
29169.53946476565
 20
13980.62685459856
 30
0.0
 40
350.0
 41
0.0
 71
     2
 72
     1
  1
\A1;3901
  7
Label Text (ISO)
 11
0.0000000000000001
 21
1.0
 31
0.0
 73
     1
 44
1.0
1001
ACAD
1000
MTEXTBEGIN
1070
    73
1070
     1
1070
    44
1040
1.0
1070
    74
1070
     0
1000
MTEXTEND
  0
POINT
  5
A6B
330
98A
100
AcDbEntity
  8
Defpoints
 62
     0
100
AcDbPoint
 10
30176.08862852834
 20
15931.19574292411
 30
0.0
  0
POINT
  5
A6C
330
98A
100
AcDbEntity
  8
Defpoints
 62
     0
100
AcDbPoint
 10
29610.31300169823
 20
12030.05796627301
 30
0.0
  0
POINT
  5
A6D
330
98A
100
AcDbEntity
  8
Defpoints
 62
     0
100
AcDbPoint
 10
29610.31300169823
 20
12030.05796627301
 30
0.0
  0
ENDBLK
  5
98C
330
98A
100
AcDbEntity
  8
0
100
AcDbBlockEnd
  0
BLOCK
  5
A70
330
A6F
100
AcDbEntity
  8
0
100
AcDbBlockBegin
  2
*D12
 70
     1
 10
0.0
 20
0.0
 30
0.0
  3
*D12
  1

  0
LINE
  5
B4B
330
A6F
100
AcDbEntity
  8
Dimension (ISO)
100
AcDbLine
 10
32924.08862852836
 20
14630.05796627303
 30
0.0
 11
32227.55838963459
 21
14630.05796627303
 31
0.0
  0
LINE
  5
B4C
330
A6F
100
AcDbEntity
  8
Dimension (ISO)
100
AcDbLine
 10
32327.55838963459
 20
14380.05796627303
 30
0.0
 11
32327.55838963459
 21
12280.05796627302
 31
0.0
  0
SOLID
  5
B4D
330
A6F
100
AcDbEntity
  8
Dimension (ISO)
100
AcDbTrace
 10
32285.89172296793
 20
14380.05796627303
 30
0.0
 11
32369.22505630126
 21
14380.05796627303
 31
0.0
 12
32327.55838963459
 22
14630.05796627303
 32
0.0
 13
32327.55838963459
 23
14630.05796627303
 33
0.0
  0
SOLID
  5
B4E
330
A6F
100
AcDbEntity
  8
Dimension (ISO)
100
AcDbTrace
 10
32285.89172296793
 20
12280.05796627302
 30
0.0
 11
32369.22505630126
 21
12280.05796627302
 31
0.0
 12
32327.55838963459
 22
12030.05796627302
 32
0.0
 13
32327.55838963459
 23
12030.05796627302
 33
0.0
  0
MTEXT
  5
B4F
330
A6F
100
AcDbEntity
  8
Dimension (ISO)
100
AcDbMText
 10
31886.784852702
 20
13330.05796627303
 30
0.0
 40
350.0
 41
0.0
 71
     2
 72
     1
  1
\A1;2600
  7
Label Text (ISO)
 11
0.0000000000000001
 21
1.0
 31
0.0
 73
     1
 44
1.0
1001
ACAD
1000
MTEXTBEGIN
1070
    73
1070
     1
1070
    44
1040
1.0
1070
    74
1070
     0
1000
MTEXTEND
  0
POINT
  5
B50
330
A6F
100
AcDbEntity
  8
Defpoints
 62
     0
100
AcDbPoint
 10
32974.08862852837
 20
14630.05796627303
 30
0.0
  0
POINT
  5
B51
330
A6F
100
AcDbEntity
  8
Defpoints
 62
     0
100
AcDbPoint
 10
32327.55838963459
 20
12030.05796627302
 30
0.0
  0
POINT
  5
B52
330
A6F
100
AcDbEntity
  8
Defpoints
 62
     0
100
AcDbPoint
 10
32327.55838963459
 20
12030.05796627302
 30
0.0
  0
ENDBLK
  5
A71
330
A6F
100
AcDbEntity
  8
0
100
AcDbBlockEnd
  0
BLOCK
  5
B55
330
B54
100
AcDbEntity
  8
0
100
AcDbBlockBegin
  2
*D13
 70
     1
 10
0.0
 20
0.0
 30
0.0
  3
*D13
  1

  0
LINE
  5
C30
330
B54
100
AcDbEntity
  8
Dimension (ISO)
100
AcDbLine
 10
34256.08862852836
 20
14310.05796627303
 30
0.0
 11
33789.28567983625
 21
14310.05796627303
 31
0.0
  0
LINE
  5
C31
330
B54
100
AcDbEntity
  8
Dimension (ISO)
100
AcDbLine
 10
33889.28567983625
 20
14060.05796627303
 30
0.0
 11
33889.28567983625
 21
12280.05796627302
 31
0.0
  0
SOLID
  5
C32
330
B54
100
AcDbEntity
  8
Dimension (ISO)
100
AcDbTrace
 10
33847.61901316958
 20
14060.05796627303
 30
0.0
 11
33930.95234650291
 21
14060.05796627303
 31
0.0
 12
33889.28567983625
 22
14310.05796627303
 32
0.0
 13
33889.28567983625
 23
14310.05796627303
 33
0.0
  0
SOLID
  5
C33
330
B54
100
AcDbEntity
  8
Dimension (ISO)
100
AcDbTrace
 10
33847.61901316958
 20
12280.05796627302
 30
0.0
 11
33930.95234650291
 21
12280.05796627302
 31
0.0
 12
33889.28567983625
 22
12030.05796627302
 32
0.0
 13
33889.28567983625
 23
12030.05796627302
 33
0.0
  0
MTEXT
  5
C34
330
B54
100
AcDbEntity
  8
Dimension (ISO)
100
AcDbMText
 10
33447.10180040103
 20
13170.05796627302
 30
0.0
 40
350.0
 41
0.0
 71
     2
 72
     1
  1
\A1;2280
  7
Label Text (ISO)
 11
0.0000000000000001
 21
1.0
 31
0.0
 73
     1
 44
1.0
1001
ACAD
1000
MTEXTBEGIN
1070
    73
1070
     1
1070
    44
1040
1.0
1070
    74
1070
     0
1000
MTEXTEND
  0
POINT
  5
C35
330
B54
100
AcDbEntity
  8
Defpoints
 62
     0
100
AcDbPoint
 10
34306.08862852836
 20
14310.05796627303
 30
0.0
  0
POINT
  5
C36
330
B54
100
AcDbEntity
  8
Defpoints
 62
     0
100
AcDbPoint
 10
33889.28567983625
 20
12030.05796627302
 30
0.0
  0
POINT
  5
C37
330
B54
100
AcDbEntity
  8
Defpoints
 62
     0
100
AcDbPoint
 10
33889.28567983625
 20
12030.05796627302
 30
0.0
  0
ENDBLK
  5
B56
330
B54
100
AcDbEntity
  8
0
100
AcDbBlockEnd
  0
BLOCK
  5
C3A
330
C39
100
AcDbEntity
  8
0
100
AcDbBlockBegin
  2
*D14
 70
     1
 10
0.0
 20
0.0
 30
0.0
  3
*D14
  1

  0
LINE
  5
D12
330
C39
100
AcDbEntity
  8
Dimension (ISO)
100
AcDbLine
 10
38108.28028714196
 20
12929.05796627303
 30
0.0
 11
38108.28028714196
 21
12270.05796627303
 31
0.0
  0
SOLID
  5
D13
330
C39
100
AcDbEntity
  8
Dimension (ISO)
100
AcDbTrace
 10
38066.6136204753
 20
12929.05796627303
 30
0.0
 11
38149.94695380863
 21
12929.05796627303
 31
0.0
 12
38108.28028714196
 22
13179.05796627303
 32
0.0
 13
38108.28028714196
 23
13179.05796627303
 33
0.0
  0
SOLID
  5
D14
330
C39
100
AcDbEntity
  8
Dimension (ISO)
100
AcDbTrace
 10
38066.6136204753
 20
12270.05796627303
 30
0.0
 11
38149.94695380863
 21
12270.05796627303
 31
0.0
 12
38108.28028714196
 22
12020.05796627303
 32
0.0
 13
38108.28028714196
 23
12020.05796627303
 33
0.0
  0
MTEXT
  5
D15
330
C39
100
AcDbEntity
  8
Dimension (ISO)
100
AcDbMText
 10
37667.74180729316
 20
12599.55796627303
 30
0.0
 40
350.0
 41
0.0
 71
     2
 72
     1
  1
\A1;1159
  7
Label Text (ISO)
 11
0.0000000000000001
 21
1.0
 31
0.0
 73
     1
 44
1.0
1001
ACAD
1000
MTEXTBEGIN
1070
    73
1070
     1
1070
    44
1040
1.0
1070
    74
1070
     0
1000
MTEXTEND
  0
POINT
  5
D16
330
C39
100
AcDbEntity
  8
Defpoints
 62
     0
100
AcDbPoint
 10
38108.28028714196
 20
13179.05796627303
 30
0.0
  0
POINT
  5
D17
330
C39
100
AcDbEntity
  8
Defpoints
 62
     0
100
AcDbPoint
 10
38038.58862852836
 20
12020.05796627303
 30
0.0
  0
POINT
  5
D18
330
C39
100
AcDbEntity
  8
Defpoints
 62
     0
100
AcDbPoint
 10
38108.28028714196
 20
12020.05796627303
 30
0.0
  0
ENDBLK
  5
C3B
330
C39
100
AcDbEntity
  8
0
100
AcDbBlockEnd
  0
BLOCK
  5
D1B
330
D1A
100
AcDbEntity
  8
0
100
AcDbBlockBegin
  2
*D15
 70
     1
 10
0.0
 20
0.0
 30
0.0
  3
*D15
  1

  0
LINE
  5
DF8
330
D1A
100
AcDbEntity
  8
Dimension (ISO)
100
AcDbLine
 10
39966.08862852836
 20
13585.05796627303
 30
0.0
 11
41176.33910848778
 21
13585.05796627303
 31
0.0
  0
LINE
  5
DF9
330
D1A
100
AcDbEntity
  8
Dimension (ISO)
100
AcDbLine
 10
40861.08862852836
 20
12030.05796627304
 30
0.0
 11
41176.33910848778
 21
12030.05796627304
 31
0.0
  0
LINE
  5
DFA
330
D1A
100
AcDbEntity
  8
Dimension (ISO)
100
AcDbLine
 10
41076.33910848778
 20
13335.05796627303
 30
0.0
 11
41076.33910848778
 21
12280.05796627304
 31
0.0
  0
SOLID
  5
DFB
330
D1A
100
AcDbEntity
  8
Dimension (ISO)
100
AcDbTrace
 10
41034.67244182112
 20
13335.05796627303
 30
0.0
 11
41118.00577515444
 21
13335.05796627303
 31
0.0
 12
41076.33910848778
 22
13585.05796627303
 32
0.0
 13
41076.33910848778
 23
13585.05796627303
 33
0.0
  0
SOLID
  5
DFC
330
D1A
100
AcDbEntity
  8
Dimension (ISO)
100
AcDbTrace
 10
41034.67244182112
 20
12280.05796627304
 30
0.0
 11
41118.00577515444
 21
12280.05796627304
 31
0.0
 12
41076.33910848778
 22
12030.05796627304
 32
0.0
 13
41076.33910848778
 23
12030.05796627304
 33
0.0
  0
MTEXT
  5
DFD
330
D1A
100
AcDbEntity
  8
Dimension (ISO)
100
AcDbMText
 10
40641.6770557333
 20
12807.55796627303
 30
0.0
 40
350.0
 41
0.0
 71
     2
 72
     1
  1
\A1;1555
  7
Label Text (ISO)
 11
0.0000000000000001
 21
1.0
 31
0.0
 73
     1
 44
1.0
1001
ACAD
1000
MTEXTBEGIN
1070
    73
1070
     1
1070
    44
1040
1.0
1070
    74
1070
     0
1000
MTEXTEND
  0
POINT
  5
DFE
330
D1A
100
AcDbEntity
  8
Defpoints
 62
     0
100
AcDbPoint
 10
39916.08862852836
 20
13585.05796627303
 30
0.0
  0
POINT
  5
DFF
330
D1A
100
AcDbEntity
  8
Defpoints
 62
     0
100
AcDbPoint
 10
40811.08862852836
 20
12030.05796627304
 30
0.0
  0
POINT
  5
E00
330
D1A
100
AcDbEntity
  8
Defpoints
 62
     0
100
AcDbPoint
 10
41076.33910848778
 20
12030.05796627304
 30
0.0
  0
ENDBLK
  5
D1C
330
D1A
100
AcDbEntity
  8
0
100
AcDbBlockEnd
  0
BLOCK
  5
E03
330
E02
100
AcDbEntity
  8
0
100
AcDbBlockBegin
  2
*D16
 70
     1
 10
0.0
 20
0.0
 30
0.0
  3
*D16
  1

  0
LINE
  5
EF7
330
E02
100
AcDbEntity
  8
Dimension (ISO)
100
AcDbLine
 10
39361.08862852837
 20
12030.05796627304
 30
0.0
 11
39544.68373549662
 21
12030.05796627304
 31
0.0
  0
LINE
  5
EF8
330
E02
100
AcDbEntity
  8
Dimension (ISO)
100
AcDbLine
 10
38666.08862852837
 20
14185.05796627302
 30
0.0
 11
39544.68373549662
 21
14185.05796627302
 31
0.0
  0
LINE
  5
EF9
330
E02
100
AcDbEntity
  8
Dimension (ISO)
100
AcDbLine
 10
39444.68373549663
 20
12280.05796627304
 30
0.0
 11
39444.68373549663
 21
13935.05796627303
 31
0.0
  0
LINE
  5
EFA
330
E02
100
AcDbEntity
  8
Dimension (ISO)
100
AcDbLine
 10
39444.68373549663
 20
14185.05796627302
 30
0.0
 11
39444.68373549663
 21
15587.86091481273
 31
0.0
  0
SOLID
  5
EFB
330
E02
100
AcDbEntity
  8
Dimension (ISO)
100
AcDbTrace
 10
39403.01706882996
 20
12280.05796627304
 30
0.0
 11
39486.35040216329
 21
12280.05796627304
 31
0.0
 12
39444.68373549663
 22
12030.05796627304
 32
0.0
 13
39444.68373549663
 23
12030.05796627304
 33
0.0
  0
SOLID
  5
EFC
330
E02
100
AcDbEntity
  8
Dimension (ISO)
100
AcDbTrace
 10
39403.01706882996
 20
13935.05796627303
 30
0.0
 11
39486.35040216329
 21
13935.05796627303
 31
0.0
 12
39444.68373549663
 22
14185.05796627302
 32
0.0
 13
39444.68373549663
 23
14185.05796627302
 33
0.0
  0
MTEXT
  5
EFD
330
E02
100
AcDbEntity
  8
Dimension (ISO)
100
AcDbMText
 10
39003.91019856404
 20
15011.45944054288
 30
0.0
 40
350.0
 41
0.0
 71
     2
 72
     1
  1
\A1;2155
  7
Label Text (ISO)
 11
0.0000000000000001
 21
1.0
 31
0.0
 73
     1
 44
1.0
1001
ACAD
1000
MTEXTBEGIN
1070
    73
1070
     1
1070
    44
1040
1.0
1070
    74
1070
     0
1000
MTEXTEND
  0
POINT
  5
EFE
330
E02
100
AcDbEntity
  8
Defpoints
 62
     0
100
AcDbPoint
 10
39311.08862852836
 20
12030.05796627304
 30
0.0
  0
POINT
  5
EFF
330
E02
100
AcDbEntity
  8
Defpoints
 62
     0
100
AcDbPoint
 10
38616.08862852837
 20
14185.05796627302
 30
0.0
  0
POINT
  5
F00
330
E02
100
AcDbEntity
  8
Defpoints
 62
     0
100
AcDbPoint
 10
39444.68373549663
 20
14185.05796627302
 30
0.0
  0
ENDBLK
  5
E04
330
E02
100
AcDbEntity
  8
0
100
AcDbBlockEnd
  0
BLOCK
  5
F02
330
F01
100
AcDbEntity
  8
0
100
AcDbBlockBegin
  2
Tabelki rysunkowe Rzut
 70
     2
 10
0.0
 20
0.0
 30
0.0
  3
Tabelki rysunkowe Rzut
  1

  0
TEXT
  5
F04
330
F01
100
AcDbEntity
  8
Title (ISO)
100
AcDbText
 10
166.7768162971836
 20
11.24130542460445
 30
0.0
 40
2.5
  1
Obowiązuje od:
  7
Note Text (ISO)
 11
166.7768162971836
 21
13.74130542460445
 31
0.0
100
AcDbText
 73
     3
  0
TEXT
  5
F06
330
F01
100
AcDbEntity
  8
Title (ISO)
100
AcDbText
 10
166.7768162971836
 20
18.24130542460445
 30
0.0
 40
2.5
  1
Nr kat.:
  7
Note Text (ISO)
 11
166.7768162971836
 21
20.74130542460446
 31
0.0
100
AcDbText
 73
     3
  0
TEXT
  5
F07
330
F01
100
AcDbEntity
  8
Title (ISO)
100
AcDbText
 10
166.7768162971836
 20
14.74130542460445
 30
0.0
 40
2.5
  1
Nazwa:
  7
Note Text (ISO)
 11
166.7768162971836
 21
17.24130542460445
 31
0.0
100
AcDbText
 73
     3
  0
ATTDEF
  5
F08
102
{ACAD_XDICTIONARY
360
F12
102
}
330
F01
100
AcDbEntity
  8
Title (ISO)
100
AcDbText
 10
178.5283273792489
 20
18.12713485684115
 30
0.0
 40
2.5
  1
88504
  7
Note Text (ISO)
100
AcDbAttributeDefinition
  3
Numer katalogowy
  2
Numer_katalogowy_001
 70
     0
  0
ATTDEF
  5
F0A
102
{ACAD_XDICTIONARY
360
F15
102
}
330
F01
100
AcDbEntity
  8
Title (ISO)
100
AcDbText
 10
190.4107988369825
 20
11.13720873189256
 30
0.0
 40
2.5
  1
2019-03-26
  7
Note Text (ISO)
100
AcDbAttributeDefinition
  3
DATA UTWORZENIA
  2
DATA_UTWORZENIA_001
 70
     0
  0
MTEXT
  5
F0B
330
F01
100
AcDbEntity
  8
Title (ISO)
100
AcDbMText
 10
178.7768162971835
 20
17.24130542460445
 30
0.0
 40
2.5
 41
38.632931107587
 71
     1
 72
     1
  1
Street workout - parkour 4
  7
Note Text (ISO)
 73
     1
 44
1.0
1001
ACAD
1000
MTEXTBEGIN
1070
    73
1070
     1
1070
    44
1040
1.0
1070
    74
1070
     0
1000
MTEXTEND
  0
ENDBLK
  5
F03
330
F01
100
AcDbEntity
  8
0
100
AcDbBlockEnd
  0
BLOCK
  5
F77
330
F76
100
AcDbEntity
  8
0
100
AcDbBlockBegin
  2
88504_Street-workout-parkour-4
 70
     0
 10
0.0
 20
0.0
 30
0.0
  3
88504_Street-workout-parkour-4
  1

  0
ARC
  5
F79
330
F76
100
AcDbEntity
  8
Visible (ISO)
100
AcDbCircle
 10
1862.150000000001
 20
614.0000000001209
 30
0.0
 40
4.000000000000114
100
AcDbArc
 50
180.0
 51
270.0
  0
ARC
  5
F7A
330
F76
100
AcDbEntity
  8
Visible (ISO)
100
AcDbCircle
 10
1862.150000000001
 20
856.0000000001201
 30
0.0
 40
3.999999999999972
100
AcDbArc
 50
90.0
 51
180.0
  0
ARC
  5
F7B
330
F76
100
AcDbEntity
  8
Visible (ISO)
100
AcDbCircle
 10
2854.149999999994
 20
614.00000000012
 30
0.0
 40
3.999999999999687
100
AcDbArc
 50
270.0
 51
0.0
  0
ARC
  5
F7C
330
F76
100
AcDbEntity
  8
Visible (ISO)
100
AcDbCircle
 10
2854.149999999994
 20
856.0000000001192
 30
0.0
 40
4.000000000000292
100
AcDbArc
 50
0.0
 51
90.0
  0
LINE
  5
F7D
330
F76
100
AcDbEntity
  8
Visible (ISO)
100
AcDbLine
 10
1858.149999999994
 20
614.0000000001209
 30
0.0
 11
1858.149999999994
 21
856.0000000001201
 31
0.0
  0
LINE
  5
F7E
330
F76
100
AcDbEntity
  8
Visible (ISO)
100
AcDbLine
 10
2854.149999999994
 20
610.0000000001209
 30
0.0
 11
1862.150000000001
 21
610.0000000001209
 31
0.0
  0
LINE
  5
F7F
330
F76
100
AcDbEntity
  8
Visible (ISO)
100
AcDbLine
 10
2858.149999999994
 20
856.0000000001192
 30
0.0
 11
2858.149999999994
 21
614.00000000012
 31
0.0
  0
LINE
  5
F80
330
F76
100
AcDbEntity
  8
Visible (ISO)
100
AcDbLine
 10
1862.150000000001
 20
860.00000000012
 30
0.0
 11
2854.149999999994
 21
860.00000000012
 31
0.0
  0
LINE
  5
F81
330
F76
100
AcDbEntity
  8
Visible (ISO)
100
AcDbLine
 10
2843.149999999994
 20
625.0000000001237
 30
0.0
 11
1873.150000000001
 21
625.0000000001237
 31
0.0
  0
LINE
  5
F82
330
F76
100
AcDbEntity
  8
Visible (ISO)
100
AcDbLine
 10
2843.149999999994
 20
845.0000000001219
 30
0.0
 11
2843.149999999994
 21
625.0000000001237
 31
0.0
  0
LINE
  5
F83
330
F76
100
AcDbEntity
  8
Visible (ISO)
100
AcDbLine
 10
1873.150000000001
 20
625.0000000001237
 30
0.0
 11
1873.150000000001
 21
845.0000000001228
 31
0.0
  0
LINE
  5
F84
330
F76
100
AcDbEntity
  8
Visible (ISO)
100
AcDbLine
 10
1873.150000000001
 20
845.0000000001228
 30
0.0
 11
2843.149999999994
 21
845.0000000001219
 31
0.0
  0
ARC
  5
F85
330
F76
100
AcDbEntity
  8
Visible (ISO)
100
AcDbCircle
 10
862.1500000000088
 20
613.9999999997307
 30
0.0
 40
4.000000000000103
100
AcDbArc
 50
180.0
 51
270.0
  0
ARC
  5
F86
330
F76
100
AcDbEntity
  8
Visible (ISO)
100
AcDbCircle
 10
862.1500000000088
 20
855.9999999997289
 30
0.0
 40
3.99999999999996
100
AcDbArc
 50
90.0
 51
180.0
  0
ARC
  5
F87
330
F76
100
AcDbEntity
  8
Visible (ISO)
100
AcDbCircle
 10
1854.150000000001
 20
613.9999999997307
 30
0.0
 40
3.999999999999676
100
AcDbArc
 50
270.0
 51
0.0
  0
ARC
  5
F88
330
F76
100
AcDbEntity
  8
Visible (ISO)
100
AcDbCircle
 10
1854.150000000001
 20
855.9999999997289
 30
0.0
 40
4.00000000000028
100
AcDbArc
 50
0.0
 51
90.0
  0
LINE
  5
F89
330
F76
100
AcDbEntity
  8
Visible (ISO)
100
AcDbLine
 10
1854.150000000001
 20
609.9999999997308
 30
0.0
 11
862.1500000000088
 21
609.9999999997298
 31
0.0
  0
LINE
  5
F8A
330
F76
100
AcDbEntity
  8
Visible (ISO)
100
AcDbLine
 10
862.1500000000088
 20
859.999999999728
 30
0.0
 11
1854.150000000001
 21
859.999999999729
 31
0.0
  0
LINE
  5
F8B
330
F76
100
AcDbEntity
  8
Visible (ISO)
100
AcDbLine
 10
1843.150000000001
 20
624.9999999997344
 30
0.0
 11
873.1500000000087
 21
624.9999999997335
 31
0.0
  0
LINE
  5
F8C
330
F76
100
AcDbEntity
  8
Visible (ISO)
100
AcDbLine
 10
1843.150000000001
 20
844.9999999997316
 30
0.0
 11
1843.150000000001
 21
751.849999999732
 31
0.0
  0
LINE
  5
F8D
330
F76
100
AcDbEntity
  8
Visible (ISO)
100
AcDbLine
 10
1843.150000000001
 20
718.1499999997322
 30
0.0
 11
1843.150000000001
 21
624.9999999997344
 31
0.0
  0
LINE
  5
F8E
330
F76
100
AcDbEntity
  8
Visible (ISO)
100
AcDbLine
 10
873.1500000000087
 20
624.9999999997335
 30
0.0
 11
873.1500000000087
 21
718.1499999997322
 31
0.0
  0
LINE
  5
F8F
330
F76
100
AcDbEntity
  8
Visible (ISO)
100
AcDbLine
 10
873.1500000000087
 20
751.849999999732
 30
0.0
 11
873.1500000000087
 21
844.9999999997316
 31
0.0
  0
LINE
  5
F90
330
F76
100
AcDbEntity
  8
Visible (ISO)
100
AcDbLine
 10
873.1500000000087
 20
844.9999999997316
 30
0.0
 11
1843.150000000001
 21
844.9999999997316
 31
0.0
  0
ARC
  5
F91
330
F76
100
AcDbEntity
  8
Visible (ISO)
100
AcDbCircle
 10
104.1500000000087
 20
863.9999999996033
 30
0.0
 40
4.000000000000111
100
AcDbArc
 50
270.0
 51
0.0
  0
ARC
  5
F92
330
F76
100
AcDbEntity
  8
Visible (ISO)
100
AcDbCircle
 10
-137.8499999999985
 20
863.9999999996033
 30
0.0
 40
3.999999999999969
100
AcDbArc
 50
180.0
 51
270.0
  0
ARC
  5
F93
330
F76
100
AcDbEntity
  8
Visible (ISO)
100
AcDbCircle
 10
104.1500000000087
 20
1855.999999999598
 30
0.0
 40
3.999999999999685
100
AcDbArc
 50
0.0
 51
90.0
  0
ARC
  5
F94
330
F76
100
AcDbEntity
  8
Visible (ISO)
100
AcDbCircle
 10
-137.8499999999985
 20
1855.999999999598
 30
0.0
 40
4.000000000000289
100
AcDbArc
 50
90.0
 51
180.0
  0
LINE
  5
F95
330
F76
100
AcDbEntity
  8
Visible (ISO)
100
AcDbLine
 10
108.1500000000014
 20
1855.999999999598
 30
0.0
 11
108.1500000000014
 21
863.9999999996033
 31
0.0
  0
LINE
  5
F96
330
F76
100
AcDbEntity
  8
Visible (ISO)
100
AcDbLine
 10
-137.8499999999985
 20
1859.999999999598
 30
0.0
 11
104.1500000000087
 21
1859.999999999598
 31
0.0
  0
LINE
  5
F97
330
F76
100
AcDbEntity
  8
Visible (ISO)
100
AcDbLine
 10
-141.8499999999985
 20
863.9999999996033
 30
0.0
 11
-141.8499999999985
 21
1855.999999999598
 31
0.0
  0
LINE
  5
F98
330
F76
100
AcDbEntity
  8
Visible (ISO)
100
AcDbLine
 10
93.15000000000145
 20
1844.9999999996
 30
0.0
 11
93.15000000000145
 21
874.9999999996061
 31
0.0
  0
LINE
  5
F99
330
F76
100
AcDbEntity
  8
Visible (ISO)
100
AcDbLine
 10
-126.8499999999912
 20
1844.9999999996
 30
0.0
 11
93.15000000000145
 21
1844.9999999996
 31
0.0
  0
LINE
  5
F9A
330
F76
100
AcDbEntity
  8
Visible (ISO)
100
AcDbLine
 10
93.15000000000145
 20
874.9999999996061
 30
0.0
 11
-126.8499999999912
 21
874.9999999996061
 31
0.0
  0
LINE
  5
F9B
330
F76
100
AcDbEntity
  8
Visible (ISO)
100
AcDbLine
 10
-126.8499999999912
 20
874.9999999996061
 30
0.0
 11
-126.8499999999912
 21
1844.9999999996
 31
0.0
  0
ARC
  5
F9C
330
F76
100
AcDbEntity
  8
Visible (ISO)
100
AcDbCircle
 10
2854.150000000002
 20
-386.0000000002656
 30
0.0
 40
4.000000000000111
100
AcDbArc
 50
270.0
 51
0.0
  0
ARC
  5
F9D
330
F76
100
AcDbEntity
  8
Visible (ISO)
100
AcDbCircle
 10
2612.149999999994
 20
-386.0000000002656
 30
0.0
 40
3.999999999999968
100
AcDbArc
 50
180.0
 51
270.0
  0
ARC
  5
F9E
330
F76
100
AcDbEntity
  8
Visible (ISO)
100
AcDbCircle
 10
2854.150000000002
 20
605.999999999728
 30
0.0
 40
3.999999999999684
100
AcDbArc
 50
0.0
 51
90.0
  0
ARC
  5
F9F
330
F76
100
AcDbEntity
  8
Visible (ISO)
100
AcDbCircle
 10
2612.149999999994
 20
605.999999999728
 30
0.0
 40
4.000000000000288
100
AcDbArc
 50
90.0
 51
180.0
  0
LINE
  5
FA0
330
F76
100
AcDbEntity
  8
Visible (ISO)
100
AcDbLine
 10
2854.150000000002
 20
-390.0000000002665
 30
0.0
 11
2612.150000000001
 21
-390.0000000002665
 31
0.0
  0
LINE
  5
FA1
330
F76
100
AcDbEntity
  8
Visible (ISO)
100
AcDbLine
 10
2858.149999999994
 20
605.999999999728
 30
0.0
 11
2858.149999999994
 21
-386.0000000002656
 31
0.0
  0
LINE
  5
FA2
330
F76
100
AcDbEntity
  8
Visible (ISO)
100
AcDbLine
 10
2608.149999999994
 20
-386.0000000002656
 30
0.0
 11
2608.149999999994
 21
605.999999999728
 31
0.0
  0
LINE
  5
FA3
330
F76
100
AcDbEntity
  8
Visible (ISO)
100
AcDbLine
 10
2843.149999999994
 20
594.9999999997308
 30
0.0
 11
2843.149999999994
 21
-375.0000000002629
 31
0.0
  0
LINE
  5
FA4
330
F76
100
AcDbEntity
  8
Visible (ISO)
100
AcDbLine
 10
2623.150000000002
 20
594.9999999997308
 30
0.0
 11
2843.149999999994
 21
594.9999999997308
 31
0.0
  0
LINE
  5
FA5
330
F76
100
AcDbEntity
  8
Visible (ISO)
100
AcDbLine
 10
2843.149999999994
 20
-375.0000000002629
 30
0.0
 11
2623.150000000002
 21
-375.0000000002629
 31
0.0
  0
LINE
  5
FA6
330
F76
100
AcDbEntity
  8
Visible (ISO)
100
AcDbLine
 10
2623.150000000002
 20
-375.0000000002629
 30
0.0
 11
2623.150000000002
 21
594.9999999997308
 31
0.0
  0
ARC
  5
FA7
330
F76
100
AcDbEntity
  8
Visible (ISO)
100
AcDbCircle
 10
854.1500000000015
 20
856.0000000001181
 30
0.0
 40
4.000000000000115
100
AcDbArc
 50
0.0
 51
90.0
  0
ARC
  5
FA8
330
F76
100
AcDbEntity
  8
Visible (ISO)
100
AcDbCircle
 10
854.1500000000015
 20
614.0000000001191
 30
0.0
 40
3.999999999999973
100
AcDbArc
 50
270.0
 51
0.0
  0
ARC
  5
FA9
330
F76
100
AcDbEntity
  8
Visible (ISO)
100
AcDbCircle
 10
-137.8499999999913
 20
856.0000000001181
 30
0.0
 40
3.999999999999689
100
AcDbArc
 50
90.0
 51
180.0
  0
ARC
  5
FAA
330
F76
100
AcDbEntity
  8
Visible (ISO)
100
AcDbCircle
 10
-137.8499999999913
 20
614.0000000001191
 30
0.0
 40
4.000000000000293
100
AcDbArc
 50
180.0
 51
270.0
  0
LINE
  5
FAB
330
F76
100
AcDbEntity
  8
Visible (ISO)
100
AcDbLine
 10
858.1500000000014
 20
856.0000000001181
 30
0.0
 11
858.1500000000014
 21
614.0000000001191
 31
0.0
  0
LINE
  5
FAC
330
F76
100
AcDbEntity
  8
Visible (ISO)
100
AcDbLine
 10
-137.8499999999913
 20
860.0000000001182
 30
0.0
 11
854.1500000000015
 21
860.0000000001191
 31
0.0
  0
LINE
  5
FAD
330
F76
100
AcDbEntity
  8
Visible (ISO)
100
AcDbLine
 10
-141.8499999999985
 20
614.0000000001191
 30
0.0
 11
-141.8499999999985
 21
856.0000000001181
 31
0.0
  0
LINE
  5
FAE
330
F76
100
AcDbEntity
  8
Visible (ISO)
100
AcDbLine
 10
854.1500000000015
 20
610.00000000012
 30
0.0
 11
-137.8499999999913
 21
610.0000000001191
 31
0.0
  0
LINE
  5
FAF
330
F76
100
AcDbEntity
  8
Visible (ISO)
100
AcDbLine
 10
-126.8499999999912
 20
845.0000000001208
 30
0.0
 11
843.1500000000013
 21
845.0000000001208
 31
0.0
  0
LINE
  5
FB0
330
F76
100
AcDbEntity
  8
Visible (ISO)
100
AcDbLine
 10
-126.8499999999912
 20
625.0000000001218
 30
0.0
 11
-126.8499999999912
 21
845.0000000001208
 31
0.0
  0
LINE
  5
FB1
330
F76
100
AcDbEntity
  8
Visible (ISO)
100
AcDbLine
 10
843.1500000000013
 20
845.0000000001208
 30
0.0
 11
843.1500000000013
 21
625.0000000001228
 31
0.0
  0
LINE
  5
FB2
330
F76
100
AcDbEntity
  8
Visible (ISO)
100
AcDbLine
 10
843.1500000000013
 20
625.0000000001228
 30
0.0
 11
-126.8499999999912
 21
625.0000000001218
 31
0.0
  0
LINE
  5
FB3
330
F76
100
AcDbEntity
  8
Visible (ISO)
100
AcDbLine
 10
2843.149999999994
 20
625.0000000001237
 30
0.0
 11
2843.149999999994
 21
845.0000000001237
 31
0.0
  0
LINE
  5
FB4
330
F76
100
AcDbEntity
  8
Visible (ISO)
100
AcDbLine
 10
2843.149999999994
 20
845.0000000001237
 30
0.0
 11
1873.150000000001
 21
845.0000000001237
 31
0.0
  0
LINE
  5
FB5
330
F76
100
AcDbEntity
  8
Visible (ISO)
100
AcDbLine
 10
1873.150000000001
 20
625.0000000001237
 30
0.0
 11
2843.149999999994
 21
625.0000000001237
 31
0.0
  0
LINE
  5
FB6
330
F76
100
AcDbEntity
  8
Visible (ISO)
100
AcDbLine
 10
1873.150000000001
 20
845.0000000001237
 30
0.0
 11
1873.150000000001
 21
625.0000000001237
 31
0.0
  0
LINE
  5
FB7
330
F76
100
AcDbEntity
  8
Visible (ISO)
100
AcDbLine
 10
1843.150000000001
 20
624.9999999997326
 30
0.0
 11
1843.150000000001
 21
718.1499999997313
 31
0.0
  0
LINE
  5
FB8
330
F76
100
AcDbEntity
  8
Visible (ISO)
100
AcDbLine
 10
1843.150000000001
 20
751.8499999997311
 30
0.0
 11
1843.150000000001
 21
844.9999999997325
 31
0.0
  0
LINE
  5
FB9
330
F76
100
AcDbEntity
  8
Visible (ISO)
100
AcDbLine
 10
1843.150000000001
 20
844.9999999997325
 30
0.0
 11
873.1500000000087
 21
844.9999999997316
 31
0.0
  0
LINE
  5
FBA
330
F76
100
AcDbEntity
  8
Visible (ISO)
100
AcDbLine
 10
873.1500000000087
 20
624.9999999997326
 30
0.0
 11
1843.150000000001
 21
624.9999999997326
 31
0.0
  0
LINE
  5
FBB
330
F76
100
AcDbEntity
  8
Visible (ISO)
100
AcDbLine
 10
873.1500000000087
 20
844.9999999997316
 30
0.0
 11
873.1500000000087
 21
751.8499999997311
 31
0.0
  0
LINE
  5
FBC
330
F76
100
AcDbEntity
  8
Visible (ISO)
100
AcDbLine
 10
873.1500000000087
 20
718.1499999997313
 30
0.0
 11
873.1500000000087
 21
624.9999999997326
 31
0.0
  0
LINE
  5
FBD
330
F76
100
AcDbEntity
  8
Visible (ISO)
100
AcDbLine
 10
93.15000000000145
 20
1844.9999999996
 30
0.0
 11
-126.8499999999912
 21
1844.9999999996
 31
0.0
  0
LINE
  5
FBE
330
F76
100
AcDbEntity
  8
Visible (ISO)
100
AcDbLine
 10
-126.8499999999912
 20
1844.9999999996
 30
0.0
 11
-126.8499999999912
 21
874.9999999996035
 31
0.0
  0
LINE
  5
FBF
330
F76
100
AcDbEntity
  8
Visible (ISO)
100
AcDbLine
 10
93.15000000000145
 20
874.9999999996035
 30
0.0
 11
93.15000000000145
 21
1844.9999999996
 31
0.0
  0
LINE
  5
FC0
330
F76
100
AcDbEntity
  8
Visible (ISO)
100
AcDbLine
 10
-126.8499999999912
 20
874.9999999996035
 30
0.0
 11
93.15000000000145
 21
874.9999999996035
 31
0.0
  0
LINE
  5
FC1
330
F76
100
AcDbEntity
  8
Visible (ISO)
100
AcDbLine
 10
2843.149999999994
 20
594.9999999997325
 30
0.0
 11
2623.150000000002
 21
594.9999999997325
 31
0.0
  0
LINE
  5
FC2
330
F76
100
AcDbEntity
  8
Visible (ISO)
100
AcDbLine
 10
2623.150000000002
 20
594.9999999997325
 30
0.0
 11
2623.150000000002
 21
-375.0000000002656
 31
0.0
  0
LINE
  5
FC3
330
F76
100
AcDbEntity
  8
Visible (ISO)
100
AcDbLine
 10
2843.149999999994
 20
-375.0000000002656
 30
0.0
 11
2843.149999999994
 21
594.9999999997325
 31
0.0
  0
LINE
  5
FC4
330
F76
100
AcDbEntity
  8
Visible (ISO)
100
AcDbLine
 10
2623.150000000002
 20
-375.0000000002656
 30
0.0
 11
2843.149999999994
 21
-375.0000000002656
 31
0.0
  0
LINE
  5
FC5
330
F76
100
AcDbEntity
  8
Visible (ISO)
100
AcDbLine
 10
-126.8499999999912
 20
845.0000000001219
 30
0.0
 11
-126.8499999999912
 21
625.0000000001218
 31
0.0
  0
LINE
  5
FC6
330
F76
100
AcDbEntity
  8
Visible (ISO)
100
AcDbLine
 10
-126.8499999999912
 20
625.0000000001218
 30
0.0
 11
843.1500000000013
 21
625.0000000001218
 31
0.0
  0
LINE
  5
FC7
330
F76
100
AcDbEntity
  8
Visible (ISO)
100
AcDbLine
 10
843.1500000000013
 20
845.0000000001219
 30
0.0
 11
-126.8499999999912
 21
845.0000000001219
 31
0.0
  0
LINE
  5
FC8
330
F76
100
AcDbEntity
  8
Visible (ISO)
100
AcDbLine
 10
843.1500000000013
 20
625.0000000001218
 30
0.0
 11
843.1500000000013
 21
845.0000000001219
 31
0.0
  0
LINE
  5
FC9
330
F76
100
AcDbEntity
  8
Visible (ISO)
100
AcDbLine
 10
858.1500000000014
 20
751.8500000000003
 30
0.0
 11
1858.150000000001
 21
751.8500000000003
 31
0.0
  0
LINE
  5
FCA
330
F76
100
AcDbEntity
  8
Visible (ISO)
100
AcDbLine
 10
858.1500000000014
 20
718.1500000000014
 30
0.0
 11
1858.150000000001
 21
718.1500000000014
 31
0.0
  0
LINE
  5
FCB
330
F76
100
AcDbEntity
  8
Visible (ISO)
100
AcDbLine
 10
2858.149999999994
 20
751.8500000000003
 30
0.0
 11
4078.149999999994
 21
751.8500000000003
 31
0.0
  0
LINE
  5
FCC
330
F76
100
AcDbEntity
  8
Visible (ISO)
100
AcDbLine
 10
2858.149999999994
 20
718.1500000000014
 30
0.0
 11
4078.149999999994
 21
718.1500000000014
 31
0.0
  0
LINE
  5
FCD
330
F76
100
AcDbEntity
  8
Visible (ISO)
100
AcDbLine
 10
2716.300000000003
 20
860.0000000000681
 30
0.0
 11
2716.300000000003
 21
2080.000000000067
 31
0.0
  0
LINE
  5
FCE
330
F76
100
AcDbEntity
  8
Visible (ISO)
100
AcDbLine
 10
2749.999999999993
 20
860.0000000000681
 30
0.0
 11
2749.999999999993
 21
2080.000000000067
 31
0.0
  0
LINE
  5
FCF
330
F76
100
AcDbEntity
  8
Visible (ISO)
100
AcDbLine
 10
0.0
 20
610.0000000000009
 30
0.0
 11
0.0
 21
-610.0
 31
0.0
  0
LINE
  5
FD0
330
F76
100
AcDbEntity
  8
Visible (ISO)
100
AcDbLine
 10
-33.69999999998981
 20
610.0000000000009
 30
0.0
 11
-33.69999999998981
 21
-610.0
 31
0.0
  0
LINE
  5
FD1
330
F76
100
AcDbEntity
  8
Visible (ISO)
100
AcDbLine
 10
-141.8499999999985
 20
718.1500000000669
 30
0.0
 11
-1361.849999999991
 21
718.1500000000669
 31
0.0
  0
LINE
  5
FD2
330
F76
100
AcDbEntity
  8
Visible (ISO)
100
AcDbLine
 10
-141.8499999999985
 20
751.8500000000667
 30
0.0
 11
-1361.849999999991
 21
751.8500000000667
 31
0.0
  0
LINE
  5
FD3
330
F76
100
AcDbEntity
  8
Visible (ISO)
100
AcDbLine
 10
4078.149999999994
 20
762.5000000000246
 30
0.0
 11
4078.149999999994
 21
772.5000000000191
 31
0.0
  0
LINE
  5
FD4
330
F76
100
AcDbEntity
  8
Visible (ISO)
100
AcDbLine
 10
4083.149999999994
 20
772.5000000000191
 30
0.0
 11
4078.149999999994
 21
772.5000000000191
 31
0.0
  0
LINE
  5
FD5
330
F76
100
AcDbEntity
  8
Visible (ISO)
100
AcDbLine
 10
4078.149999999994
 20
697.50000000002
 30
0.0
 11
4078.149999999994
 21
707.5000000000255
 31
0.0
  0
LINE
  5
FD6
330
F76
100
AcDbEntity
  8
Visible (ISO)
100
AcDbLine
 10
4078.149999999994
 20
697.5000000000191
 30
0.0
 11
4083.149999999994
 21
697.5000000000191
 31
0.0
  0
LINE
  5
FD7
330
F76
100
AcDbEntity
  8
Visible (ISO)
100
AcDbLine
 10
4078.149999999994
 20
762.5000000000236
 30
0.0
 11
4078.149999999994
 21
707.5000000000245
 31
0.0
  0
LINE
  5
FD8
330
F76
100
AcDbEntity
  8
Visible (ISO)
100
AcDbLine
 10
2695.649999999994
 20
2085.000000000079
 30
0.0
 11
2695.649999999994
 21
2080.000000000078
 31
0.0
  0
LINE
  5
FD9
330
F76
100
AcDbEntity
  8
Visible (ISO)
100
AcDbLine
 10
2705.650000000002
 20
2080.000000000082
 30
0.0
 11
2695.650000000002
 21
2080.000000000078
 31
0.0
  0
LINE
  5
FDA
330
F76
100
AcDbEntity
  8
Visible (ISO)
100
AcDbLine
 10
2770.650000000002
 20
2080.000000000078
 30
0.0
 11
2760.650000000002
 21
2080.000000000082
 31
0.0
  0
LINE
  5
FDB
330
F76
100
AcDbEntity
  8
Visible (ISO)
100
AcDbLine
 10
2770.650000000002
 20
2080.000000000078
 30
0.0
 11
2770.650000000002
 21
2085.000000000079
 31
0.0
  0
LINE
  5
FDC
330
F76
100
AcDbEntity
  8
Visible (ISO)
100
AcDbLine
 10
2705.650000000002
 20
2080.000000000082
 30
0.0
 11
2760.650000000002
 21
2080.000000000082
 31
0.0
  0
LINE
  5
FDD
330
F76
100
AcDbEntity
  8
Visible (ISO)
100
AcDbLine
 10
10.65000000000145
 20
-609.9999999999854
 30
0.0
 11
20.65000000000146
 21
-609.9999999999881
 31
0.0
  0
LINE
  5
FDE
330
F76
100
AcDbEntity
  8
Visible (ISO)
100
AcDbLine
 10
20.65000000000146
 20
-614.9999999999882
 30
0.0
 11
20.65000000000146
 21
-609.9999999999881
 31
0.0
  0
LINE
  5
FDF
330
F76
100
AcDbEntity
  8
Visible (ISO)
100
AcDbLine
 10
-54.34999999999854
 20
-609.9999999999881
 30
0.0
 11
-44.34999999999854
 21
-609.9999999999854
 31
0.0
  0
LINE
  5
FE0
330
F76
100
AcDbEntity
  8
Visible (ISO)
100
AcDbLine
 10
-54.35000000000582
 20
-609.9999999999881
 30
0.0
 11
-54.35000000000582
 21
-614.9999999999882
 31
0.0
  0
LINE
  5
FE1
330
F76
100
AcDbEntity
  8
Visible (ISO)
100
AcDbLine
 10
10.65000000000145
 20
-609.9999999999854
 30
0.0
 11
-44.34999999999854
 21
-609.9999999999854
 31
0.0
  0
LINE
  5
FE2
330
F76
100
AcDbEntity
  8
Visible (ISO)
100
AcDbLine
 10
-1361.849999999998
 20
707.50000000007
 30
0.0
 11
-1361.849999999998
 21
697.50000000007
 31
0.0
  0
LINE
  5
FE3
330
F76
100
AcDbEntity
  8
Visible (ISO)
100
AcDbLine
 10
-1366.849999999998
 20
697.5000000000691
 30
0.0
 11
-1361.849999999998
 21
697.5000000000691
 31
0.0
  0
LINE
  5
FE4
330
F76
100
AcDbEntity
  8
Visible (ISO)
100
AcDbLine
 10
-1361.849999999998
 20
772.5000000000691
 30
0.0
 11
-1361.849999999998
 21
762.50000000007
 31
0.0
  0
LINE
  5
FE5
330
F76
100
AcDbEntity
  8
Visible (ISO)
100
AcDbLine
 10
-1361.849999999998
 20
772.5000000000691
 30
0.0
 11
-1366.849999999998
 21
772.5000000000691
 31
0.0
  0
LINE
  5
FE6
330
F76
100
AcDbEntity
  8
Visible (ISO)
100
AcDbLine
 10
-1361.849999999998
 20
707.5000000000691
 30
0.0
 11
-1361.849999999998
 21
762.50000000007
 31
0.0
  0
LINE
  5
FE7
330
F76
100
AcDbEntity
  8
Visible (ISO)
100
AcDbLine
 10
4105.650000000001
 20
2080.000000000024
 30
0.0
 11
4095.650000000001
 21
2080.00000000002
 31
0.0
  0
LINE
  5
FE8
330
F76
100
AcDbEntity
  8
Visible (ISO)
100
AcDbLine
 10
4095.649999999994
 20
2085.00000000002
 30
0.0
 11
4095.649999999994
 21
2080.00000000002
 31
0.0
  0
LINE
  5
FE9
330
F76
100
AcDbEntity
  8
Visible (ISO)
100
AcDbLine
 10
4170.649999999993
 20
2080.00000000002
 30
0.0
 11
4160.649999999994
 21
2080.000000000024
 31
0.0
  0
LINE
  5
FEA
330
F76
100
AcDbEntity
  8
Visible (ISO)
100
AcDbLine
 10
4170.649999999993
 20
2080.00000000002
 30
0.0
 11
4170.649999999993
 21
2085.00000000002
 31
0.0
  0
LINE
  5
FEB
330
F76
100
AcDbEntity
  8
Visible (ISO)
100
AcDbLine
 10
4105.650000000001
 20
2080.000000000024
 30
0.0
 11
4160.649999999994
 21
2080.000000000024
 31
0.0
  0
LINE
  5
FEC
330
F76
100
AcDbEntity
  8
Visible (ISO)
100
AcDbLine
 10
4160.649999999994
 20
790.0000000000209
 30
0.0
 11
4170.649999999993
 21
790.0000000000182
 31
0.0
  0
LINE
  5
FED
330
F76
100
AcDbEntity
  8
Visible (ISO)
100
AcDbLine
 10
4170.649999999993
 20
785.0000000000181
 30
0.0
 11
4170.649999999993
 21
790.0000000000182
 31
0.0
  0
LINE
  5
FEE
330
F76
100
AcDbEntity
  8
Visible (ISO)
100
AcDbLine
 10
4095.650000000001
 20
790.0000000000182
 30
0.0
 11
4105.650000000001
 21
790.0000000000209
 31
0.0
  0
LINE
  5
FEF
330
F76
100
AcDbEntity
  8
Visible (ISO)
100
AcDbLine
 10
4095.649999999994
 20
790.0000000000182
 30
0.0
 11
4095.649999999994
 21
785.0000000000181
 31
0.0
  0
LINE
  5
FF0
330
F76
100
AcDbEntity
  8
Visible (ISO)
100
AcDbLine
 10
4160.649999999994
 20
790.0000000000209
 30
0.0
 11
4105.650000000001
 21
790.0000000000209
 31
0.0
  0
LINE
  5
FF1
330
F76
100
AcDbEntity
  8
Visible (ISO)
100
AcDbLine
 10
-1444.349999999998
 20
680.0000000001318
 30
0.0
 11
-1454.349999999998
 21
680.0000000001291
 31
0.0
  0
LINE
  5
FF2
330
F76
100
AcDbEntity
  8
Visible (ISO)
100
AcDbLine
 10
-1454.349999999998
 20
685.0000000001291
 30
0.0
 11
-1454.349999999998
 21
680.0000000001291
 31
0.0
  0
LINE
  5
FF3
330
F76
100
AcDbEntity
  8
Visible (ISO)
100
AcDbLine
 10
-1379.349999999991
 20
680.0000000001291
 30
0.0
 11
-1389.349999999991
 21
680.0000000001318
 31
0.0
  0
LINE
  5
FF4
330
F76
100
AcDbEntity
  8
Visible (ISO)
100
AcDbLine
 10
-1379.349999999991
 20
680.0000000001291
 30
0.0
 11
-1379.349999999991
 21
685.0000000001291
 31
0.0
  0
LINE
  5
FF5
330
F76
100
AcDbEntity
  8
Visible (ISO)
100
AcDbLine
 10
-1444.349999999991
 20
680.0000000001318
 30
0.0
 11
-1389.349999999991
 21
680.0000000001318
 31
0.0
  0
LINE
  5
FF6
330
F76
100
AcDbEntity
  8
Visible (ISO)
100
AcDbLine
 10
-1389.349999999991
 20
-609.9999999998681
 30
0.0
 11
-1379.349999999991
 21
-609.9999999998708
 31
0.0
  0
LINE
  5
FF7
330
F76
100
AcDbEntity
  8
Visible (ISO)
100
AcDbLine
 10
-1379.349999999991
 20
-614.9999999998708
 30
0.0
 11
-1379.349999999991
 21
-609.9999999998708
 31
0.0
  0
LINE
  5
FF8
330
F76
100
AcDbEntity
  8
Visible (ISO)
100
AcDbLine
 10
-1454.349999999998
 20
-609.9999999998708
 30
0.0
 11
-1444.349999999998
 21
-609.9999999998681
 31
0.0
  0
LINE
  5
FF9
330
F76
100
AcDbEntity
  8
Visible (ISO)
100
AcDbLine
 10
-1454.349999999998
 20
-609.9999999998708
 30
0.0
 11
-1454.349999999998
 21
-614.9999999998708
 31
0.0
  0
LINE
  5
FFA
330
F76
100
AcDbEntity
  8
Visible (ISO)
100
AcDbLine
 10
-1389.349999999991
 20
-609.9999999998681
 30
0.0
 11
-1444.349999999991
 21
-609.9999999998681
 31
0.0
  0
LINE
  5
FFB
330
F76
100
AcDbEntity
  8
Visible (ISO)
100
AcDbLine
 10
-71.84999999999127
 20
-637.4999999997871
 30
0.0
 11
-71.84999999999127
 21
-627.4999999997898
 31
0.0
  0
LINE
  5
FFC
330
F76
100
AcDbEntity
  8
Visible (ISO)
100
AcDbLine
 10
-66.84999999999854
 20
-627.4999999997898
 30
0.0
 11
-71.84999999999127
 21
-627.4999999997898
 31
0.0
  0
LINE
  5
FFD
330
F76
100
AcDbEntity
  8
Visible (ISO)
100
AcDbLine
 10
-71.84999999999127
 20
-702.499999999789
 30
0.0
 11
-71.84999999999127
 21
-692.4999999997871
 31
0.0
  0
LINE
  5
FFE
330
F76
100
AcDbEntity
  8
Visible (ISO)
100
AcDbLine
 10
-71.84999999999127
 20
-702.499999999789
 30
0.0
 11
-66.84999999999854
 21
-702.499999999789
 31
0.0
  0
LINE
  5
FFF
330
F76
100
AcDbEntity
  8
Visible (ISO)
100
AcDbLine
 10
-71.84999999999127
 20
-637.4999999997871
 30
0.0
 11
-71.84999999999127
 21
-692.4999999997871
 31
0.0
  0
LINE
  5
1000
330
F76
100
AcDbEntity
  8
Visible (ISO)
100
AcDbLine
 10
-1361.849999999991
 20
-692.4999999997871
 30
0.0
 11
-1361.849999999991
 21
-702.499999999789
 31
0.0
  0
LINE
  5
1001
330
F76
100
AcDbEntity
  8
Visible (ISO)
100
AcDbLine
 10
-1366.849999999991
 20
-702.499999999789
 30
0.0
 11
-1361.849999999991
 21
-702.499999999789
 31
0.0
  0
LINE
  5
1002
330
F76
100
AcDbEntity
  8
Visible (ISO)
100
AcDbLine
 10
-1361.849999999991
 20
-627.4999999997898
 30
0.0
 11
-1361.849999999991
 21
-637.4999999997871
 31
0.0
  0
LINE
  5
1003
330
F76
100
AcDbEntity
  8
Visible (ISO)
100
AcDbLine
 10
-1361.849999999991
 20
-627.4999999997898
 30
0.0
 11
-1366.849999999991
 21
-627.4999999997898
 31
0.0
  0
LINE
  5
1004
330
F76
100
AcDbEntity
  8
Visible (ISO)
100
AcDbLine
 10
-1361.849999999991
 20
-692.4999999997871
 30
0.0
 11
-1361.849999999991
 21
-637.4999999997871
 31
0.0
  0
LINE
  5
1005
330
F76
100
AcDbEntity
  8
Visible (ISO)
100
AcDbLine
 10
-4244.350000000024
 20
680.0000000001473
 30
0.0
 11
-4254.350000000024
 21
680.0000000001446
 31
0.0
  0
LINE
  5
1006
330
F76
100
AcDbEntity
  8
Visible (ISO)
100
AcDbLine
 10
-4254.35000000002
 20
685.0000000001436
 30
0.0
 11
-4254.35000000002
 21
680.0000000001446
 31
0.0
  0
LINE
  5
1007
330
F76
100
AcDbEntity
  8
Visible (ISO)
100
AcDbLine
 10
-4179.35000000002
 20
680.0000000001446
 30
0.0
 11
-4189.350000000024
 21
680.0000000001473
 31
0.0
  0
LINE
  5
1008
330
F76
100
AcDbEntity
  8
Visible (ISO)
100
AcDbLine
 10
-4179.35000000002
 20
680.0000000001446
 30
0.0
 11
-4179.35000000002
 21
685.0000000001436
 31
0.0
  0
LINE
  5
1009
330
F76
100
AcDbEntity
  8
Visible (ISO)
100
AcDbLine
 10
-4244.350000000024
 20
680.0000000001473
 30
0.0
 11
-4189.350000000024
 21
680.0000000001473
 31
0.0
  0
LINE
  5
100A
330
F76
100
AcDbEntity
  8
Visible (ISO)
100
AcDbLine
 10
-4189.350000000024
 20
-609.9999999998535
 30
0.0
 11
-4179.35000000002
 21
-609.9999999998553
 31
0.0
  0
LINE
  5
100B
330
F76
100
AcDbEntity
  8
Visible (ISO)
100
AcDbLine
 10
-4179.35000000002
 20
-614.9999999998554
 30
0.0
 11
-4179.35000000002
 21
-609.9999999998553
 31
0.0
  0
LINE
  5
100C
330
F76
100
AcDbEntity
  8
Visible (ISO)
100
AcDbLine
 10
-4254.350000000024
 20
-609.9999999998553
 30
0.0
 11
-4244.350000000024
 21
-609.9999999998535
 31
0.0
  0
LINE
  5
100D
330
F76
100
AcDbEntity
  8
Visible (ISO)
100
AcDbLine
 10
-4254.35000000002
 20
-609.9999999998553
 30
0.0
 11
-4254.35000000002
 21
-614.9999999998554
 31
0.0
  0
LINE
  5
100E
330
F76
100
AcDbEntity
  8
Visible (ISO)
100
AcDbLine
 10
-4189.350000000024
 20
-609.9999999998535
 30
0.0
 11
-4244.350000000024
 21
-609.9999999998535
 31
0.0
  0
LINE
  5
100F
330
F76
100
AcDbEntity
  8
Visible (ISO)
100
AcDbLine
 10
4078.149999999994
 20
2162.500000000088
 30
0.0
 11
4078.149999999994
 21
2172.500000000082
 31
0.0
  0
LINE
  5
1010
330
F76
100
AcDbEntity
  8
Visible (ISO)
100
AcDbLine
 10
4083.149999999994
 20
2172.500000000084
 30
0.0
 11
4078.149999999994
 21
2172.500000000084
 31
0.0
  0
LINE
  5
1011
330
F76
100
AcDbEntity
  8
Visible (ISO)
100
AcDbLine
 10
4078.149999999994
 20
2097.500000000084
 30
0.0
 11
4078.149999999994
 21
2107.500000000087
 31
0.0
  0
LINE
  5
1012
330
F76
100
AcDbEntity
  8
Visible (ISO)
100
AcDbLine
 10
4078.149999999994
 20
2097.500000000084
 30
0.0
 11
4083.149999999994
 21
2097.500000000084
 31
0.0
  0
LINE
  5
1013
330
F76
100
AcDbEntity
  8
Visible (ISO)
100
AcDbLine
 10
4078.149999999994
 20
2162.500000000088
 30
0.0
 11
4078.149999999994
 21
2107.500000000087
 31
0.0
  0
LINE
  5
1014
330
F76
100
AcDbEntity
  8
Visible (ISO)
100
AcDbLine
 10
2788.149999999995
 20
2107.500000000087
 30
0.0
 11
2788.149999999995
 21
2097.500000000084
 31
0.0
  0
LINE
  5
1015
330
F76
100
AcDbEntity
  8
Visible (ISO)
100
AcDbLine
 10
2783.150000000002
 20
2097.500000000084
 30
0.0
 11
2788.149999999995
 21
2097.500000000084
 31
0.0
  0
LINE
  5
1016
330
F76
100
AcDbEntity
  8
Visible (ISO)
100
AcDbLine
 10
2788.149999999995
 20
2172.500000000082
 30
0.0
 11
2788.149999999995
 21
2162.500000000088
 31
0.0
  0
LINE
  5
1017
330
F76
100
AcDbEntity
  8
Visible (ISO)
100
AcDbLine
 10
2788.149999999995
 20
2172.500000000082
 30
0.0
 11
2783.150000000002
 21
2172.500000000082
 31
0.0
  0
LINE
  5
1018
330
F76
100
AcDbEntity
  8
Visible (ISO)
100
AcDbLine
 10
2788.149999999995
 20
2107.500000000087
 30
0.0
 11
2788.149999999995
 21
2162.500000000088
 31
0.0
  0
LINE
  5
1019
330
F76
100
AcDbEntity
  8
Visible (ISO)
100
AcDbLine
 10
5378.150000000001
 20
2162.499999999909
 30
0.0
 11
5378.150000000001
 21
2172.499999999905
 31
0.0
  0
LINE
  5
101A
330
F76
100
AcDbEntity
  8
Visible (ISO)
100
AcDbLine
 10
5383.149999999994
 20
2172.499999999907
 30
0.0
 11
5378.150000000001
 21
2172.499999999907
 31
0.0
  0
LINE
  5
101B
330
F76
100
AcDbEntity
  8
Visible (ISO)
100
AcDbLine
 10
5378.150000000001
 20
2097.499999999905
 30
0.0
 11
5378.150000000001
 21
2107.499999999909
 31
0.0
  0
LINE
  5
101C
330
F76
100
AcDbEntity
  8
Visible (ISO)
100
AcDbLine
 10
5378.150000000001
 20
2097.499999999905
 30
0.0
 11
5383.149999999994
 21
2097.499999999905
 31
0.0
  0
LINE
  5
101D
330
F76
100
AcDbEntity
  8
Visible (ISO)
100
AcDbLine
 10
5378.150000000001
 20
2162.499999999909
 30
0.0
 11
5378.150000000001
 21
2107.499999999909
 31
0.0
  0
LINE
  5
101E
330
F76
100
AcDbEntity
  8
Visible (ISO)
100
AcDbLine
 10
4188.149999999994
 20
2107.499999999909
 30
0.0
 11
4188.149999999994
 21
2097.499999999905
 31
0.0
  0
LINE
  5
101F
330
F76
100
AcDbEntity
  8
Visible (ISO)
100
AcDbLine
 10
4183.150000000001
 20
2097.499999999905
 30
0.0
 11
4188.149999999994
 21
2097.499999999905
 31
0.0
  0
LINE
  5
1020
330
F76
100
AcDbEntity
  8
Visible (ISO)
100
AcDbLine
 10
4188.149999999994
 20
2172.499999999905
 30
0.0
 11
4188.149999999994
 21
2162.499999999909
 31
0.0
  0
LINE
  5
1021
330
F76
100
AcDbEntity
  8
Visible (ISO)
100
AcDbLine
 10
4188.149999999994
 20
2172.499999999907
 30
0.0
 11
4183.150000000001
 21
2172.499999999907
 31
0.0
  0
LINE
  5
1022
330
F76
100
AcDbEntity
  8
Visible (ISO)
100
AcDbLine
 10
4188.149999999994
 20
2107.499999999909
 30
0.0
 11
4188.149999999994
 21
2162.499999999909
 31
0.0
  0
ARC
  5
1023
330
F76
100
AcDbEntity
  8
Visible (ISO)
100
AcDbCircle
 10
-1463.849999999991
 20
782.0000000001373
 30
0.0
 40
3.000000000000007
100
AcDbArc
 50
90.0
 51
180.0
  0
ARC
  5
1024
330
F76
100
AcDbEntity
  8
Visible (ISO)
100
AcDbCircle
 10
-1369.849999999998
 20
782.0000000001373
 30
0.0
 40
3.000000000000007
100
AcDbArc
 50
0.0
 51
90.0
  0
LINE
  5
1025
330
F76
100
AcDbEntity
  8
Visible (ISO)
100
AcDbLine
 10
-1369.849999999998
 20
785.0000000001373
 30
0.0
 11
-1463.849999999991
 21
785.0000000001373
 31
0.0
  0
ARC
  5
1026
330
F76
100
AcDbEntity
  8
Visible (ISO)
100
AcDbCircle
 10
-1463.849999999991
 20
688.0000000001373
 30
0.0
 40
2.999999999999989
100
AcDbArc
 50
180.0
 51
270.0
  0
ARC
  5
1027
330
F76
100
AcDbEntity
  8
Visible (ISO)
100
AcDbCircle
 10
-1369.849999999998
 20
688.0000000001373
 30
0.0
 40
3.000000000000007
100
AcDbArc
 50
270.0
 51
0.0
  0
LINE
  5
1028
330
F76
100
AcDbEntity
  8
Visible (ISO)
100
AcDbLine
 10
-1366.849999999998
 20
688.0000000001373
 30
0.0
 11
-1366.849999999998
 21
782.0000000001373
 31
0.0
  0
LINE
  5
1029
330
F76
100
AcDbEntity
  8
Visible (ISO)
100
AcDbLine
 10
-1463.849999999991
 20
685.0000000001373
 30
0.0
 11
-1369.849999999998
 21
685.0000000001373
 31
0.0
  0
LINE
  5
102A
330
F76
100
AcDbEntity
  8
Visible (ISO)
100
AcDbLine
 10
-1466.849999999991
 20
782.0000000001373
 30
0.0
 11
-1466.849999999991
 21
688.0000000001373
 31
0.0
  0
ARC
  5
102B
330
F76
100
AcDbEntity
  8
Visible (ISO)
100
AcDbCircle
 10
2780.149999999995
 20
2182.000000000091
 30
0.0
 40
3.000000000000011
100
AcDbArc
 50
0.0
 51
90.0
  0
ARC
  5
102C
330
F76
100
AcDbEntity
  8
Visible (ISO)
100
AcDbCircle
 10
2780.149999999995
 20
2088.000000000091
 30
0.0
 40
3.000000000000011
100
AcDbArc
 50
270.0
 51
0.0
  0
LINE
  5
102D
330
F76
100
AcDbEntity
  8
Visible (ISO)
100
AcDbLine
 10
2783.149999999994
 20
2088.000000000091
 30
0.0
 11
2783.149999999994
 21
2182.000000000091
 31
0.0
  0
ARC
  5
102E
330
F76
100
AcDbEntity
  8
Visible (ISO)
100
AcDbCircle
 10
2686.150000000001
 20
2182.000000000091
 30
0.0
 40
2.999999999999993
100
AcDbArc
 50
90.0
 51
180.0
  0
ARC
  5
102F
330
F76
100
AcDbEntity
  8
Visible (ISO)
100
AcDbCircle
 10
2686.150000000001
 20
2088.000000000091
 30
0.0
 40
3.000000000000011
100
AcDbArc
 50
180.0
 51
270.0
  0
LINE
  5
1030
330
F76
100
AcDbEntity
  8
Visible (ISO)
100
AcDbLine
 10
2686.150000000001
 20
2085.000000000091
 30
0.0
 11
2780.149999999995
 21
2085.000000000091
 31
0.0
  0
LINE
  5
1031
330
F76
100
AcDbEntity
  8
Visible (ISO)
100
AcDbLine
 10
2683.150000000002
 20
2182.000000000091
 30
0.0
 11
2683.150000000002
 21
2088.000000000091
 31
0.0
  0
LINE
  5
1032
330
F76
100
AcDbEntity
  8
Visible (ISO)
100
AcDbLine
 10
2780.149999999995
 20
2185.000000000091
 30
0.0
 11
2686.150000000001
 21
2185.000000000091
 31
0.0
  0
ARC
  5
1033
330
F76
100
AcDbEntity
  8
Visible (ISO)
100
AcDbCircle
 10
4180.149999999994
 20
782.0000000000281
 30
0.0
 40
3.00000000000001
100
AcDbArc
 50
0.0
 51
90.0
  0
ARC
  5
1034
330
F76
100
AcDbEntity
  8
Visible (ISO)
100
AcDbCircle
 10
4180.149999999994
 20
688.0000000000282
 30
0.0
 40
3.00000000000001
100
AcDbArc
 50
270.0
 51
0.0
  0
LINE
  5
1035
330
F76
100
AcDbEntity
  8
Visible (ISO)
100
AcDbLine
 10
4183.149999999994
 20
688.0000000000282
 30
0.0
 11
4183.149999999994
 21
782.0000000000281
 31
0.0
  0
ARC
  5
1036
330
F76
100
AcDbEntity
  8
Visible (ISO)
100
AcDbCircle
 10
4086.150000000001
 20
782.0000000000281
 30
0.0
 40
2.999999999999992
100
AcDbArc
 50
90.0
 51
180.0
  0
ARC
  5
1037
330
F76
100
AcDbEntity
  8
Visible (ISO)
100
AcDbCircle
 10
4086.150000000001
 20
688.0000000000282
 30
0.0
 40
3.00000000000001
100
AcDbArc
 50
180.0
 51
270.0
  0
LINE
  5
1038
330
F76
100
AcDbEntity
  8
Visible (ISO)
100
AcDbLine
 10
4086.150000000001
 20
685.000000000029
 30
0.0
 11
4180.149999999994
 21
685.000000000029
 31
0.0
  0
LINE
  5
1039
330
F76
100
AcDbEntity
  8
Visible (ISO)
100
AcDbLine
 10
4083.150000000001
 20
782.0000000000281
 30
0.0
 11
4083.150000000001
 21
688.0000000000282
 31
0.0
  0
LINE
  5
103A
330
F76
100
AcDbEntity
  8
Visible (ISO)
100
AcDbLine
 10
4180.149999999994
 20
785.0000000000282
 30
0.0
 11
4086.150000000001
 21
785.0000000000282
 31
0.0
  0
ARC
  5
103B
330
F76
100
AcDbEntity
  8
Visible (ISO)
100
AcDbCircle
 10
-1369.849999999998
 20
-617.9999999997598
 30
0.0
 40
3.000000000000007
100
AcDbArc
 50
0.0
 51
90.0
  0
ARC
  5
103C
330
F76
100
AcDbEntity
  8
Visible (ISO)
100
AcDbCircle
 10
-1369.849999999998
 20
-711.9999999997599
 30
0.0
 40
3.000000000000007
100
AcDbArc
 50
270.0
 51
0.0
  0
LINE
  5
103D
330
F76
100
AcDbEntity
  8
Visible (ISO)
100
AcDbLine
 10
-1366.849999999998
 20
-711.9999999997599
 30
0.0
 11
-1366.849999999998
 21
-617.9999999997598
 31
0.0
  0
ARC
  5
103E
330
F76
100
AcDbEntity
  8
Visible (ISO)
100
AcDbCircle
 10
-1463.849999999991
 20
-617.9999999997598
 30
0.0
 40
2.999999999999989
100
AcDbArc
 50
90.0
 51
180.0
  0
ARC
  5
103F
330
F76
100
AcDbEntity
  8
Visible (ISO)
100
AcDbCircle
 10
-1463.849999999991
 20
-711.9999999997599
 30
0.0
 40
3.000000000000007
100
AcDbArc
 50
180.0
 51
270.0
  0
LINE
  5
1040
330
F76
100
AcDbEntity
  8
Visible (ISO)
100
AcDbLine
 10
-1463.849999999991
 20
-714.9999999997598
 30
0.0
 11
-1369.849999999998
 21
-714.9999999997598
 31
0.0
  0
LINE
  5
1041
330
F76
100
AcDbEntity
  8
Visible (ISO)
100
AcDbLine
 10
-1466.849999999991
 20
-617.9999999997598
 30
0.0
 11
-1466.849999999991
 21
-711.9999999997599
 31
0.0
  0
LINE
  5
1042
330
F76
100
AcDbEntity
  8
Visible (ISO)
100
AcDbLine
 10
-1369.849999999998
 20
-614.9999999997598
 30
0.0
 11
-1463.849999999991
 21
-614.9999999997598
 31
0.0
  0
ARC
  5
1043
330
F76
100
AcDbEntity
  8
Visible (ISO)
100
AcDbCircle
 10
30.15000000000873
 20
-617.9999999997817
 30
0.0
 40
3.000000000000006
100
AcDbArc
 50
0.0
 51
90.0
  0
ARC
  5
1044
330
F76
100
AcDbEntity
  8
Visible (ISO)
100
AcDbCircle
 10
30.15000000000873
 20
-711.9999999997826
 30
0.0
 40
3.000000000000006
100
AcDbArc
 50
270.0
 51
0.0
  0
LINE
  5
1045
330
F76
100
AcDbEntity
  8
Visible (ISO)
100
AcDbLine
 10
33.15000000000873
 20
-711.9999999997816
 30
0.0
 11
33.15000000000873
 21
-617.9999999997817
 31
0.0
  0
ARC
  5
1046
330
F76
100
AcDbEntity
  8
Visible (ISO)
100
AcDbCircle
 10
-63.84999999998399
 20
-617.9999999997817
 30
0.0
 40
2.999999999999988
100
AcDbArc
 50
90.0
 51
180.0
  0
ARC
  5
1047
330
F76
100
AcDbEntity
  8
Visible (ISO)
100
AcDbCircle
 10
-63.84999999998399
 20
-711.9999999997826
 30
0.0
 40
3.000000000000006
100
AcDbArc
 50
180.0
 51
270.0
  0
LINE
  5
1048
330
F76
100
AcDbEntity
  8
Visible (ISO)
100
AcDbLine
 10
-63.84999999998399
 20
-714.9999999997826
 30
0.0
 11
30.15000000000873
 21
-714.9999999997826
 31
0.0
  0
LINE
  5
1049
330
F76
100
AcDbEntity
  8
Visible (ISO)
100
AcDbLine
 10
-66.84999999998399
 20
-617.9999999997817
 30
0.0
 11
-66.84999999998399
 21
-711.9999999997826
 31
0.0
  0
LINE
  5
104A
330
F76
100
AcDbEntity
  8
Visible (ISO)
100
AcDbLine
 10
30.15000000000873
 20
-614.9999999997817
 30
0.0
 11
-63.84999999998399
 21
-614.9999999997817
 31
0.0
  0
ARC
  5
104B
330
F76
100
AcDbEntity
  8
Visible (ISO)
100
AcDbCircle
 10
-4263.850000000021
 20
-711.9999999998472
 30
0.0
 40
3.000000000000006
100
AcDbArc
 50
180.0
 51
270.0
  0
ARC
  5
104C
330
F76
100
AcDbEntity
  8
Visible (ISO)
100
AcDbCircle
 10
-4263.850000000021
 20
-617.9999999998472
 30
0.0
 40
3.000000000000006
100
AcDbArc
 50
90.0
 51
180.0
  0
LINE
  5
104D
330
F76
100
AcDbEntity
  8
Visible (ISO)
100
AcDbLine
 10
-4266.850000000021
 20
-617.9999999998472
 30
0.0
 11
-4266.850000000021
 21
-711.9999999998472
 31
0.0
  0
ARC
  5
104E
330
F76
100
AcDbEntity
  8
Visible (ISO)
100
AcDbCircle
 10
-4169.85000000002
 20
-711.9999999998472
 30
0.0
 40
2.999999999999988
100
AcDbArc
 50
270.0
 51
0.0
  0
ARC
  5
104F
330
F76
100
AcDbEntity
  8
Visible (ISO)
100
AcDbCircle
 10
-4169.85000000002
 20
-617.9999999998472
 30
0.0
 40
3.000000000000006
100
AcDbArc
 50
0.0
 51
90.0
  0
LINE
  5
1050
330
F76
100
AcDbEntity
  8
Visible (ISO)
100
AcDbLine
 10
-4169.85000000002
 20
-614.9999999998471
 30
0.0
 11
-4263.850000000021
 21
-614.9999999998471
 31
0.0
  0
LINE
  5
1051
330
F76
100
AcDbEntity
  8
Visible (ISO)
100
AcDbLine
 10
-4166.85000000002
 20
-711.9999999998472
 30
0.0
 11
-4166.85000000002
 21
-617.9999999998472
 31
0.0
  0
LINE
  5
1052
330
F76
100
AcDbEntity
  8
Visible (ISO)
100
AcDbLine
 10
-4263.850000000021
 20
-714.9999999998471
 30
0.0
 11
-4169.85000000002
 21
-714.9999999998471
 31
0.0
  0
ARC
  5
1053
330
F76
100
AcDbEntity
  8
Visible (ISO)
100
AcDbCircle
 10
-4169.850000000027
 20
-1717.999999999845
 30
0.0
 40
3.000000000000006
100
AcDbArc
 50
0.0
 51
90.0
  0
ARC
  5
1054
330
F76
100
AcDbEntity
  8
Visible (ISO)
100
AcDbCircle
 10
-4169.850000000027
 20
-1811.999999999846
 30
0.0
 40
3.000000000000006
100
AcDbArc
 50
270.0
 51
0.0
  0
LINE
  5
1055
330
F76
100
AcDbEntity
  8
Visible (ISO)
100
AcDbLine
 10
-4166.850000000024
 20
-1811.999999999845
 30
0.0
 11
-4166.850000000024
 21
-1717.999999999845
 31
0.0
  0
ARC
  5
1056
330
F76
100
AcDbEntity
  8
Visible (ISO)
100
AcDbCircle
 10
-4263.850000000028
 20
-1717.999999999845
 30
0.0
 40
2.999999999999988
100
AcDbArc
 50
90.0
 51
180.0
  0
ARC
  5
1057
330
F76
100
AcDbEntity
  8
Visible (ISO)
100
AcDbCircle
 10
-4263.850000000028
 20
-1811.999999999846
 30
0.0
 40
3.000000000000006
100
AcDbArc
 50
180.0
 51
270.0
  0
LINE
  5
1058
330
F76
100
AcDbEntity
  8
Visible (ISO)
100
AcDbLine
 10
-4263.850000000028
 20
-1814.999999999846
 30
0.0
 11
-4169.850000000027
 21
-1814.999999999846
 31
0.0
  0
LINE
  5
1059
330
F76
100
AcDbEntity
  8
Visible (ISO)
100
AcDbLine
 10
-4266.850000000028
 20
-1717.999999999845
 30
0.0
 11
-4266.850000000028
 21
-1811.999999999846
 31
0.0
  0
LINE
  5
105A
330
F76
100
AcDbEntity
  8
Visible (ISO)
100
AcDbLine
 10
-4169.850000000027
 20
-1714.999999999845
 30
0.0
 11
-4263.850000000028
 21
-1714.999999999845
 31
0.0
  0
ARC
  5
105B
330
F76
100
AcDbEntity
  8
Visible (ISO)
100
AcDbCircle
 10
4180.149999999994
 20
2088.000000000093
 30
0.0
 40
3.000000000000011
100
AcDbArc
 50
270.0
 51
0.0
  0
ARC
  5
105C
330
F76
100
AcDbEntity
  8
Visible (ISO)
100
AcDbCircle
 10
4086.150000000001
 20
2088.000000000093
 30
0.0
 40
3.000000000000011
100
AcDbArc
 50
180.0
 51
270.0
  0
LINE
  5
105D
330
F76
100
AcDbEntity
  8
Visible (ISO)
100
AcDbLine
 10
4086.150000000001
 20
2085.000000000093
 30
0.0
 11
4180.149999999994
 21
2085.000000000093
 31
0.0
  0
ARC
  5
105E
330
F76
100
AcDbEntity
  8
Visible (ISO)
100
AcDbCircle
 10
4180.149999999994
 20
2182.000000000093
 30
0.0
 40
2.999999999999993
100
AcDbArc
 50
0.0
 51
90.0
  0
ARC
  5
105F
330
F76
100
AcDbEntity
  8
Visible (ISO)
100
AcDbCircle
 10
4086.150000000001
 20
2182.000000000093
 30
0.0
 40
3.000000000000011
100
AcDbArc
 50
90.0
 51
180.0
  0
LINE
  5
1060
330
F76
100
AcDbEntity
  8
Visible (ISO)
100
AcDbLine
 10
4083.150000000001
 20
2182.000000000093
 30
0.0
 11
4083.150000000001
 21
2088.000000000093
 31
0.0
  0
LINE
  5
1061
330
F76
100
AcDbEntity
  8
Visible (ISO)
100
AcDbLine
 10
4180.149999999994
 20
2185.000000000093
 30
0.0
 11
4086.150000000001
 21
2185.000000000093
 31
0.0
  0
LINE
  5
1062
330
F76
100
AcDbEntity
  8
Visible (ISO)
100
AcDbLine
 10
4183.149999999994
 20
2088.000000000093
 30
0.0
 11
4183.149999999994
 21
2182.000000000093
 31
0.0
  0
ARC
  5
1063
330
F76
100
AcDbEntity
  8
Visible (ISO)
100
AcDbCircle
 10
5480.149999999994
 20
2181.999999999915
 30
0.0
 40
3.000000000000003
100
AcDbArc
 50
0.0
 51
90.0
  0
ARC
  5
1064
330
F76
100
AcDbEntity
  8
Visible (ISO)
100
AcDbCircle
 10
5480.149999999994
 20
2087.999999999917
 30
0.0
 40
3.000000000000003
100
AcDbArc
 50
270.0
 51
0.0
  0
LINE
  5
1065
330
F76
100
AcDbEntity
  8
Visible (ISO)
100
AcDbLine
 10
5483.149999999994
 20
2087.999999999917
 30
0.0
 11
5483.149999999994
 21
2181.999999999915
 31
0.0
  0
ARC
  5
1066
330
F76
100
AcDbEntity
  8
Visible (ISO)
100
AcDbCircle
 10
5386.150000000001
 20
2181.999999999915
 30
0.0
 40
2.999999999999985
100
AcDbArc
 50
90.0
 51
180.0
  0
ARC
  5
1067
330
F76
100
AcDbEntity
  8
Visible (ISO)
100
AcDbCircle
 10
5386.150000000001
 20
2087.999999999917
 30
0.0
 40
3.000000000000003
100
AcDbArc
 50
180.0
 51
270.0
  0
LINE
  5
1068
330
F76
100
AcDbEntity
  8
Visible (ISO)
100
AcDbLine
 10
5386.150000000001
 20
2084.999999999915
 30
0.0
 11
5480.149999999994
 21
2084.999999999915
 31
0.0
  0
LINE
  5
1069
330
F76
100
AcDbEntity
  8
Visible (ISO)
100
AcDbLine
 10
5383.150000000001
 20
2181.999999999915
 30
0.0
 11
5383.150000000001
 21
2087.999999999917
 31
0.0
  0
LINE
  5
106A
330
F76
100
AcDbEntity
  8
Visible (ISO)
100
AcDbLine
 10
5480.149999999994
 20
2184.999999999915
 30
0.0
 11
5386.150000000001
 21
2184.999999999915
 31
0.0
  0
LINE
  5
106B
330
F76
100
AcDbEntity
  8
Visible (ISO)
100
AcDbLine
 10
4149.999999999993
 20
2080.000000000007
 30
0.0
 11
4149.999999999993
 21
790.0000000000082
 31
0.0
  0
LINE
  5
106C
330
F76
100
AcDbEntity
  8
Visible (ISO)
100
AcDbLine
 10
4116.299999999995
 20
2080.000000000007
 30
0.0
 11
4116.299999999995
 21
790.0000000000082
 31
0.0
  0
LINE
  5
106D
330
F76
100
AcDbEntity
  8
Visible (ISO)
100
AcDbLine
 10
-1399.999999999993
 20
680.0000000001182
 30
0.0
 11
-1399.999999999993
 21
-609.9999999998827
 31
0.0
  0
LINE
  5
106E
330
F76
100
AcDbEntity
  8
Visible (ISO)
100
AcDbLine
 10
-1433.69999999999
 20
680.0000000001182
 30
0.0
 11
-1433.69999999999
 21
-609.9999999998827
 31
0.0
  0
LINE
  5
106F
330
F76
100
AcDbEntity
  8
Visible (ISO)
100
AcDbLine
 10
-71.84999999999127
 20
-681.8499999998011
 30
0.0
 11
-1361.849999999984
 21
-681.8499999998021
 31
0.0
  0
LINE
  5
1070
330
F76
100
AcDbEntity
  8
Visible (ISO)
100
AcDbLine
 10
-71.84999999999127
 20
-648.1499999998013
 30
0.0
 11
-1361.849999999984
 21
-648.1499999998013
 31
0.0
  0
LINE
  5
1071
330
F76
100
AcDbEntity
  8
Visible (ISO)
100
AcDbLine
 10
-4200.000000000022
 20
680.0000000001327
 30
0.0
 11
-4200.000000000022
 21
-609.9999999998662
 31
0.0
  0
LINE
  5
1072
330
F76
100
AcDbEntity
  8
Visible (ISO)
100
AcDbLine
 10
-4233.700000000022
 20
680.0000000001327
 30
0.0
 11
-4233.700000000022
 21
-609.9999999998662
 31
0.0
  0
LINE
  5
1073
330
F76
100
AcDbEntity
  8
Visible (ISO)
100
AcDbLine
 10
4078.150000000001
 20
2118.150000000072
 30
0.0
 11
2788.149999999995
 21
2118.150000000072
 31
0.0
  0
LINE
  5
1074
330
F76
100
AcDbEntity
  8
Visible (ISO)
100
AcDbLine
 10
4078.150000000001
 20
2151.850000000071
 30
0.0
 11
2788.149999999995
 21
2151.850000000071
 31
0.0
  0
LINE
  5
1075
330
F76
100
AcDbEntity
  8
Visible (ISO)
100
AcDbLine
 10
-4161.850000000035
 20
754.0000000001182
 30
0.0
 11
-1471.849999999976
 21
754.0000000001173
 31
0.0
  0
LINE
  5
1076
330
F76
100
AcDbEntity
  8
Visible (ISO)
100
AcDbLine
 10
-4161.850000000035
 20
716.0000000001191
 30
0.0
 11
-3920.70000000003
 21
716.0000000001191
 31
0.0
  0
LINE
  5
1077
330
F76
100
AcDbEntity
  8
Visible (ISO)
100
AcDbLine
 10
-3887.000000000029
 20
716.0000000001191
 30
0.0
 11
-3640.70000000003
 21
716.0000000001191
 31
0.0
  0
LINE
  5
1078
330
F76
100
AcDbEntity
  8
Visible (ISO)
100
AcDbLine
 10
-3607.000000000029
 20
716.0000000001191
 30
0.0
 11
-3360.700000000023
 21
716.0000000001182
 31
0.0
  0
LINE
  5
1079
330
F76
100
AcDbEntity
  8
Visible (ISO)
100
AcDbLine
 10
-3327.000000000025
 20
716.0000000001182
 30
0.0
 11
-3080.700000000023
 21
716.0000000001182
 31
0.0
  0
LINE
  5
107A
330
F76
100
AcDbEntity
  8
Visible (ISO)
100
AcDbLine
 10
-3047.000000000022
 20
716.0000000001182
 30
0.0
 11
-2800.700000000019
 21
716.0000000001182
 31
0.0
  0
LINE
  5
107B
330
F76
100
AcDbEntity
  8
Visible (ISO)
100
AcDbLine
 10
-2767.000000000018
 20
716.0000000001182
 30
0.0
 11
-2520.700000000016
 21
716.0000000001182
 31
0.0
  0
LINE
  5
107C
330
F76
100
AcDbEntity
  8
Visible (ISO)
100
AcDbLine
 10
-2487.000000000018
 20
716.0000000001182
 30
0.0
 11
-1471.849999999976
 21
716.0000000001182
 31
0.0
  0
LINE
  5
107D
330
F76
100
AcDbEntity
  8
Visible (ISO)
100
AcDbLine
 10
-1466.849999999998
 20
772.5000000001273
 30
0.0
 11
-1471.849999999991
 21
772.5000000001273
 31
0.0
  0
LINE
  5
107E
330
F76
100
AcDbEntity
  8
Visible (ISO)
100
AcDbLine
 10
-1471.849999999991
 20
762.50000000013
 30
0.0
 11
-1471.849999999991
 21
772.5000000001273
 31
0.0
  0
LINE
  5
107F
330
F76
100
AcDbEntity
  8
Visible (ISO)
100
AcDbLine
 10
-1471.849999999991
 20
697.5000000001291
 30
0.0
 11
-1471.849999999991
 21
707.5000000001319
 31
0.0
  0
LINE
  5
1080
330
F76
100
AcDbEntity
  8
Visible (ISO)
100
AcDbLine
 10
-1471.849999999991
 20
697.5000000001291
 30
0.0
 11
-1466.849999999998
 21
697.5000000001291
 31
0.0
  0
LINE
  5
1081
330
F76
100
AcDbEntity
  8
Visible (ISO)
100
AcDbLine
 10
-1471.849999999991
 20
762.500000000131
 30
0.0
 11
-1471.849999999991
 21
707.5000000001319
 31
0.0
  0
LINE
  5
1082
330
F76
100
AcDbEntity
  8
Visible (ISO)
100
AcDbLine
 10
-4161.85000000002
 20
707.5000000001328
 30
0.0
 11
-4161.85000000002
 21
697.50000000013
 31
0.0
  0
LINE
  5
1083
330
F76
100
AcDbEntity
  8
Visible (ISO)
100
AcDbLine
 10
-4166.85000000002
 20
697.50000000013
 30
0.0
 11
-4161.85000000002
 21
697.50000000013
 31
0.0
  0
LINE
  5
1084
330
F76
100
AcDbEntity
  8
Visible (ISO)
100
AcDbLine
 10
-4161.85000000002
 20
772.5000000001282
 30
0.0
 11
-4161.85000000002
 21
762.500000000131
 31
0.0
  0
LINE
  5
1085
330
F76
100
AcDbEntity
  8
Visible (ISO)
100
AcDbLine
 10
-4161.85000000002
 20
772.5000000001291
 30
0.0
 11
-4166.85000000002
 21
772.5000000001291
 31
0.0
  0
LINE
  5
1086
330
F76
100
AcDbEntity
  8
Visible (ISO)
100
AcDbLine
 10
-4161.85000000002
 20
707.5000000001328
 30
0.0
 11
-4161.85000000002
 21
762.5000000001318
 31
0.0
  0
LINE
  5
1087
330
F76
100
AcDbEntity
  8
Visible (ISO)
100
AcDbLine
 10
-1471.850000000013
 20
-637.4999999998562
 30
0.0
 11
-1471.850000000013
 21
-627.499999999859
 31
0.0
  0
LINE
  5
1088
330
F76
100
AcDbEntity
  8
Visible (ISO)
100
AcDbLine
 10
-1466.85000000002
 20
-627.499999999859
 30
0.0
 11
-1471.850000000013
 21
-627.499999999859
 31
0.0
  0
LINE
  5
1089
330
F76
100
AcDbEntity
  8
Visible (ISO)
100
AcDbLine
 10
-1471.850000000013
 20
-702.4999999998581
 30
0.0
 11
-1471.850000000013
 21
-692.4999999998553
 31
0.0
  0
LINE
  5
108A
330
F76
100
AcDbEntity
  8
Visible (ISO)
100
AcDbLine
 10
-1471.850000000013
 20
-702.4999999998581
 30
0.0
 11
-1466.85000000002
 21
-702.4999999998581
 31
0.0
  0
LINE
  5
108B
330
F76
100
AcDbEntity
  8
Visible (ISO)
100
AcDbLine
 10
-1471.850000000013
 20
-637.4999999998554
 30
0.0
 11
-1471.850000000013
 21
-692.4999999998553
 31
0.0
  0
LINE
  5
108C
330
F76
100
AcDbEntity
  8
Visible (ISO)
100
AcDbLine
 10
-4161.85000000002
 20
-692.4999999998544
 30
0.0
 11
-4161.85000000002
 21
-702.4999999998572
 31
0.0
  0
LINE
  5
108D
330
F76
100
AcDbEntity
  8
Visible (ISO)
100
AcDbLine
 10
-4166.85000000002
 20
-702.4999999998572
 30
0.0
 11
-4161.85000000002
 21
-702.4999999998572
 31
0.0
  0
LINE
  5
108E
330
F76
100
AcDbEntity
  8
Visible (ISO)
100
AcDbLine
 10
-4161.85000000002
 20
-627.4999999998581
 30
0.0
 11
-4161.85000000002
 21
-637.4999999998554
 31
0.0
  0
LINE
  5
108F
330
F76
100
AcDbEntity
  8
Visible (ISO)
100
AcDbLine
 10
-4161.85000000002
 20
-627.4999999998572
 30
0.0
 11
-4166.85000000002
 21
-627.4999999998572
 31
0.0
  0
LINE
  5
1090
330
F76
100
AcDbEntity
  8
Visible (ISO)
100
AcDbLine
 10
-4161.85000000002
 20
-692.4999999998544
 30
0.0
 11
-4161.85000000002
 21
-637.4999999998545
 31
0.0
  0
LINE
  5
1091
330
F76
100
AcDbEntity
  8
Visible (ISO)
100
AcDbLine
 10
-3920.700000000023
 20
716.0000000001191
 30
0.0
 11
-3887.000000000018
 21
716.0000000001191
 31
0.0
  0
LINE
  5
1092
330
F76
100
AcDbEntity
  8
Visible (ISO)
100
AcDbLine
 10
-3887.000000000018
 20
-645.9999999998899
 30
0.0
 11
-3920.700000000023
 21
-645.9999999998899
 31
0.0
  0
LINE
  5
1093
330
F76
100
AcDbEntity
  8
Visible (ISO)
100
AcDbLine
 10
-3887.000000000018
 20
716.0000000001191
 30
0.0
 11
-3887.000000000022
 21
-645.999999999889
 31
0.0
  0
LINE
  5
1094
330
F76
100
AcDbEntity
  8
Visible (ISO)
100
AcDbLine
 10
-3920.700000000019
 20
716.0000000001191
 30
0.0
 11
-3920.700000000023
 21
-645.999999999889
 31
0.0
  0
LINE
  5
1095
330
F76
100
AcDbEntity
  8
Visible (ISO)
100
AcDbLine
 10
-3640.700000000026
 20
716.0000000001191
 30
0.0
 11
-3607.000000000022
 21
716.0000000001191
 31
0.0
  0
LINE
  5
1096
330
F76
100
AcDbEntity
  8
Visible (ISO)
100
AcDbLine
 10
-3607.000000000022
 20
-645.9999999998899
 30
0.0
 11
-3640.700000000026
 21
-645.9999999998899
 31
0.0
  0
LINE
  5
1097
330
F76
100
AcDbEntity
  8
Visible (ISO)
100
AcDbLine
 10
-3607.000000000022
 20
716.0000000001191
 30
0.0
 11
-3607.000000000026
 21
-645.999999999889
 31
0.0
  0
LINE
  5
1098
330
F76
100
AcDbEntity
  8
Visible (ISO)
100
AcDbLine
 10
-3640.700000000022
 20
716.0000000001191
 30
0.0
 11
-3640.700000000026
 21
-645.9999999998899
 31
0.0
  0
LINE
  5
1099
330
F76
100
AcDbEntity
  8
Visible (ISO)
100
AcDbLine
 10
-3360.700000000023
 20
716.0000000001191
 30
0.0
 11
-3327.000000000022
 21
716.0000000001191
 31
0.0
  0
LINE
  5
109A
330
F76
100
AcDbEntity
  8
Visible (ISO)
100
AcDbLine
 10
-3327.000000000022
 20
-645.9999999998899
 30
0.0
 11
-3360.700000000023
 21
-645.9999999998899
 31
0.0
  0
LINE
  5
109B
330
F76
100
AcDbEntity
  8
Visible (ISO)
100
AcDbLine
 10
-3327.000000000022
 20
716.0000000001191
 30
0.0
 11
-3327.000000000025
 21
-645.999999999889
 31
0.0
  0
LINE
  5
109C
330
F76
100
AcDbEntity
  8
Visible (ISO)
100
AcDbLine
 10
-3360.700000000019
 20
716.0000000001191
 30
0.0
 11
-3360.700000000023
 21
-645.999999999889
 31
0.0
  0
LINE
  5
109D
330
F76
100
AcDbEntity
  8
Visible (ISO)
100
AcDbLine
 10
-3080.700000000023
 20
716.0000000001191
 30
0.0
 11
-3047.000000000018
 21
716.0000000001191
 31
0.0
  0
LINE
  5
109E
330
F76
100
AcDbEntity
  8
Visible (ISO)
100
AcDbLine
 10
-3047.000000000018
 20
-645.9999999998899
 30
0.0
 11
-3080.700000000023
 21
-645.9999999998899
 31
0.0
  0
LINE
  5
109F
330
F76
100
AcDbEntity
  8
Visible (ISO)
100
AcDbLine
 10
-3047.000000000018
 20
716.0000000001191
 30
0.0
 11
-3047.000000000022
 21
-645.999999999889
 31
0.0
  0
LINE
  5
10A0
330
F76
100
AcDbEntity
  8
Visible (ISO)
100
AcDbLine
 10
-3080.700000000019
 20
716.0000000001191
 30
0.0
 11
-3080.700000000023
 21
-645.999999999889
 31
0.0
  0
LINE
  5
10A1
330
F76
100
AcDbEntity
  8
Visible (ISO)
100
AcDbLine
 10
-2800.700000000023
 20
716.0000000001182
 30
0.0
 11
-2767.000000000018
 21
716.0000000001182
 31
0.0
  0
LINE
  5
10A2
330
F76
100
AcDbEntity
  8
Visible (ISO)
100
AcDbLine
 10
-2767.000000000018
 20
-645.9999999998908
 30
0.0
 11
-2800.700000000023
 21
-645.9999999998908
 31
0.0
  0
LINE
  5
10A3
330
F76
100
AcDbEntity
  8
Visible (ISO)
100
AcDbLine
 10
-2767.000000000018
 20
716.0000000001182
 30
0.0
 11
-2767.000000000022
 21
-645.9999999998908
 31
0.0
  0
LINE
  5
10A4
330
F76
100
AcDbEntity
  8
Visible (ISO)
100
AcDbLine
 10
-2800.700000000019
 20
716.0000000001182
 30
0.0
 11
-2800.700000000023
 21
-645.9999999998908
 31
0.0
  0
LINE
  5
10A5
330
F76
100
AcDbEntity
  8
Visible (ISO)
100
AcDbLine
 10
-2520.700000000023
 20
716.0000000001182
 30
0.0
 11
-2487.000000000022
 21
716.0000000001182
 31
0.0
  0
LINE
  5
10A6
330
F76
100
AcDbEntity
  8
Visible (ISO)
100
AcDbLine
 10
-2487.000000000022
 20
-645.9999999998908
 30
0.0
 11
-2520.700000000023
 21
-645.9999999998908
 31
0.0
  0
LINE
  5
10A7
330
F76
100
AcDbEntity
  8
Visible (ISO)
100
AcDbLine
 10
-2487.000000000022
 20
716.0000000001182
 30
0.0
 11
-2487.000000000026
 21
-645.9999999998908
 31
0.0
  0
LINE
  5
10A8
330
F76
100
AcDbEntity
  8
Visible (ISO)
100
AcDbLine
 10
-2520.700000000019
 20
716.0000000001182
 30
0.0
 11
-2520.700000000023
 21
-645.9999999998908
 31
0.0
  0
LINE
  5
10A9
330
F76
100
AcDbEntity
  8
Visible (ISO)
100
AcDbLine
 10
-4161.85000000002
 20
-645.999999999869
 30
0.0
 11
-3920.700000000023
 21
-645.999999999869
 31
0.0
  0
LINE
  5
10AA
330
F76
100
AcDbEntity
  8
Visible (ISO)
100
AcDbLine
 10
-3887.000000000022
 20
-645.9999999998699
 30
0.0
 11
-3640.700000000022
 21
-645.9999999998699
 31
0.0
  0
LINE
  5
10AB
330
F76
100
AcDbEntity
  8
Visible (ISO)
100
AcDbLine
 10
-3607.000000000022
 20
-645.9999999998699
 30
0.0
 11
-3360.700000000019
 21
-645.9999999998699
 31
0.0
  0
LINE
  5
10AC
330
F76
100
AcDbEntity
  8
Visible (ISO)
100
AcDbLine
 10
-3327.000000000022
 20
-645.9999999998699
 30
0.0
 11
-3080.700000000023
 21
-645.9999999998699
 31
0.0
  0
LINE
  5
10AD
330
F76
100
AcDbEntity
  8
Visible (ISO)
100
AcDbLine
 10
-3047.000000000018
 20
-645.9999999998699
 30
0.0
 11
-2800.700000000023
 21
-645.9999999998699
 31
0.0
  0
LINE
  5
10AE
330
F76
100
AcDbEntity
  8
Visible (ISO)
100
AcDbLine
 10
-2767.000000000022
 20
-645.9999999998699
 30
0.0
 11
-2520.700000000019
 21
-645.9999999998699
 31
0.0
  0
LINE
  5
10AF
330
F76
100
AcDbEntity
  8
Visible (ISO)
100
AcDbLine
 10
-2487.000000000022
 20
-645.9999999998699
 30
0.0
 11
-1471.85000000002
 21
-645.9999999998699
 31
0.0
  0
LINE
  5
10B0
330
F76
100
AcDbEntity
  8
Visible (ISO)
100
AcDbLine
 10
-4161.85000000002
 20
-683.999999999869
 30
0.0
 11
-1471.85000000002
 21
-683.9999999998699
 31
0.0
  0
LINE
  5
10B1
330
F76
100
AcDbEntity
  8
Visible (ISO)
100
AcDbLine
 10
-4256.85000000002
 20
-1709.999999999855
 30
0.0
 11
-4246.85000000002
 21
-1709.999999999852
 31
0.0
  0
LINE
  5
10B2
330
F76
100
AcDbEntity
  8
Visible (ISO)
100
AcDbLine
 10
-4186.85000000002
 20
-1709.999999999852
 30
0.0
 11
-4176.85000000002
 21
-1709.999999999855
 31
0.0
  0
LINE
  5
10B3
330
F76
100
AcDbEntity
  8
Visible (ISO)
100
AcDbLine
 10
-4176.850000000023
 20
-1714.999999999855
 30
0.0
 11
-4176.850000000023
 21
-1709.999999999855
 31
0.0
  0
LINE
  5
10B4
330
F76
100
AcDbEntity
  8
Visible (ISO)
100
AcDbLine
 10
-4256.85000000002
 20
-1709.999999999855
 30
0.0
 11
-4256.85000000002
 21
-1714.999999999855
 31
0.0
  0
LINE
  5
10B5
330
F76
100
AcDbEntity
  8
Visible (ISO)
100
AcDbLine
 10
-4186.85000000002
 20
-1709.999999999852
 30
0.0
 11
-4246.850000000024
 21
-1709.999999999852
 31
0.0
  0
LINE
  5
10B6
330
F76
100
AcDbEntity
  8
Visible (ISO)
100
AcDbLine
 10
-4176.850000000016
 20
-719.9999999998563
 30
0.0
 11
-4186.850000000016
 21
-719.9999999998535
 31
0.0
  0
LINE
  5
10B7
330
F76
100
AcDbEntity
  8
Visible (ISO)
100
AcDbLine
 10
-4246.85000000002
 20
-719.9999999998535
 30
0.0
 11
-4256.85000000002
 21
-719.9999999998563
 31
0.0
  0
LINE
  5
10B8
330
F76
100
AcDbEntity
  8
Visible (ISO)
100
AcDbLine
 10
-4256.850000000016
 20
-714.9999999998563
 30
0.0
 11
-4256.850000000016
 21
-719.9999999998563
 31
0.0
  0
LINE
  5
10B9
330
F76
100
AcDbEntity
  8
Visible (ISO)
100
AcDbLine
 10
-4176.85000000002
 20
-719.9999999998563
 30
0.0
 11
-4176.85000000002
 21
-714.9999999998563
 31
0.0
  0
LINE
  5
10BA
330
F76
100
AcDbEntity
  8
Visible (ISO)
100
AcDbLine
 10
-4246.85000000002
 20
-719.9999999998535
 30
0.0
 11
-4186.850000000016
 21
-719.9999999998535
 31
0.0
  0
LINE
  5
10BB
330
F76
100
AcDbEntity
  8
Visible (ISO)
100
AcDbLine
 10
-4200.000000000018
 20
-719.9999999998653
 30
0.0
 11
-4200.000000000018
 21
-1709.999999999865
 31
0.0
  0
LINE
  5
10BC
330
F76
100
AcDbEntity
  8
Visible (ISO)
100
AcDbLine
 10
-4233.700000000022
 20
-719.9999999998653
 30
0.0
 11
-4233.700000000022
 21
-1709.999999999865
 31
0.0
  0
LINE
  5
10BD
330
F76
100
AcDbEntity
  8
Visible (ISO)
100
AcDbLine
 10
4188.150000000002
 20
2151.849999999895
 30
0.0
 11
5378.150000000001
 21
2151.849999999895
 31
0.0
  0
LINE
  5
10BE
330
F76
100
AcDbEntity
  8
Visible (ISO)
100
AcDbLine
 10
4188.150000000002
 20
2118.149999999894
 30
0.0
 11
5378.150000000001
 21
2118.149999999894
 31
0.0
  0
LINE
  5
10BF
330
F76
100
AcDbEntity
  8
Visible (ISO)
100
AcDbLine
 10
4828.149999999994
 20
-1929.000000000217
 30
0.0
 11
4828.149999999994
 21
-1891.000000000217
 31
0.0
  0
ARC
  5
10C0
330
F76
100
AcDbEntity
  8
Visible (ISO)
100
AcDbCircle
 10
4873.150000000002
 20
-1910.00000000023
 30
0.0
 40
18.99999999999998
100
AcDbArc
 50
270.0
 51
90.0
  0
LINE
  5
10C1
330
F76
100
AcDbEntity
  8
Visible (ISO)
100
AcDbLine
 10
4828.149999999994
 20
-1929.000000000217
 30
0.0
 11
4873.150000000002
 21
-1929.00000000023
 31
0.0
  0
LINE
  5
10C2
330
F76
100
AcDbEntity
  8
Visible (ISO)
100
AcDbLine
 10
4873.150000000002
 20
-1891.00000000023
 30
0.0
 11
4828.149999999994
 21
-1891.000000000217
 31
0.0
  0
LINE
  5
10C3
330
F76
100
AcDbEntity
  8
Visible (ISO)
100
AcDbLine
 10
4828.149999999994
 20
-2479.000000000218
 30
0.0
 11
4828.149999999994
 21
-2441.000000000216
 31
0.0
  0
ARC
  5
10C4
330
F76
100
AcDbEntity
  8
Visible (ISO)
100
AcDbCircle
 10
4873.150000000002
 20
-2460.00000000023
 30
0.0
 40
18.99999999999998
100
AcDbArc
 50
270.0
 51
90.0
  0
LINE
  5
10C5
330
F76
100
AcDbEntity
  8
Visible (ISO)
100
AcDbLine
 10
4828.149999999994
 20
-2479.000000000218
 30
0.0
 11
4873.150000000002
 21
-2479.00000000023
 31
0.0
  0
LINE
  5
10C6
330
F76
100
AcDbEntity
  8
Visible (ISO)
100
AcDbLine
 10
4873.150000000002
 20
-2441.00000000023
 30
0.0
 11
4828.149999999994
 21
-2441.000000000216
 31
0.0
  0
ARC
  5
10C7
330
F76
100
AcDbEntity
  8
Visible (ISO)
100
AcDbCircle
 10
4873.150000000002
 20
-1910.00000000023
 30
0.0
 40
18.99999999999997
100
AcDbArc
 50
270.0
 51
90.0
  0
ARC
  5
10C8
330
F76
100
AcDbEntity
  8
Visible (ISO)
100
AcDbCircle
 10
4873.150000000002
 20
-2460.00000000023
 30
0.0
 40
18.99999999999997
100
AcDbArc
 50
270.0
 51
90.0
  0
LINE
  5
10C9
330
F76
100
AcDbEntity
  8
Visible (ISO)
100
AcDbLine
 10
2328.150000000002
 20
-1929.000000000217
 30
0.0
 11
2328.150000000002
 21
-1891.000000000217
 31
0.0
  0
LINE
  5
10CA
330
F76
100
AcDbEntity
  8
Visible (ISO)
100
AcDbLine
 10
4828.150000000001
 20
-1891.000000000217
 30
0.0
 11
4828.150000000001
 21
-1929.000000000217
 31
0.0
  0
LINE
  5
10CB
330
F76
100
AcDbEntity
  8
Visible (ISO)
100
AcDbLine
 10
2328.150000000002
 20
-1891.000000000218
 30
0.0
 11
4828.150000000001
 21
-1891.000000000218
 31
0.0
  0
LINE
  5
10CC
330
F76
100
AcDbEntity
  8
Visible (ISO)
100
AcDbLine
 10
2328.150000000002
 20
-1929.000000000217
 30
0.0
 11
4828.150000000001
 21
-1929.000000000217
 31
0.0
  0
LINE
  5
10CD
330
F76
100
AcDbEntity
  8
Visible (ISO)
100
AcDbLine
 10
2328.150000000002
 20
-2479.000000000217
 30
0.0
 11
2328.150000000002
 21
-2441.000000000216
 31
0.0
  0
LINE
  5
10CE
330
F76
100
AcDbEntity
  8
Visible (ISO)
100
AcDbLine
 10
4828.150000000001
 20
-2441.000000000216
 30
0.0
 11
4828.150000000001
 21
-2479.000000000217
 31
0.0
  0
LINE
  5
10CF
330
F76
100
AcDbEntity
  8
Visible (ISO)
100
AcDbLine
 10
2328.150000000002
 20
-2441.000000000216
 30
0.0
 11
4828.150000000001
 21
-2441.000000000216
 31
0.0
  0
LINE
  5
10D0
330
F76
100
AcDbEntity
  8
Visible (ISO)
100
AcDbLine
 10
2328.150000000002
 20
-2479.000000000216
 30
0.0
 11
4828.150000000001
 21
-2479.000000000216
 31
0.0
  0
SPLINE
  5
10D1
330
F76
100
AcDbEntity
  8
Visible (ISO)
100
AcDbSpline
210
0.0
220
0.0
230
1.0
 70
     8
 71
     3
 72
    12
 73
     8
 74
     0
 42
0.0000000001
 43
0.0000000001
 40
5.706643122748518
 40
5.706643122748518
 40
5.706643122748518
 40
5.706643122748518
 40
5.957418950191497
 40
5.957418950191497
 40
6.237048934640847
 40
6.237048934640847
 40
6.516678919090198
 40
6.516678919090198
 40
6.516678919090198
 40
6.516678919090198
 10
2735.671208524691
 20
-1891.00010908962
 30
0.0
 10
2735.08094532734
 20
-1890.581244300888
 30
0.0
 10
2734.39852664154
 20
-1890.238496202297
 30
0.0
 10
2732.929367219491
 20
-1889.688493110387
 30
0.0
 10
2732.014108872601
 20
-1889.454377451636
 30
0.0
 10
2730.090469917108
 20
-1889.153667411582
 30
0.0
 10
2729.082099948166
 20
-1889.085486498828
 30
0.0
 10
2728.150000000002
 20
-1889.085486498828
 30
0.0
  0
SPLINE
  5
10D2
330
F76
100
AcDbEntity
  8
Visible (ISO)
100
AcDbSpline
210
0.0
220
0.0
230
1.0
 70
     8
 71
     3
 72
    12
 73
     8
 74
     0
 42
0.0000000001
 43
0.0000000001
 40
6.559992712265002
 40
6.559992712265002
 40
6.559992712265002
 40
6.559992712265002
 40
6.937115659770563
 40
6.937115659770563
 40
7.314238607276124
 40
7.314238607276124
 40
7.379819792569292
 40
7.379819792569292
 40
7.379819792569292
 40
7.379819792569292
 10
2728.150000000002
 20
-1930.914513501616
 30
0.0
 10
2729.407076491683
 20
-1930.914513501616
 30
0.0
 10
2730.747660951522
 20
-1930.792259663225
 30
0.0
 10
2733.211910138649
 20
-1930.253489053528
 30
0.0
 10
2734.335479509712
 20
-1929.832162604421
 30
0.0
 10
2735.37507045456
 20
-1929.202364506049
 30
0.0
 10
2735.525123158383
 20
-1929.103534160533
 30
0.0
 10
2735.670586919114
 20
-1928.999370757698
 30
0.0
  0
SPLINE
  5
10D3
330
F76
100
AcDbEntity
  8
Visible (ISO)
100
AcDbSpline
210
0.0
220
0.0
230
1.0
 70
     8
 71
     3
 72
    12
 73
     8
 74
     0
 42
0.0000000001
 43
0.0000000001
 40
2.44830366320342
 40
2.44830366320342
 40
2.44830366320342
 40
2.44830366320342
 40
2.699079490646401
 40
2.699079490646401
 40
2.978709475095751
 40
2.978709475095751
 40
3.258339459545101
 40
3.258339459545101
 40
3.258339459545101
 40
3.258339459545101
 10
2580.628791475312
 20
-1928.999890910824
 30
0.0
 10
2581.219054672664
 20
-1929.418755699555
 30
0.0
 10
2581.90147335847
 20
-1929.761503798147
 30
0.0
 10
2583.370632780512
 20
-1930.311506890056
 30
0.0
 10
2584.285891127402
 20
-1930.545622548807
 30
0.0
 10
2586.209530082895
 20
-1930.846332588861
 30
0.0
 10
2587.217900051837
 20
-1930.914513501616
 30
0.0
 10
2588.150000000002
 20
-1930.914513501616
 30
0.0
  0
SPLINE
  5
10D4
330
F76
100
AcDbEntity
  8
Visible (ISO)
100
AcDbSpline
210
0.0
220
0.0
230
1.0
 70
     8
 71
     3
 72
    12
 73
     8
 74
     0
 42
0.0000000001
 43
0.0000000001
 40
3.278701667971841
 40
3.278701667971841
 40
3.278701667971841
 40
3.278701667971841
 40
3.655824615477401
 40
3.655824615477401
 40
4.032947562982962
 40
4.032947562982962
 40
4.098528748276043
 40
4.098528748276043
 40
4.098528748276043
 40
4.098528748276043
 10
2588.150000000002
 20
-1889.085486498827
 30
0.0
 10
2586.89292350832
 20
-1889.085486498827
 30
0.0
 10
2585.552339048482
 20
-1889.207740337219
 30
0.0
 10
2583.088089861354
 20
-1889.746510946916
 30
0.0
 10
2581.964520490292
 20
-1890.167837396023
 30
0.0
 10
2580.924929545443
 20
-1890.797635494396
 30
0.0
 10
2580.77487684162
 20
-1890.896465839912
 30
0.0
 10
2580.62941308089
 20
-1891.000629242747
 30
0.0
  0
LINE
  5
10D5
330
F76
100
AcDbEntity
  8
Visible (ISO)
100
AcDbLine
 10
2728.150000000002
 20
-1930.914513501616
 30
0.0
 11
2588.150000000002
 21
-1930.914513501616
 31
0.0
  0
LINE
  5
10D6
330
F76
100
AcDbEntity
  8
Visible (ISO)
100
AcDbLine
 10
2588.150000000002
 20
-1889.085486498827
 30
0.0
 11
2728.150000000002
 21
-1889.085486498827
 31
0.0
  0
SPLINE
  5
10D7
330
F76
100
AcDbEntity
  8
Visible (ISO)
100
AcDbSpline
210
0.0
220
0.0
230
1.0
 70
     8
 71
     3
 72
    12
 73
     8
 74
     0
 42
0.0000000001
 43
0.0000000001
 40
5.706643122748518
 40
5.706643122748518
 40
5.706643122748518
 40
5.706643122748518
 40
5.957418950191497
 40
5.957418950191497
 40
6.237048934640847
 40
6.237048934640847
 40
6.516678919090198
 40
6.516678919090198
 40
6.516678919090198
 40
6.516678919090198
 10
2735.671208524691
 20
-2441.00010908962
 30
0.0
 10
2735.08094532734
 20
-2440.581244300888
 30
0.0
 10
2734.39852664154
 20
-2440.238496202297
 30
0.0
 10
2732.929367219491
 20
-2439.688493110388
 30
0.0
 10
2732.014108872601
 20
-2439.454377451636
 30
0.0
 10
2730.090469917108
 20
-2439.153667411583
 30
0.0
 10
2729.082099948166
 20
-2439.085486498828
 30
0.0
 10
2728.150000000002
 20
-2439.085486498828
 30
0.0
  0
SPLINE
  5
10D8
330
F76
100
AcDbEntity
  8
Visible (ISO)
100
AcDbSpline
210
0.0
220
0.0
230
1.0
 70
     8
 71
     3
 72
    12
 73
     8
 74
     0
 42
0.0000000001
 43
0.0000000001
 40
6.559992712265002
 40
6.559992712265002
 40
6.559992712265002
 40
6.559992712265002
 40
6.937115659770563
 40
6.937115659770563
 40
7.314238607276124
 40
7.314238607276124
 40
7.379819792569292
 40
7.379819792569292
 40
7.379819792569292
 40
7.379819792569292
 10
2728.150000000002
 20
-2480.914513501617
 30
0.0
 10
2729.407076491683
 20
-2480.914513501617
 30
0.0
 10
2730.747660951522
 20
-2480.792259663224
 30
0.0
 10
2733.211910138649
 20
-2480.253489053528
 30
0.0
 10
2734.335479509712
 20
-2479.832162604421
 30
0.0
 10
2735.37507045456
 20
-2479.202364506049
 30
0.0
 10
2735.525123158383
 20
-2479.103534160532
 30
0.0
 10
2735.670586919114
 20
-2478.999370757698
 30
0.0
  0
SPLINE
  5
10D9
330
F76
100
AcDbEntity
  8
Visible (ISO)
100
AcDbSpline
210
0.0
220
0.0
230
1.0
 70
     8
 71
     3
 72
    12
 73
     8
 74
     0
 42
0.0000000001
 43
0.0000000001
 40
2.44830366320342
 40
2.44830366320342
 40
2.44830366320342
 40
2.44830366320342
 40
2.699079490646401
 40
2.699079490646401
 40
2.978709475095751
 40
2.978709475095751
 40
3.258339459545101
 40
3.258339459545101
 40
3.258339459545101
 40
3.258339459545101
 10
2580.628791475312
 20
-2478.999890910825
 30
0.0
 10
2581.219054672664
 20
-2479.418755699556
 30
0.0
 10
2581.90147335847
 20
-2479.761503798147
 30
0.0
 10
2583.370632780512
 20
-2480.311506890056
 30
0.0
 10
2584.285891127402
 20
-2480.545622548807
 30
0.0
 10
2586.209530082895
 20
-2480.846332588861
 30
0.0
 10
2587.217900051837
 20
-2480.914513501617
 30
0.0
 10
2588.150000000002
 20
-2480.914513501617
 30
0.0
  0
SPLINE
  5
10DA
330
F76
100
AcDbEntity
  8
Visible (ISO)
100
AcDbSpline
210
0.0
220
0.0
230
1.0
 70
     8
 71
     3
 72
    12
 73
     8
 74
     0
 42
0.0000000001
 43
0.0000000001
 40
3.278701667971841
 40
3.278701667971841
 40
3.278701667971841
 40
3.278701667971841
 40
3.655824615477401
 40
3.655824615477401
 40
4.032947562982962
 40
4.032947562982962
 40
4.098528748276043
 40
4.098528748276043
 40
4.098528748276043
 40
4.098528748276043
 10
2588.150000000002
 20
-2439.085486498827
 30
0.0
 10
2586.89292350832
 20
-2439.085486498827
 30
0.0
 10
2585.552339048482
 20
-2439.207740337218
 30
0.0
 10
2583.088089861354
 20
-2439.746510946916
 30
0.0
 10
2581.964520490292
 20
-2440.167837396023
 30
0.0
 10
2580.924929545443
 20
-2440.797635494396
 30
0.0
 10
2580.77487684162
 20
-2440.896465839911
 30
0.0
 10
2580.62941308089
 20
-2441.000629242747
 30
0.0
  0
LINE
  5
10DB
330
F76
100
AcDbEntity
  8
Visible (ISO)
100
AcDbLine
 10
2728.150000000002
 20
-2480.914513501617
 30
0.0
 11
2588.150000000002
 21
-2480.914513501617
 31
0.0
  0
LINE
  5
10DC
330
F76
100
AcDbEntity
  8
Visible (ISO)
100
AcDbLine
 10
2588.150000000002
 20
-2439.085486498827
 30
0.0
 11
2728.150000000002
 21
-2439.085486498827
 31
0.0
  0
ARC
  5
10DD
330
F76
100
AcDbEntity
  8
Visible (ISO)
100
AcDbCircle
 10
-4261.850000000027
 20
690.0000000004202
 30
0.0
 40
4.999999999999981
100
AcDbArc
 50
180.0
 51
270.0
  0
LINE
  5
10DE
330
F76
100
AcDbEntity
  8
Visible (ISO)
100
AcDbLine
 10
-4171.850000000027
 20
685.0000000004211
 30
0.0
 11
-4261.850000000027
 21
685.0000000004211
 31
0.0
  0
ARC
  5
10DF
330
F76
100
AcDbEntity
  8
Visible (ISO)
100
AcDbCircle
 10
-4171.850000000027
 20
690.0000000004202
 30
0.0
 40
4.999999999999981
100
AcDbArc
 50
270.0
 51
0.0
  0
LINE
  5
10E0
330
F76
100
AcDbEntity
  8
Visible (ISO)
100
AcDbLine
 10
-4261.850000000016
 20
1231.369468234175
 30
0.0
 11
-4171.850000000016
 21
1231.369468234174
 31
0.0
  0
ELLIPSE
  5
10E1
330
F76
100
AcDbEntity
  8
Visible (ISO)
100
AcDbEllipse
 10
-4171.85000000002
 20
1233.701006524947
 30
0.0
 11
4.99999999999998
 21
-0.0000000000000099
 31
0.0
210
0.0
220
0.0
230
1.0
 40
0.4663076581547033
 41
4.71238898038469
 42
6.283185307179606
  0
ELLIPSE
  5
10E2
330
F76
100
AcDbEntity
  8
Visible (ISO)
100
AcDbEllipse
 10
-4261.85000000002
 20
1233.701006524947
 30
0.0
 11
4.99999999999998
 21
-0.0000000000000103
 31
0.0
210
0.0
220
0.0
230
1.0
 40
0.4663076581547033
 41
3.141592653589814
 42
4.71238898038469
  0
LINE
  5
10E3
330
F76
100
AcDbEntity
  8
Visible (ISO)
100
AcDbLine
 10
-4266.850000000021
 20
1396.369468234171
 30
0.0
 11
-4266.850000000021
 21
1233.701006524947
 31
0.0
  0
LINE
  5
10E4
330
F76
100
AcDbEntity
  8
Visible (ISO)
100
AcDbLine
 10
-4166.85000000002
 20
1233.701006524947
 30
0.0
 11
-4166.85000000002
 21
1396.369468234171
 31
0.0
  0
LINE
  5
10E5
330
F76
100
AcDbEntity
  8
Visible (ISO)
100
AcDbLine
 10
-4171.85000000002
 20
1936.36946823417
 30
0.0
 11
-4261.850000000016
 21
1936.36946823417
 31
0.0
  0
ELLIPSE
  5
10E6
330
F76
100
AcDbEntity
  8
Visible (ISO)
100
AcDbEllipse
 10
-4261.850000000016
 20
1934.037929943395
 30
0.0
 11
-4.999999999999945
 21
0.0000000000000236
 31
0.0
210
0.0
220
0.0
230
1.0
 40
0.4663076581552976
 41
4.712388980384691
 42
6.28318530717958
  0
ELLIPSE
  5
10E7
330
F76
100
AcDbEntity
  8
Visible (ISO)
100
AcDbEllipse
 10
-4171.85000000002
 20
1934.037929943393
 30
0.0
 11
-4.999999999999945
 21
0.0000000000000241
 31
0.0
210
0.0
220
0.0
230
1.0
 40
0.4663076581552976
 41
3.141592653589787
 42
4.712388980384691
  0
LINE
  5
10E8
330
F76
100
AcDbEntity
  8
Visible (ISO)
100
AcDbLine
 10
-4166.85000000002
 20
1771.369468234172
 30
0.0
 11
-4166.85000000002
 21
1934.037929943393
 31
0.0
  0
LINE
  5
10E9
330
F76
100
AcDbEntity
  8
Visible (ISO)
100
AcDbLine
 10
-4266.850000000021
 20
1934.037929943395
 30
0.0
 11
-4266.850000000021
 21
1771.369468234172
 31
0.0
  0
ARC
  5
10EA
330
F76
100
AcDbEntity
  8
Visible (ISO)
100
AcDbCircle
 10
-4171.850000000013
 20
690.0000000004211
 30
0.0
 40
4.999999999999998
100
AcDbArc
 50
270.0
 51
0.0
  0
LINE
  5
10EB
330
F76
100
AcDbEntity
  8
Visible (ISO)
100
AcDbLine
 10
-4261.850000000016
 20
685.000000000422
 30
0.0
 11
-4171.850000000016
 21
685.0000000004211
 31
0.0
  0
ARC
  5
10EC
330
F76
100
AcDbEntity
  8
Visible (ISO)
100
AcDbCircle
 10
-4261.850000000013
 20
690.0000000004211
 30
0.0
 40
4.999999999999998
100
AcDbArc
 50
180.0
 51
270.0
  0
LINE
  5
10ED
330
F76
100
AcDbEntity
  8
Visible (ISO)
100
AcDbLine
 10
-4266.850000000016
 20
1233.701006524947
 30
0.0
 11
-4266.850000000016
 21
690.0000000004211
 31
0.0
  0
LINE
  5
10EE
330
F76
100
AcDbEntity
  8
Visible (ISO)
100
AcDbLine
 10
-4166.850000000017
 20
690.0000000004211
 30
0.0
 11
-4166.850000000017
 21
1233.701006524947
 31
0.0
  0
ELLIPSE
  5
10EF
330
F76
100
AcDbEntity
  8
Visible (ISO)
100
AcDbEllipse
 10
-4261.850000000016
 20
1233.701006524947
 30
0.0
 11
-4.999999999999999
 21
0.000000000000017
 31
0.0
210
0.0
220
0.0
230
1.0
 40
0.4663076581547024
 41
0.0
 42
1.570796326794898
  0
LINE
  5
10F0
330
F76
100
AcDbEntity
  8
Visible (ISO)
100
AcDbLine
 10
-4171.850000000016
 20
1231.369468234173
 30
0.0
 11
-4261.850000000016
 21
1231.369468234173
 31
0.0
  0
ELLIPSE
  5
10F1
330
F76
100
AcDbEntity
  8
Visible (ISO)
100
AcDbEllipse
 10
-4171.850000000016
 20
1233.701006524947
 30
0.0
 11
-4.999999999999999
 21
0.0000000000000166
 31
0.0
210
0.0
220
0.0
230
1.0
 40
0.4663076581547024
 41
1.570796326794898
 42
3.141592653589814
  0
ARC
  5
10F2
330
F76
100
AcDbEntity
  8
Visible (ISO)
100
AcDbCircle
 10
-4261.850000000016
 20
2477.738936467533
 30
0.0
 40
5.00000000000051
100
AcDbArc
 50
90.0
 51
180.0
  0
LINE
  5
10F3
330
F76
100
AcDbEntity
  8
Visible (ISO)
100
AcDbLine
 10
-4171.850000000016
 20
2482.738936467533
 30
0.0
 11
-4261.850000000016
 21
2482.738936467535
 31
0.0
  0
ARC
  5
10F4
330
F76
100
AcDbEntity
  8
Visible (ISO)
100
AcDbCircle
 10
-4171.850000000016
 20
2477.738936467531
 30
0.0
 40
5.00000000000051
100
AcDbArc
 50
0.0
 51
90.0
  0
LINE
  5
10F5
330
F76
100
AcDbEntity
  8
Visible (ISO)
100
AcDbLine
 10
-4166.85000000002
 20
1934.037929943395
 30
0.0
 11
-4166.85000000002
 21
2477.738936467531
 31
0.0
  0
LINE
  5
10F6
330
F76
100
AcDbEntity
  8
Visible (ISO)
100
AcDbLine
 10
-4266.850000000016
 20
2477.738936467533
 30
0.0
 11
-4266.850000000021
 21
1934.037929943395
 31
0.0
  0
ELLIPSE
  5
10F7
330
F76
100
AcDbEntity
  8
Visible (ISO)
100
AcDbEllipse
 10
-4171.85000000002
 20
1934.037929943395
 30
0.0
 11
4.999999999999963
 21
-0.0000000000000307
 31
0.0
210
0.0
220
0.0
230
1.0
 40
0.4663076581552965
 41
0.0
 42
1.570796326794899
  0
LINE
  5
10F8
330
F76
100
AcDbEntity
  8
Visible (ISO)
100
AcDbLine
 10
-4261.85000000002
 20
1936.36946823417
 30
0.0
 11
-4171.85000000002
 21
1936.36946823417
 31
0.0
  0
ELLIPSE
  5
10F9
330
F76
100
AcDbEntity
  8
Visible (ISO)
100
AcDbEllipse
 10
-4261.85000000002
 20
1934.037929943395
 30
0.0
 11
4.999999999999963
 21
-0.0000000000000303
 31
0.0
210
0.0
220
0.0
230
1.0
 40
0.4663076581552965
 41
1.570796326794899
 42
3.141592653589793
  0
ARC
  5
10FA
330
F76
100
AcDbEntity
  8
Visible (ISO)
100
AcDbCircle
 10
-4171.850000000016
 20
2477.738936467531
 30
0.0
 40
5.0000000000005
100
AcDbArc
 50
0.0
 51
90.0
  0
LINE
  5
10FB
330
F76
100
AcDbEntity
  8
Visible (ISO)
100
AcDbLine
 10
-4261.850000000016
 20
2482.738936467533
 30
0.0
 11
-4171.850000000016
 21
2482.738936467533
 31
0.0
  0
ARC
  5
10FC
330
F76
100
AcDbEntity
  8
Visible (ISO)
100
AcDbCircle
 10
-4261.850000000016
 20
2477.738936467531
 30
0.0
 40
5.0000000000005
100
AcDbArc
 50
90.0
 51
180.0
  0
LINE
  5
10FD
330
F76
100
AcDbEntity
  8
Visible (ISO)
100
AcDbLine
 10
-4162.85000000002
 20
1771.36946823417
 30
0.0
 11
-4162.85000000002
 21
1396.369468234171
 31
0.0
  0
LINE
  5
10FE
330
F76
100
AcDbEntity
  8
Visible (ISO)
100
AcDbLine
 10
-4162.85000000002
 20
1771.36946823417
 30
0.0
 11
-4168.85000000002
 21
1771.369468234172
 31
0.0
  0
LINE
  5
10FF
330
F76
100
AcDbEntity
  8
Visible (ISO)
100
AcDbLine
 10
-4162.85000000002
 20
1396.369468234171
 30
0.0
 11
-4168.85000000002
 21
1396.369468234173
 31
0.0
  0
LINE
  5
1100
330
F76
100
AcDbEntity
  8
Visible (ISO)
100
AcDbLine
 10
-4264.850000000016
 20
1771.369468234172
 30
0.0
 11
-4270.850000000017
 21
1771.36946823417
 31
0.0
  0
LINE
  5
1101
330
F76
100
AcDbEntity
  8
Visible (ISO)
100
AcDbLine
 10
-4270.850000000017
 20
1771.36946823417
 30
0.0
 11
-4270.850000000017
 21
1396.369468234171
 31
0.0
  0
LINE
  5
1102
330
F76
100
AcDbEntity
  8
Visible (ISO)
100
AcDbLine
 10
-4264.850000000016
 20
1396.369468234173
 30
0.0
 11
-4270.850000000017
 21
1396.369468234171
 31
0.0
  0
LINE
  5
1103
330
F76
100
AcDbEntity
  8
Visible (ISO)
100
AcDbLine
 10
-4264.850000000016
 20
1396.369468234173
 30
0.0
 11
-4168.85000000002
 21
1396.369468234173
 31
0.0
  0
LINE
  5
1104
330
F76
100
AcDbEntity
  8
Visible (ISO)
100
AcDbLine
 10
-4264.850000000016
 20
1771.369468234172
 30
0.0
 11
-4168.85000000002
 21
1771.369468234172
 31
0.0
  0
LINE
  5
1105
330
F76
100
AcDbEntity
  8
Visible (ISO)
100
AcDbLine
 10
4873.150000000016
 20
-3960.000000000551
 30
0.0
 11
2328.150000000009
 21
-3960.000000000551
 31
0.0
  0
ARC
  5
1106
330
F76
100
AcDbEntity
  8
Visible (ISO)
100
AcDbCircle
 10
4873.150000000016
 20
-2460.000000000552
 30
0.0
 40
1500.0
100
AcDbArc
 50
270.0
 51
0.0
  0
LINE
  5
1107
330
F76
100
AcDbEntity
  8
Visible (ISO)
100
AcDbLine
 10
6373.150000000016
 20
877.5647015258664
 30
0.0
 11
6373.150000000016
 21
-2460.000000000551
 31
0.0
  0
ARC
  5
1108
330
F76
100
AcDbEntity
  8
Visible (ISO)
100
AcDbCircle
 10
5483.150000000001
 20
2084.999999999456
 30
0.0
 40
1500.000000000005
100
AcDbArc
 50
306.393910191148
 51
0.0
  0
LINE
  5
1109
330
F76
100
AcDbEntity
  8
Visible (ISO)
100
AcDbLine
 10
6983.150000000009
 20
2184.999999999453
 30
0.0
 11
6983.150000000009
 21
2084.999999999455
 31
0.0
  0
ARC
  5
110A
330
F76
100
AcDbEntity
  8
Visible (ISO)
100
AcDbCircle
 10
5483.150000000009
 20
2184.999999999451
 30
0.0
 40
1500.000000000001
100
AcDbArc
 50
0.0
 51
90.0
  0
LINE
  5
110B
330
F76
100
AcDbEntity
  8
Visible (ISO)
100
AcDbLine
 10
-3269.872667447624
 20
3684.999999999456
 30
0.0
 11
5483.150000000009
 21
3684.999999999452
 31
0.0
  0
ARC
  5
110C
330
F76
100
AcDbEntity
  8
Visible (ISO)
100
AcDbCircle
 10
-4166.850000000009
 20
2482.738936466571
 30
0.0
 40
1500.000000000006
100
AcDbArc
 50
53.27428817893631
 51
90.0
  0
LINE
  5
110D
330
F76
100
AcDbEntity
  8
Visible (ISO)
100
AcDbLine
 10
-4266.850000000002
 20
3982.738936466576
 30
0.0
 11
-4166.849999999999
 21
3982.738936466576
 31
0.0
  0
ARC
  5
110E
330
F76
100
AcDbEntity
  8
Visible (ISO)
100
AcDbCircle
 10
-4266.850000000009
 20
2482.738936466576
 30
0.0
 40
1500.0
100
AcDbArc
 50
90.0
 51
180.0
  0
LINE
  5
110F
330
F76
100
AcDbEntity
  8
Visible (ISO)
100
AcDbLine
 10
-5766.850000000009
 20
-1815.000000000528
 30
0.0
 11
-5766.850000000009
 21
2482.738936466576
 31
0.0
  0
ARC
  5
1110
330
F76
100
AcDbEntity
  8
Visible (ISO)
100
AcDbCircle
 10
-4266.850000000009
 20
-1815.000000000527
 30
0.0
 40
1500.000000000001
100
AcDbArc
 50
180.0
 51
270.0
  0
LINE
  5
1111
330
F76
100
AcDbEntity
  8
Visible (ISO)
100
AcDbLine
 10
-4166.85000000002
 20
-3315.000000000528
 30
0.0
 11
-4266.850000000009
 21
-3315.000000000529
 31
0.0
  0
ARC
  5
1112
330
F76
100
AcDbEntity
  8
Visible (ISO)
100
AcDbCircle
 10
-4166.85000000002
 20
-1815.000000000527
 30
0.0
 40
1500.000000000001
100
AcDbArc
 50
270.0
 51
344.5339900465731
  0
LINE
  5
1113
330
F76
100
AcDbEntity
  8
Visible (ISO)
100
AcDbLine
 10
848.2935880464792
 20
-2215.000000000535
 30
0.0
 11
-2721.166770519922
 21
-2215.000000000537
 31
0.0
  0
ARC
  5
1114
330
F76
100
AcDbEntity
  8
Visible (ISO)
100
AcDbCircle
 10
2328.150000000009
 20
-2460.000000000552
 30
0.0
 40
1500.0
100
AcDbArc
 50
170.5995719190805
 51
270.0
  0
ENDBLK
  5
F78
330
F76
100
AcDbEntity
  8
0
100
AcDbBlockEnd
  0
ENDSEC
  0
SECTION
  2
ENTITIES
  0
LINE
  5
172
330
6C
100
AcDbEntity
  8
Visible (ISO)
100
AcDbLine
 10
36304.08862852836
 20
12030.05796627303
 30
0.0
 11
36296.08862852835
 21
12038.05796627303
 31
0.0
  0
LINE
  5
173
330
6C
100
AcDbEntity
  8
Visible (ISO)
100
AcDbLine
 10
36304.08862852836
 20
12038.05796627303
 30
0.0
 11
36304.08862852836
 21
12030.05796627303
 31
0.0
  0
LINE
  5
174
330
6C
100
AcDbEntity
  8
Visible (ISO)
100
AcDbLine
 10
36296.08862852835
 20
12038.05796627303
 30
0.0
 11
36304.08862852836
 21
12038.05796627303
 31
0.0
  0
LINE
  5
175
330
6C
100
AcDbEntity
  8
Visible (ISO)
100
AcDbLine
 10
37046.08862852835
 20
12038.05796627303
 30
0.0
 11
36304.08862852836
 21
12038.05796627303
 31
0.0
  0
LINE
  5
176
330
6C
100
AcDbEntity
  8
Visible (ISO)
100
AcDbLine
 10
36304.08862852836
 20
12462.05796627303
 30
0.0
 11
36296.08862852835
 21
12462.05796627303
 31
0.0
  0
LINE
  5
177
330
6C
100
AcDbEntity
  8
Visible (ISO)
100
AcDbLine
 10
36304.08862852836
 20
12470.05796627303
 30
0.0
 11
36304.08862852836
 21
12462.05796627303
 31
0.0
  0
LINE
  5
178
330
6C
100
AcDbEntity
  8
Visible (ISO)
100
AcDbLine
 10
36296.08862852835
 20
12462.05796627303
 30
0.0
 11
36304.08862852836
 21
12470.05796627303
 31
0.0
  0
LINE
  5
179
330
6C
100
AcDbEntity
  8
Visible (ISO)
100
AcDbLine
 10
37046.08862852835
 20
12470.05796627303
 30
0.0
 11
36304.08862852836
 21
12470.05796627303
 31
0.0
  0
LINE
  5
17A
330
6C
100
AcDbEntity
  8
Visible (ISO)
100
AcDbLine
 10
36304.08862852836
 20
12462.05796627303
 30
0.0
 11
37046.08862852835
 21
12462.05796627303
 31
0.0
  0
LINE
  5
17B
330
6C
100
AcDbEntity
  8
Visible (ISO)
100
AcDbLine
 10
36304.08862852836
 20
12038.05796627303
 30
0.0
 11
36304.08862852836
 21
12462.05796627303
 31
0.0
  0
LINE
  5
17C
330
6C
100
AcDbEntity
  8
Visible (ISO)
100
AcDbLine
 10
36296.08862852835
 20
12462.05796627303
 30
0.0
 11
36296.08862852835
 21
12038.05796627303
 31
0.0
  0
LINE
  5
17D
330
6C
100
AcDbEntity
  8
Visible (ISO)
100
AcDbLine
 10
34304.08862852837
 20
12030.05796627303
 30
0.0
 11
34296.08862852836
 21
12038.05796627303
 31
0.0
  0
LINE
  5
17E
330
6C
100
AcDbEntity
  8
Visible (ISO)
100
AcDbLine
 10
34304.08862852837
 20
12038.05796627303
 30
0.0
 11
34304.08862852837
 21
12030.05796627303
 31
0.0
  0
LINE
  5
17F
330
6C
100
AcDbEntity
  8
Visible (ISO)
100
AcDbLine
 10
34296.08862852836
 20
12038.05796627303
 30
0.0
 11
34304.08862852837
 21
12038.05796627303
 31
0.0
  0
LINE
  5
180
330
6C
100
AcDbEntity
  8
Visible (ISO)
100
AcDbLine
 10
34304.08862852837
 20
12462.05796627303
 30
0.0
 11
34296.08862852836
 21
12462.05796627303
 31
0.0
  0
LINE
  5
181
330
6C
100
AcDbEntity
  8
Visible (ISO)
100
AcDbLine
 10
34304.08862852837
 20
12470.05796627303
 30
0.0
 11
34304.08862852837
 21
12462.05796627303
 31
0.0
  0
LINE
  5
182
330
6C
100
AcDbEntity
  8
Visible (ISO)
100
AcDbLine
 10
34296.08862852836
 20
12462.05796627303
 30
0.0
 11
34304.08862852837
 21
12470.05796627303
 31
0.0
  0
LINE
  5
183
330
6C
100
AcDbEntity
  8
Visible (ISO)
100
AcDbLine
 10
35288.08862852836
 20
12038.05796627303
 30
0.0
 11
35296.08862852836
 21
12038.05796627303
 31
0.0
  0
LINE
  5
184
330
6C
100
AcDbEntity
  8
Visible (ISO)
100
AcDbLine
 10
35288.08862852836
 20
12030.05796627303
 30
0.0
 11
35288.08862852836
 21
12038.05796627303
 31
0.0
  0
LINE
  5
185
330
6C
100
AcDbEntity
  8
Visible (ISO)
100
AcDbLine
 10
35296.08862852836
 20
12038.05796627303
 30
0.0
 11
35288.08862852836
 21
12030.05796627303
 31
0.0
  0
LINE
  5
186
330
6C
100
AcDbEntity
  8
Visible (ISO)
100
AcDbLine
 10
35288.08862852836
 20
12038.05796627303
 30
0.0
 11
34471.08862852835
 21
12038.05796627303
 31
0.0
  0
LINE
  5
187
330
6C
100
AcDbEntity
  8
Visible (ISO)
100
AcDbLine
 10
34371.08862852835
 20
12038.05796627303
 30
0.0
 11
34304.08862852837
 21
12038.05796627303
 31
0.0
  0
LINE
  5
188
330
6C
100
AcDbEntity
  8
Visible (ISO)
100
AcDbLine
 10
35288.08862852836
 20
12470.05796627303
 30
0.0
 11
35296.08862852836
 21
12462.05796627303
 31
0.0
  0
LINE
  5
189
330
6C
100
AcDbEntity
  8
Visible (ISO)
100
AcDbLine
 10
35288.08862852836
 20
12462.05796627303
 30
0.0
 11
35288.08862852836
 21
12470.05796627303
 31
0.0
  0
LINE
  5
18A
330
6C
100
AcDbEntity
  8
Visible (ISO)
100
AcDbLine
 10
35296.08862852836
 20
12462.05796627303
 30
0.0
 11
35288.08862852836
 21
12462.05796627303
 31
0.0
  0
LINE
  5
18B
330
6C
100
AcDbEntity
  8
Visible (ISO)
100
AcDbLine
 10
35288.08862852836
 20
12470.05796627303
 30
0.0
 11
34471.08862852835
 21
12470.05796627303
 31
0.0
  0
LINE
  5
18C
330
6C
100
AcDbEntity
  8
Visible (ISO)
100
AcDbLine
 10
34371.08862852836
 20
12470.05796627303
 30
0.0
 11
34304.08862852837
 21
12470.05796627303
 31
0.0
  0
LINE
  5
18D
330
6C
100
AcDbEntity
  8
Visible (ISO)
100
AcDbLine
 10
34304.08862852837
 20
12462.05796627303
 30
0.0
 11
34371.08862852836
 21
12462.05796627303
 31
0.0
  0
LINE
  5
18E
330
6C
100
AcDbEntity
  8
Visible (ISO)
100
AcDbLine
 10
34471.08862852835
 20
12462.05796627303
 30
0.0
 11
35288.08862852836
 21
12462.05796627303
 31
0.0
  0
LINE
  5
18F
330
6C
100
AcDbEntity
  8
Visible (ISO)
100
AcDbLine
 10
35288.08862852836
 20
12462.05796627303
 30
0.0
 11
35288.08862852836
 21
12038.05796627303
 31
0.0
  0
LINE
  5
190
330
6C
100
AcDbEntity
  8
Visible (ISO)
100
AcDbLine
 10
35296.08862852836
 20
12038.05796627303
 30
0.0
 11
35296.08862852836
 21
12462.05796627303
 31
0.0
  0
LINE
  5
191
330
6C
100
AcDbEntity
  8
Visible (ISO)
100
AcDbLine
 10
34304.08862852837
 20
12038.05796627303
 30
0.0
 11
34304.08862852837
 21
12462.05796627303
 31
0.0
  0
LINE
  5
192
330
6C
100
AcDbEntity
  8
Visible (ISO)
100
AcDbLine
 10
34296.08862852836
 20
12462.05796627303
 30
0.0
 11
34296.08862852836
 21
12038.05796627303
 31
0.0
  0
LINE
  5
193
330
6C
100
AcDbEntity
  8
Visible (ISO)
100
AcDbLine
 10
36304.08862852836
 20
12470.05796627303
 30
0.0
 11
36296.08862852835
 21
12478.05796627303
 31
0.0
  0
LINE
  5
194
330
6C
100
AcDbEntity
  8
Visible (ISO)
100
AcDbLine
 10
36304.08862852836
 20
12478.05796627303
 30
0.0
 11
36304.08862852836
 21
12470.05796627303
 31
0.0
  0
LINE
  5
195
330
6C
100
AcDbEntity
  8
Visible (ISO)
100
AcDbLine
 10
36296.08862852835
 20
12478.05796627303
 30
0.0
 11
36304.08862852836
 21
12478.05796627303
 31
0.0
  0
LINE
  5
196
330
6C
100
AcDbEntity
  8
Visible (ISO)
100
AcDbLine
 10
36304.08862852836
 20
12470.05796627303
 30
0.0
 11
37046.08862852835
 21
12470.05796627303
 31
0.0
  0
LINE
  5
197
330
6C
100
AcDbEntity
  8
Visible (ISO)
100
AcDbLine
 10
37046.08862852835
 20
12478.05796627303
 30
0.0
 11
36304.08862852836
 21
12478.05796627303
 31
0.0
  0
LINE
  5
198
330
6C
100
AcDbEntity
  8
Visible (ISO)
100
AcDbLine
 10
36304.08862852836
 20
12902.05796627303
 30
0.0
 11
36296.08862852835
 21
12902.05796627303
 31
0.0
  0
LINE
  5
199
330
6C
100
AcDbEntity
  8
Visible (ISO)
100
AcDbLine
 10
36304.08862852836
 20
12910.05796627303
 30
0.0
 11
36304.08862852836
 21
12902.05796627303
 31
0.0
  0
LINE
  5
19A
330
6C
100
AcDbEntity
  8
Visible (ISO)
100
AcDbLine
 10
36296.08862852835
 20
12902.05796627303
 30
0.0
 11
36304.08862852836
 21
12910.05796627303
 31
0.0
  0
LINE
  5
19B
330
6C
100
AcDbEntity
  8
Visible (ISO)
100
AcDbLine
 10
37046.08862852835
 20
12910.05796627303
 30
0.0
 11
36304.08862852836
 21
12910.05796627303
 31
0.0
  0
LINE
  5
19C
330
6C
100
AcDbEntity
  8
Visible (ISO)
100
AcDbLine
 10
36304.08862852836
 20
12902.05796627303
 30
0.0
 11
37046.08862852835
 21
12902.05796627303
 31
0.0
  0
LINE
  5
19D
330
6C
100
AcDbEntity
  8
Visible (ISO)
100
AcDbLine
 10
36304.08862852836
 20
12478.05796627303
 30
0.0
 11
36304.08862852836
 21
12902.05796627303
 31
0.0
  0
LINE
  5
19E
330
6C
100
AcDbEntity
  8
Visible (ISO)
100
AcDbLine
 10
36296.08862852835
 20
12902.05796627303
 30
0.0
 11
36296.08862852835
 21
12478.05796627303
 31
0.0
  0
LINE
  5
19F
330
6C
100
AcDbEntity
  8
Visible (ISO)
100
AcDbLine
 10
34304.08862852837
 20
12470.05796627303
 30
0.0
 11
34296.08862852836
 21
12478.05796627303
 31
0.0
  0
LINE
  5
1A0
330
6C
100
AcDbEntity
  8
Visible (ISO)
100
AcDbLine
 10
34304.08862852837
 20
12478.05796627303
 30
0.0
 11
34304.08862852837
 21
12470.05796627303
 31
0.0
  0
LINE
  5
1A1
330
6C
100
AcDbEntity
  8
Visible (ISO)
100
AcDbLine
 10
34296.08862852836
 20
12478.05796627303
 30
0.0
 11
34304.08862852837
 21
12478.05796627303
 31
0.0
  0
LINE
  5
1A2
330
6C
100
AcDbEntity
  8
Visible (ISO)
100
AcDbLine
 10
34304.08862852837
 20
12902.05796627303
 30
0.0
 11
34296.08862852836
 21
12902.05796627303
 31
0.0
  0
LINE
  5
1A3
330
6C
100
AcDbEntity
  8
Visible (ISO)
100
AcDbLine
 10
34304.08862852837
 20
12910.05796627303
 30
0.0
 11
34304.08862852837
 21
12902.05796627303
 31
0.0
  0
LINE
  5
1A4
330
6C
100
AcDbEntity
  8
Visible (ISO)
100
AcDbLine
 10
34296.08862852836
 20
12902.05796627303
 30
0.0
 11
34304.08862852837
 21
12910.05796627303
 31
0.0
  0
LINE
  5
1A5
330
6C
100
AcDbEntity
  8
Visible (ISO)
100
AcDbLine
 10
35288.08862852836
 20
12478.05796627303
 30
0.0
 11
35296.08862852836
 21
12478.05796627303
 31
0.0
  0
LINE
  5
1A6
330
6C
100
AcDbEntity
  8
Visible (ISO)
100
AcDbLine
 10
35288.08862852836
 20
12470.05796627303
 30
0.0
 11
35288.08862852836
 21
12478.05796627303
 31
0.0
  0
LINE
  5
1A7
330
6C
100
AcDbEntity
  8
Visible (ISO)
100
AcDbLine
 10
35296.08862852836
 20
12478.05796627303
 30
0.0
 11
35288.08862852836
 21
12470.05796627303
 31
0.0
  0
LINE
  5
1A8
330
6C
100
AcDbEntity
  8
Visible (ISO)
100
AcDbLine
 10
35288.08862852836
 20
12478.05796627303
 30
0.0
 11
34471.08862852835
 21
12478.05796627303
 31
0.0
  0
LINE
  5
1A9
330
6C
100
AcDbEntity
  8
Visible (ISO)
100
AcDbLine
 10
34371.08862852836
 20
12478.05796627303
 30
0.0
 11
34304.08862852837
 21
12478.05796627303
 31
0.0
  0
LINE
  5
1AA
330
6C
100
AcDbEntity
  8
Visible (ISO)
100
AcDbLine
 10
34304.08862852837
 20
12470.05796627303
 30
0.0
 11
34371.08862852836
 21
12470.05796627303
 31
0.0
  0
LINE
  5
1AB
330
6C
100
AcDbEntity
  8
Visible (ISO)
100
AcDbLine
 10
34471.08862852835
 20
12470.05796627303
 30
0.0
 11
35288.08862852836
 21
12470.05796627303
 31
0.0
  0
LINE
  5
1AC
330
6C
100
AcDbEntity
  8
Visible (ISO)
100
AcDbLine
 10
35288.08862852836
 20
12910.05796627303
 30
0.0
 11
35296.08862852836
 21
12902.05796627303
 31
0.0
  0
LINE
  5
1AD
330
6C
100
AcDbEntity
  8
Visible (ISO)
100
AcDbLine
 10
35288.08862852836
 20
12902.05796627303
 30
0.0
 11
35288.08862852836
 21
12910.05796627303
 31
0.0
  0
LINE
  5
1AE
330
6C
100
AcDbEntity
  8
Visible (ISO)
100
AcDbLine
 10
35296.08862852836
 20
12902.05796627303
 30
0.0
 11
35288.08862852836
 21
12902.05796627303
 31
0.0
  0
LINE
  5
1AF
330
6C
100
AcDbEntity
  8
Visible (ISO)
100
AcDbLine
 10
35288.08862852836
 20
12910.05796627303
 30
0.0
 11
34471.08862852836
 21
12910.05796627303
 31
0.0
  0
LINE
  5
1B0
330
6C
100
AcDbEntity
  8
Visible (ISO)
100
AcDbLine
 10
34371.08862852836
 20
12910.05796627303
 30
0.0
 11
34304.08862852837
 21
12910.05796627303
 31
0.0
  0
LINE
  5
1B1
330
6C
100
AcDbEntity
  8
Visible (ISO)
100
AcDbLine
 10
34304.08862852837
 20
12902.05796627303
 30
0.0
 11
34371.08862852836
 21
12902.05796627303
 31
0.0
  0
LINE
  5
1B2
330
6C
100
AcDbEntity
  8
Visible (ISO)
100
AcDbLine
 10
34471.08862852836
 20
12902.05796627303
 30
0.0
 11
35288.08862852836
 21
12902.05796627303
 31
0.0
  0
LINE
  5
1B3
330
6C
100
AcDbEntity
  8
Visible (ISO)
100
AcDbLine
 10
35288.08862852836
 20
12902.05796627303
 30
0.0
 11
35288.08862852836
 21
12478.05796627303
 31
0.0
  0
LINE
  5
1B4
330
6C
100
AcDbEntity
  8
Visible (ISO)
100
AcDbLine
 10
35296.08862852836
 20
12478.05796627303
 30
0.0
 11
35296.08862852836
 21
12902.05796627303
 31
0.0
  0
LINE
  5
1B5
330
6C
100
AcDbEntity
  8
Visible (ISO)
100
AcDbLine
 10
34304.08862852837
 20
12478.05796627303
 30
0.0
 11
34304.08862852837
 21
12902.05796627303
 31
0.0
  0
LINE
  5
1B6
330
6C
100
AcDbEntity
  8
Visible (ISO)
100
AcDbLine
 10
34296.08862852836
 20
12902.05796627303
 30
0.0
 11
34296.08862852836
 21
12478.05796627303
 31
0.0
  0
LINE
  5
1B7
330
6C
100
AcDbEntity
  8
Visible (ISO)
100
AcDbLine
 10
37295.88658749948
 20
12918.05796627303
 30
0.0
 11
37296.08862852835
 21
12918.05796627303
 31
0.0
  0
LINE
  5
1B8
330
6C
100
AcDbEntity
  8
Visible (ISO)
100
AcDbLine
 10
37288.08862852835
 20
12910.05796627303
 30
0.0
 11
37288.08862852835
 21
12910.26000730189
 31
0.0
  0
LINE
  5
1B9
330
6C
100
AcDbEntity
  8
Visible (ISO)
100
AcDbLine
 10
37296.08862852835
 20
12918.05796627303
 30
0.0
 11
37295.83028591513
 21
12917.7996236598
 31
0.0
  0
LINE
  5
1BA
330
6C
100
AcDbEntity
  8
Visible (ISO)
100
AcDbLine
 10
37288.34697114158
 20
12910.31630888626
 30
0.0
 11
37288.08862852835
 21
12910.05796627303
 31
0.0
  0
LINE
  5
1BB
330
6C
100
AcDbEntity
  8
Visible (ISO)
100
AcDbLine
 10
37288.08862852835
 20
13350.05796627303
 30
0.0
 11
37296.08862852835
 21
13342.05796627303
 31
0.0
  0
LINE
  5
1BC
330
6C
100
AcDbEntity
  8
Visible (ISO)
100
AcDbLine
 10
37288.08862852835
 20
13342.05796627303
 30
0.0
 11
37288.08862852835
 21
13350.05796627303
 31
0.0
  0
LINE
  5
1BD
330
6C
100
AcDbEntity
  8
Visible (ISO)
100
AcDbLine
 10
37296.08862852835
 20
13342.05796627303
 30
0.0
 11
37288.08862852835
 21
13342.05796627303
 31
0.0
  0
LINE
  5
1BE
330
6C
100
AcDbEntity
  8
Visible (ISO)
100
AcDbLine
 10
36304.08862852836
 20
12910.05796627303
 30
0.0
 11
36296.08862852835
 21
12918.05796627303
 31
0.0
  0
LINE
  5
1BF
330
6C
100
AcDbEntity
  8
Visible (ISO)
100
AcDbLine
 10
36304.08862852836
 20
12918.05796627303
 30
0.0
 11
36304.08862852836
 21
12910.05796627303
 31
0.0
  0
LINE
  5
1C0
330
6C
100
AcDbEntity
  8
Visible (ISO)
100
AcDbLine
 10
36296.08862852835
 20
12918.05796627303
 30
0.0
 11
36304.08862852836
 21
12918.05796627303
 31
0.0
  0
LINE
  5
1C1
330
6C
100
AcDbEntity
  8
Visible (ISO)
100
AcDbLine
 10
36304.08862852836
 20
12910.05796627303
 30
0.0
 11
37046.08862852835
 21
12910.05796627303
 31
0.0
  0
LINE
  5
1C2
330
6C
100
AcDbEntity
  8
Visible (ISO)
100
AcDbLine
 10
37046.08862852835
 20
12918.05796627303
 30
0.0
 11
36304.08862852836
 21
12918.05796627303
 31
0.0
  0
LINE
  5
1C3
330
6C
100
AcDbEntity
  8
Visible (ISO)
100
AcDbLine
 10
36304.08862852836
 20
13342.05796627303
 30
0.0
 11
36296.08862852835
 21
13342.05796627303
 31
0.0
  0
LINE
  5
1C4
330
6C
100
AcDbEntity
  8
Visible (ISO)
100
AcDbLine
 10
36304.08862852836
 20
13350.05796627303
 30
0.0
 11
36304.08862852836
 21
13342.05796627303
 31
0.0
  0
LINE
  5
1C5
330
6C
100
AcDbEntity
  8
Visible (ISO)
100
AcDbLine
 10
36296.08862852835
 20
13342.05796627303
 30
0.0
 11
36304.08862852836
 21
13350.05796627303
 31
0.0
  0
LINE
  5
1C6
330
6C
100
AcDbEntity
  8
Visible (ISO)
100
AcDbLine
 10
37288.08862852835
 20
13350.05796627303
 30
0.0
 11
36304.08862852836
 21
13350.05796627303
 31
0.0
  0
LINE
  5
1C7
330
6C
100
AcDbEntity
  8
Visible (ISO)
100
AcDbLine
 10
36304.08862852836
 20
13342.05796627303
 30
0.0
 11
37288.08862852835
 21
13342.05796627303
 31
0.0
  0
LINE
  5
1C8
330
6C
100
AcDbEntity
  8
Visible (ISO)
100
AcDbLine
 10
36304.08862852836
 20
12918.05796627303
 30
0.0
 11
36304.08862852836
 21
13342.05796627303
 31
0.0
  0
LINE
  5
1C9
330
6C
100
AcDbEntity
  8
Visible (ISO)
100
AcDbLine
 10
36296.08862852835
 20
13342.05796627303
 30
0.0
 11
36296.08862852835
 21
12980.05796627303
 31
0.0
  0
LINE
  5
1CA
330
6C
100
AcDbEntity
  8
Visible (ISO)
100
AcDbLine
 10
36296.08862852835
 20
12920.05796627303
 30
0.0
 11
36296.08862852835
 21
12918.05796627303
 31
0.0
  0
LINE
  5
1CB
330
6C
100
AcDbEntity
  8
Visible (ISO)
100
AcDbLine
 10
37288.08862852835
 20
13342.05796627303
 30
0.0
 11
37288.08862852835
 21
13179.05796627303
 31
0.0
  0
LINE
  5
1CC
330
6C
100
AcDbEntity
  8
Visible (ISO)
100
AcDbLine
 10
37288.08862852835
 20
13141.05796627303
 30
0.0
 11
37288.08862852835
 21
12989.85592524416
 31
0.0
  0
LINE
  5
1CD
330
6C
100
AcDbEntity
  8
Visible (ISO)
100
AcDbLine
 10
37296.08862852835
 20
12918.05796627303
 30
0.0
 11
37296.08862852835
 21
12920.05796627303
 31
0.0
  0
LINE
  5
1CE
330
6C
100
AcDbEntity
  8
Visible (ISO)
100
AcDbLine
 10
37296.08862852835
 20
12980.05796627303
 30
0.0
 11
37296.08862852835
 21
13141.05796627303
 31
0.0
  0
LINE
  5
1CF
330
6C
100
AcDbEntity
  8
Visible (ISO)
100
AcDbLine
 10
37296.08862852835
 20
13179.05796627303
 30
0.0
 11
37296.08862852835
 21
13342.05796627303
 31
0.0
  0
LINE
  5
1D0
330
6C
100
AcDbEntity
  8
Visible (ISO)
100
AcDbLine
 10
34304.08862852837
 20
12910.05796627303
 30
0.0
 11
34296.08862852836
 21
12918.05796627303
 31
0.0
  0
LINE
  5
1D1
330
6C
100
AcDbEntity
  8
Visible (ISO)
100
AcDbLine
 10
34304.08862852837
 20
12918.05796627303
 30
0.0
 11
34304.08862852837
 21
12910.05796627303
 31
0.0
  0
LINE
  5
1D2
330
6C
100
AcDbEntity
  8
Visible (ISO)
100
AcDbLine
 10
34296.08862852836
 20
12918.05796627303
 30
0.0
 11
34304.08862852837
 21
12918.05796627303
 31
0.0
  0
LINE
  5
1D3
330
6C
100
AcDbEntity
  8
Visible (ISO)
100
AcDbLine
 10
34304.08862852837
 20
13342.05796627303
 30
0.0
 11
34296.08862852836
 21
13342.05796627303
 31
0.0
  0
LINE
  5
1D4
330
6C
100
AcDbEntity
  8
Visible (ISO)
100
AcDbLine
 10
34304.08862852837
 20
13350.05796627303
 30
0.0
 11
34304.08862852837
 21
13342.05796627303
 31
0.0
  0
LINE
  5
1D5
330
6C
100
AcDbEntity
  8
Visible (ISO)
100
AcDbLine
 10
34296.08862852836
 20
13342.05796627303
 30
0.0
 11
34304.08862852837
 21
13350.05796627303
 31
0.0
  0
LINE
  5
1D6
330
6C
100
AcDbEntity
  8
Visible (ISO)
100
AcDbLine
 10
35288.08862852836
 20
12918.05796627303
 30
0.0
 11
35296.08862852836
 21
12918.05796627303
 31
0.0
  0
LINE
  5
1D7
330
6C
100
AcDbEntity
  8
Visible (ISO)
100
AcDbLine
 10
35288.08862852836
 20
12910.05796627303
 30
0.0
 11
35288.08862852836
 21
12918.05796627303
 31
0.0
  0
LINE
  5
1D8
330
6C
100
AcDbEntity
  8
Visible (ISO)
100
AcDbLine
 10
35296.08862852836
 20
12918.05796627303
 30
0.0
 11
35288.08862852836
 21
12910.05796627303
 31
0.0
  0
LINE
  5
1D9
330
6C
100
AcDbEntity
  8
Visible (ISO)
100
AcDbLine
 10
35288.08862852836
 20
12918.05796627303
 30
0.0
 11
34471.08862852836
 21
12918.05796627303
 31
0.0
  0
LINE
  5
1DA
330
6C
100
AcDbEntity
  8
Visible (ISO)
100
AcDbLine
 10
34371.08862852836
 20
12918.05796627303
 30
0.0
 11
34304.08862852837
 21
12918.05796627303
 31
0.0
  0
LINE
  5
1DB
330
6C
100
AcDbEntity
  8
Visible (ISO)
100
AcDbLine
 10
34304.08862852837
 20
12910.05796627303
 30
0.0
 11
34371.08862852836
 21
12910.05796627303
 31
0.0
  0
LINE
  5
1DC
330
6C
100
AcDbEntity
  8
Visible (ISO)
100
AcDbLine
 10
34471.08862852836
 20
12910.05796627303
 30
0.0
 11
35288.08862852836
 21
12910.05796627303
 31
0.0
  0
LINE
  5
1DD
330
6C
100
AcDbEntity
  8
Visible (ISO)
100
AcDbLine
 10
35288.08862852836
 20
13350.05796627303
 30
0.0
 11
35296.08862852836
 21
13342.05796627303
 31
0.0
  0
LINE
  5
1DE
330
6C
100
AcDbEntity
  8
Visible (ISO)
100
AcDbLine
 10
35288.08862852836
 20
13342.05796627303
 30
0.0
 11
35288.08862852836
 21
13350.05796627303
 31
0.0
  0
LINE
  5
1DF
330
6C
100
AcDbEntity
  8
Visible (ISO)
100
AcDbLine
 10
35296.08862852836
 20
13342.05796627303
 30
0.0
 11
35288.08862852836
 21
13342.05796627303
 31
0.0
  0
LINE
  5
1E0
330
6C
100
AcDbEntity
  8
Visible (ISO)
100
AcDbLine
 10
35288.08862852836
 20
13350.05796627303
 30
0.0
 11
34471.08862852836
 21
13350.05796627303
 31
0.0
  0
LINE
  5
1E1
330
6C
100
AcDbEntity
  8
Visible (ISO)
100
AcDbLine
 10
34371.08862852837
 20
13350.05796627303
 30
0.0
 11
34304.08862852837
 21
13350.05796627303
 31
0.0
  0
LINE
  5
1E2
330
6C
100
AcDbEntity
  8
Visible (ISO)
100
AcDbLine
 10
34304.08862852837
 20
13342.05796627303
 30
0.0
 11
34371.08862852837
 21
13342.05796627303
 31
0.0
  0
LINE
  5
1E3
330
6C
100
AcDbEntity
  8
Visible (ISO)
100
AcDbLine
 10
34471.08862852836
 20
13342.05796627303
 30
0.0
 11
35288.08862852836
 21
13342.05796627303
 31
0.0
  0
LINE
  5
1E4
330
6C
100
AcDbEntity
  8
Visible (ISO)
100
AcDbLine
 10
35288.08862852836
 20
13342.05796627303
 30
0.0
 11
35288.08862852836
 21
12918.05796627303
 31
0.0
  0
LINE
  5
1E5
330
6C
100
AcDbEntity
  8
Visible (ISO)
100
AcDbLine
 10
35296.08862852836
 20
12918.05796627303
 30
0.0
 11
35296.08862852836
 21
12920.05796627303
 31
0.0
  0
LINE
  5
1E6
330
6C
100
AcDbEntity
  8
Visible (ISO)
100
AcDbLine
 10
35296.08862852836
 20
12980.05796627303
 30
0.0
 11
35296.08862852836
 21
13342.05796627303
 31
0.0
  0
LINE
  5
1E7
330
6C
100
AcDbEntity
  8
Visible (ISO)
100
AcDbLine
 10
34304.08862852837
 20
12918.05796627303
 30
0.0
 11
34304.08862852837
 21
13342.05796627303
 31
0.0
  0
LINE
  5
1E8
330
6C
100
AcDbEntity
  8
Visible (ISO)
100
AcDbLine
 10
34296.08862852836
 20
13342.05796627303
 30
0.0
 11
34296.08862852836
 21
12918.05796627303
 31
0.0
  0
LINE
  5
1E9
330
6C
100
AcDbEntity
  8
Visible (ISO)
100
AcDbLine
 10
37288.08862852835
 20
13358.05796627303
 30
0.0
 11
37296.08862852835
 21
13358.05796627303
 31
0.0
  0
LINE
  5
1EA
330
6C
100
AcDbEntity
  8
Visible (ISO)
100
AcDbLine
 10
37288.08862852835
 20
13350.05796627303
 30
0.0
 11
37288.08862852835
 21
13358.05796627303
 31
0.0
  0
LINE
  5
1EB
330
6C
100
AcDbEntity
  8
Visible (ISO)
100
AcDbLine
 10
37296.08862852835
 20
13358.05796627303
 30
0.0
 11
37288.08862852835
 21
13350.05796627303
 31
0.0
  0
LINE
  5
1EC
330
6C
100
AcDbEntity
  8
Visible (ISO)
100
AcDbLine
 10
37288.08862852835
 20
13790.05796627303
 30
0.0
 11
37296.08862852835
 21
13782.05796627303
 31
0.0
  0
LINE
  5
1ED
330
6C
100
AcDbEntity
  8
Visible (ISO)
100
AcDbLine
 10
37288.08862852835
 20
13782.05796627303
 30
0.0
 11
37288.08862852835
 21
13790.05796627303
 31
0.0
  0
LINE
  5
1EE
330
6C
100
AcDbEntity
  8
Visible (ISO)
100
AcDbLine
 10
37296.08862852835
 20
13782.05796627303
 30
0.0
 11
37288.08862852835
 21
13782.05796627303
 31
0.0
  0
LINE
  5
1EF
330
6C
100
AcDbEntity
  8
Visible (ISO)
100
AcDbLine
 10
36304.08862852836
 20
13350.05796627303
 30
0.0
 11
36296.08862852835
 21
13358.05796627303
 31
0.0
  0
LINE
  5
1F0
330
6C
100
AcDbEntity
  8
Visible (ISO)
100
AcDbLine
 10
36304.08862852836
 20
13358.05796627303
 30
0.0
 11
36304.08862852836
 21
13350.05796627303
 31
0.0
  0
LINE
  5
1F1
330
6C
100
AcDbEntity
  8
Visible (ISO)
100
AcDbLine
 10
36296.08862852835
 20
13358.05796627303
 30
0.0
 11
36304.08862852836
 21
13358.05796627303
 31
0.0
  0
LINE
  5
1F2
330
6C
100
AcDbEntity
  8
Visible (ISO)
100
AcDbLine
 10
36304.08862852836
 20
13350.05796627303
 30
0.0
 11
37288.08862852835
 21
13350.05796627303
 31
0.0
  0
LINE
  5
1F3
330
6C
100
AcDbEntity
  8
Visible (ISO)
100
AcDbLine
 10
37288.08862852835
 20
13358.05796627303
 30
0.0
 11
36304.08862852836
 21
13358.05796627303
 31
0.0
  0
LINE
  5
1F4
330
6C
100
AcDbEntity
  8
Visible (ISO)
100
AcDbLine
 10
36304.08862852836
 20
13782.05796627303
 30
0.0
 11
36296.08862852835
 21
13782.05796627303
 31
0.0
  0
LINE
  5
1F5
330
6C
100
AcDbEntity
  8
Visible (ISO)
100
AcDbLine
 10
36304.08862852836
 20
13790.05796627303
 30
0.0
 11
36304.08862852836
 21
13782.05796627303
 31
0.0
  0
LINE
  5
1F6
330
6C
100
AcDbEntity
  8
Visible (ISO)
100
AcDbLine
 10
36296.08862852835
 20
13782.05796627303
 30
0.0
 11
36304.08862852836
 21
13790.05796627303
 31
0.0
  0
LINE
  5
1F7
330
6C
100
AcDbEntity
  8
Visible (ISO)
100
AcDbLine
 10
37288.08862852835
 20
13790.05796627303
 30
0.0
 11
36304.08862852836
 21
13790.05796627303
 31
0.0
  0
LINE
  5
1F8
330
6C
100
AcDbEntity
  8
Visible (ISO)
100
AcDbLine
 10
36304.08862852836
 20
13782.05796627303
 30
0.0
 11
37288.08862852835
 21
13782.05796627303
 31
0.0
  0
LINE
  5
1F9
330
6C
100
AcDbEntity
  8
Visible (ISO)
100
AcDbLine
 10
36304.08862852836
 20
13358.05796627303
 30
0.0
 11
36304.08862852836
 21
13782.05796627303
 31
0.0
  0
LINE
  5
1FA
330
6C
100
AcDbEntity
  8
Visible (ISO)
100
AcDbLine
 10
36296.08862852835
 20
13782.05796627303
 30
0.0
 11
36296.08862852835
 21
13358.05796627303
 31
0.0
  0
LINE
  5
1FB
330
6C
100
AcDbEntity
  8
Visible (ISO)
100
AcDbLine
 10
37288.08862852835
 20
13782.05796627303
 30
0.0
 11
37288.08862852835
 21
13358.05796627303
 31
0.0
  0
LINE
  5
1FC
330
6C
100
AcDbEntity
  8
Visible (ISO)
100
AcDbLine
 10
37296.08862852835
 20
13358.05796627303
 30
0.0
 11
37296.08862852835
 21
13782.05796627303
 31
0.0
  0
LINE
  5
1FD
330
6C
100
AcDbEntity
  8
Visible (ISO)
100
AcDbLine
 10
34304.08862852837
 20
13350.05796627303
 30
0.0
 11
34296.08862852836
 21
13358.05796627303
 31
0.0
  0
LINE
  5
1FE
330
6C
100
AcDbEntity
  8
Visible (ISO)
100
AcDbLine
 10
34304.08862852837
 20
13358.05796627303
 30
0.0
 11
34304.08862852837
 21
13350.05796627303
 31
0.0
  0
LINE
  5
1FF
330
6C
100
AcDbEntity
  8
Visible (ISO)
100
AcDbLine
 10
34296.08862852836
 20
13358.05796627303
 30
0.0
 11
34304.08862852837
 21
13358.05796627303
 31
0.0
  0
LINE
  5
200
330
6C
100
AcDbEntity
  8
Visible (ISO)
100
AcDbLine
 10
34304.08862852837
 20
13782.05796627303
 30
0.0
 11
34296.08862852836
 21
13782.05796627303
 31
0.0
  0
LINE
  5
201
330
6C
100
AcDbEntity
  8
Visible (ISO)
100
AcDbLine
 10
34304.08862852837
 20
13790.05796627303
 30
0.0
 11
34304.08862852837
 21
13782.05796627303
 31
0.0
  0
LINE
  5
202
330
6C
100
AcDbEntity
  8
Visible (ISO)
100
AcDbLine
 10
34296.08862852836
 20
13782.05796627303
 30
0.0
 11
34304.08862852837
 21
13790.05796627303
 31
0.0
  0
LINE
  5
203
330
6C
100
AcDbEntity
  8
Visible (ISO)
100
AcDbLine
 10
35288.08862852836
 20
13358.05796627303
 30
0.0
 11
35296.08862852836
 21
13358.05796627303
 31
0.0
  0
LINE
  5
204
330
6C
100
AcDbEntity
  8
Visible (ISO)
100
AcDbLine
 10
35288.08862852836
 20
13350.05796627303
 30
0.0
 11
35288.08862852836
 21
13358.05796627303
 31
0.0
  0
LINE
  5
205
330
6C
100
AcDbEntity
  8
Visible (ISO)
100
AcDbLine
 10
35296.08862852836
 20
13358.05796627303
 30
0.0
 11
35288.08862852836
 21
13350.05796627303
 31
0.0
  0
LINE
  5
206
330
6C
100
AcDbEntity
  8
Visible (ISO)
100
AcDbLine
 10
35288.08862852836
 20
13358.05796627303
 30
0.0
 11
34471.08862852836
 21
13358.05796627303
 31
0.0
  0
LINE
  5
207
330
6C
100
AcDbEntity
  8
Visible (ISO)
100
AcDbLine
 10
34371.08862852837
 20
13358.05796627303
 30
0.0
 11
34304.08862852837
 21
13358.05796627303
 31
0.0
  0
LINE
  5
208
330
6C
100
AcDbEntity
  8
Visible (ISO)
100
AcDbLine
 10
34304.08862852837
 20
13350.05796627303
 30
0.0
 11
34371.08862852837
 21
13350.05796627303
 31
0.0
  0
LINE
  5
209
330
6C
100
AcDbEntity
  8
Visible (ISO)
100
AcDbLine
 10
34471.08862852836
 20
13350.05796627303
 30
0.0
 11
35288.08862852836
 21
13350.05796627303
 31
0.0
  0
LINE
  5
20A
330
6C
100
AcDbEntity
  8
Visible (ISO)
100
AcDbLine
 10
35288.08862852836
 20
13790.05796627303
 30
0.0
 11
35296.08862852836
 21
13782.05796627303
 31
0.0
  0
LINE
  5
20B
330
6C
100
AcDbEntity
  8
Visible (ISO)
100
AcDbLine
 10
35288.08862852836
 20
13782.05796627303
 30
0.0
 11
35288.08862852836
 21
13790.05796627303
 31
0.0
  0
LINE
  5
20C
330
6C
100
AcDbEntity
  8
Visible (ISO)
100
AcDbLine
 10
35296.08862852836
 20
13782.05796627303
 30
0.0
 11
35288.08862852836
 21
13782.05796627303
 31
0.0
  0
LINE
  5
20D
330
6C
100
AcDbEntity
  8
Visible (ISO)
100
AcDbLine
 10
35288.08862852836
 20
13790.05796627303
 30
0.0
 11
34471.08862852836
 21
13790.05796627303
 31
0.0
  0
LINE
  5
20E
330
6C
100
AcDbEntity
  8
Visible (ISO)
100
AcDbLine
 10
34371.08862852837
 20
13790.05796627303
 30
0.0
 11
34304.08862852837
 21
13790.05796627303
 31
0.0
  0
LINE
  5
20F
330
6C
100
AcDbEntity
  8
Visible (ISO)
100
AcDbLine
 10
34304.08862852837
 20
13782.05796627303
 30
0.0
 11
34371.08862852837
 21
13782.05796627303
 31
0.0
  0
LINE
  5
210
330
6C
100
AcDbEntity
  8
Visible (ISO)
100
AcDbLine
 10
34471.08862852836
 20
13782.05796627303
 30
0.0
 11
35288.08862852836
 21
13782.05796627303
 31
0.0
  0
LINE
  5
211
330
6C
100
AcDbEntity
  8
Visible (ISO)
100
AcDbLine
 10
35288.08862852836
 20
13782.05796627303
 30
0.0
 11
35288.08862852836
 21
13358.05796627303
 31
0.0
  0
LINE
  5
212
330
6C
100
AcDbEntity
  8
Visible (ISO)
100
AcDbLine
 10
35296.08862852836
 20
13358.05796627303
 30
0.0
 11
35296.08862852836
 21
13782.05796627303
 31
0.0
  0
LINE
  5
213
330
6C
100
AcDbEntity
  8
Visible (ISO)
100
AcDbLine
 10
34304.08862852837
 20
13358.05796627303
 30
0.0
 11
34304.08862852837
 21
13782.05796627303
 31
0.0
  0
LINE
  5
214
330
6C
100
AcDbEntity
  8
Visible (ISO)
100
AcDbLine
 10
34296.08862852836
 20
13782.05796627303
 30
0.0
 11
34296.08862852836
 21
13358.05796627303
 31
0.0
  0
LINE
  5
215
330
6C
100
AcDbEntity
  8
Visible (ISO)
100
AcDbLine
 10
37288.08862852835
 20
13798.05796627303
 30
0.0
 11
37296.08862852835
 21
13798.05796627303
 31
0.0
  0
LINE
  5
216
330
6C
100
AcDbEntity
  8
Visible (ISO)
100
AcDbLine
 10
37288.08862852835
 20
13790.05796627303
 30
0.0
 11
37288.08862852835
 21
13798.05796627303
 31
0.0
  0
LINE
  5
217
330
6C
100
AcDbEntity
  8
Visible (ISO)
100
AcDbLine
 10
37296.08862852835
 20
13798.05796627303
 30
0.0
 11
37288.08862852835
 21
13790.05796627303
 31
0.0
  0
LINE
  5
218
330
6C
100
AcDbEntity
  8
Visible (ISO)
100
AcDbLine
 10
37288.08862852835
 20
14230.05796627303
 30
0.0
 11
37296.08862852835
 21
14222.05796627303
 31
0.0
  0
LINE
  5
219
330
6C
100
AcDbEntity
  8
Visible (ISO)
100
AcDbLine
 10
37288.08862852835
 20
14222.05796627303
 30
0.0
 11
37288.08862852835
 21
14230.05796627303
 31
0.0
  0
LINE
  5
21A
330
6C
100
AcDbEntity
  8
Visible (ISO)
100
AcDbLine
 10
37296.08862852835
 20
14222.05796627303
 30
0.0
 11
37288.08862852835
 21
14222.05796627303
 31
0.0
  0
LINE
  5
21B
330
6C
100
AcDbEntity
  8
Visible (ISO)
100
AcDbLine
 10
36304.08862852836
 20
13790.05796627303
 30
0.0
 11
36296.08862852835
 21
13798.05796627303
 31
0.0
  0
LINE
  5
21C
330
6C
100
AcDbEntity
  8
Visible (ISO)
100
AcDbLine
 10
36304.08862852836
 20
13798.05796627303
 30
0.0
 11
36304.08862852836
 21
13790.05796627303
 31
0.0
  0
LINE
  5
21D
330
6C
100
AcDbEntity
  8
Visible (ISO)
100
AcDbLine
 10
36296.08862852835
 20
13798.05796627303
 30
0.0
 11
36304.08862852836
 21
13798.05796627303
 31
0.0
  0
LINE
  5
21E
330
6C
100
AcDbEntity
  8
Visible (ISO)
100
AcDbLine
 10
36304.08862852836
 20
13790.05796627303
 30
0.0
 11
37288.08862852835
 21
13790.05796627303
 31
0.0
  0
LINE
  5
21F
330
6C
100
AcDbEntity
  8
Visible (ISO)
100
AcDbLine
 10
37288.08862852835
 20
13798.05796627303
 30
0.0
 11
36304.08862852836
 21
13798.05796627303
 31
0.0
  0
LINE
  5
220
330
6C
100
AcDbEntity
  8
Visible (ISO)
100
AcDbLine
 10
36304.08862852836
 20
14222.05796627303
 30
0.0
 11
36296.08862852835
 21
14222.05796627303
 31
0.0
  0
LINE
  5
221
330
6C
100
AcDbEntity
  8
Visible (ISO)
100
AcDbLine
 10
36304.08862852836
 20
14230.05796627303
 30
0.0
 11
36304.08862852836
 21
14222.05796627303
 31
0.0
  0
LINE
  5
222
330
6C
100
AcDbEntity
  8
Visible (ISO)
100
AcDbLine
 10
36296.08862852835
 20
14222.05796627303
 30
0.0
 11
36304.08862852836
 21
14230.05796627303
 31
0.0
  0
LINE
  5
223
330
6C
100
AcDbEntity
  8
Visible (ISO)
100
AcDbLine
 10
37288.08862852835
 20
14230.05796627303
 30
0.0
 11
36304.08862852836
 21
14230.05796627303
 31
0.0
  0
LINE
  5
224
330
6C
100
AcDbEntity
  8
Visible (ISO)
100
AcDbLine
 10
36304.08862852836
 20
14222.05796627303
 30
0.0
 11
37288.08862852835
 21
14222.05796627303
 31
0.0
  0
LINE
  5
225
330
6C
100
AcDbEntity
  8
Visible (ISO)
100
AcDbLine
 10
36304.08862852836
 20
13798.05796627303
 30
0.0
 11
36304.08862852836
 21
14222.05796627303
 31
0.0
  0
LINE
  5
226
330
6C
100
AcDbEntity
  8
Visible (ISO)
100
AcDbLine
 10
36296.08862852835
 20
14222.05796627303
 30
0.0
 11
36296.08862852835
 21
13798.05796627303
 31
0.0
  0
LINE
  5
227
330
6C
100
AcDbEntity
  8
Visible (ISO)
100
AcDbLine
 10
37288.08862852835
 20
14222.05796627303
 30
0.0
 11
37288.08862852835
 21
13798.05796627303
 31
0.0
  0
LINE
  5
228
330
6C
100
AcDbEntity
  8
Visible (ISO)
100
AcDbLine
 10
37296.08862852835
 20
13798.05796627303
 30
0.0
 11
37296.08862852835
 21
14222.05796627303
 31
0.0
  0
LINE
  5
229
330
6C
100
AcDbEntity
  8
Visible (ISO)
100
AcDbLine
 10
34304.08862852837
 20
13790.05796627303
 30
0.0
 11
34296.08862852836
 21
13798.05796627303
 31
0.0
  0
LINE
  5
22A
330
6C
100
AcDbEntity
  8
Visible (ISO)
100
AcDbLine
 10
34304.08862852837
 20
13798.05796627303
 30
0.0
 11
34304.08862852837
 21
13790.05796627303
 31
0.0
  0
LINE
  5
22B
330
6C
100
AcDbEntity
  8
Visible (ISO)
100
AcDbLine
 10
34296.08862852836
 20
13798.05796627303
 30
0.0
 11
34304.08862852837
 21
13798.05796627303
 31
0.0
  0
LINE
  5
22C
330
6C
100
AcDbEntity
  8
Visible (ISO)
100
AcDbLine
 10
34304.08862852837
 20
14222.05796627303
 30
0.0
 11
34296.08862852836
 21
14222.05796627303
 31
0.0
  0
LINE
  5
22D
330
6C
100
AcDbEntity
  8
Visible (ISO)
100
AcDbLine
 10
34304.08862852837
 20
14230.05796627303
 30
0.0
 11
34304.08862852837
 21
14222.05796627303
 31
0.0
  0
LINE
  5
22E
330
6C
100
AcDbEntity
  8
Visible (ISO)
100
AcDbLine
 10
34296.08862852836
 20
14222.05796627303
 30
0.0
 11
34304.08862852837
 21
14230.05796627303
 31
0.0
  0
LINE
  5
22F
330
6C
100
AcDbEntity
  8
Visible (ISO)
100
AcDbLine
 10
35288.08862852836
 20
13798.05796627303
 30
0.0
 11
35296.08862852836
 21
13798.05796627303
 31
0.0
  0
LINE
  5
230
330
6C
100
AcDbEntity
  8
Visible (ISO)
100
AcDbLine
 10
35288.08862852836
 20
13790.05796627303
 30
0.0
 11
35288.08862852836
 21
13798.05796627303
 31
0.0
  0
LINE
  5
231
330
6C
100
AcDbEntity
  8
Visible (ISO)
100
AcDbLine
 10
35296.08862852836
 20
13798.05796627303
 30
0.0
 11
35288.08862852836
 21
13790.05796627303
 31
0.0
  0
LINE
  5
232
330
6C
100
AcDbEntity
  8
Visible (ISO)
100
AcDbLine
 10
35288.08862852836
 20
13798.05796627303
 30
0.0
 11
34471.08862852836
 21
13798.05796627303
 31
0.0
  0
LINE
  5
233
330
6C
100
AcDbEntity
  8
Visible (ISO)
100
AcDbLine
 10
34371.08862852837
 20
13798.05796627303
 30
0.0
 11
34304.08862852837
 21
13798.05796627303
 31
0.0
  0
LINE
  5
234
330
6C
100
AcDbEntity
  8
Visible (ISO)
100
AcDbLine
 10
34304.08862852837
 20
13790.05796627303
 30
0.0
 11
34371.08862852837
 21
13790.05796627303
 31
0.0
  0
LINE
  5
235
330
6C
100
AcDbEntity
  8
Visible (ISO)
100
AcDbLine
 10
34471.08862852836
 20
13790.05796627303
 30
0.0
 11
35288.08862852836
 21
13790.05796627303
 31
0.0
  0
LINE
  5
236
330
6C
100
AcDbEntity
  8
Visible (ISO)
100
AcDbLine
 10
35288.08862852836
 20
14230.05796627303
 30
0.0
 11
35296.08862852836
 21
14222.05796627303
 31
0.0
  0
LINE
  5
237
330
6C
100
AcDbEntity
  8
Visible (ISO)
100
AcDbLine
 10
35288.08862852836
 20
14222.05796627303
 30
0.0
 11
35288.08862852836
 21
14230.05796627303
 31
0.0
  0
LINE
  5
238
330
6C
100
AcDbEntity
  8
Visible (ISO)
100
AcDbLine
 10
35296.08862852836
 20
14222.05796627303
 30
0.0
 11
35288.08862852836
 21
14222.05796627303
 31
0.0
  0
LINE
  5
239
330
6C
100
AcDbEntity
  8
Visible (ISO)
100
AcDbLine
 10
35288.08862852836
 20
14230.05796627303
 30
0.0
 11
34471.08862852836
 21
14230.05796627303
 31
0.0
  0
LINE
  5
23A
330
6C
100
AcDbEntity
  8
Visible (ISO)
100
AcDbLine
 10
34371.08862852837
 20
14230.05796627303
 30
0.0
 11
34304.08862852837
 21
14230.05796627303
 31
0.0
  0
LINE
  5
23B
330
6C
100
AcDbEntity
  8
Visible (ISO)
100
AcDbLine
 10
34304.08862852837
 20
14222.05796627303
 30
0.0
 11
34371.08862852837
 21
14222.05796627303
 31
0.0
  0
LINE
  5
23C
330
6C
100
AcDbEntity
  8
Visible (ISO)
100
AcDbLine
 10
34471.08862852837
 20
14222.05796627303
 30
0.0
 11
35288.08862852836
 21
14222.05796627303
 31
0.0
  0
LINE
  5
23D
330
6C
100
AcDbEntity
  8
Visible (ISO)
100
AcDbLine
 10
35288.08862852836
 20
14222.05796627303
 30
0.0
 11
35288.08862852836
 21
13798.05796627303
 31
0.0
  0
LINE
  5
23E
330
6C
100
AcDbEntity
  8
Visible (ISO)
100
AcDbLine
 10
35296.08862852836
 20
13798.05796627303
 30
0.0
 11
35296.08862852836
 21
14222.05796627303
 31
0.0
  0
LINE
  5
23F
330
6C
100
AcDbEntity
  8
Visible (ISO)
100
AcDbLine
 10
34304.08862852837
 20
13798.05796627303
 30
0.0
 11
34304.08862852837
 21
14222.05796627303
 31
0.0
  0
LINE
  5
240
330
6C
100
AcDbEntity
  8
Visible (ISO)
100
AcDbLine
 10
34296.08862852836
 20
14222.05796627303
 30
0.0
 11
34296.08862852836
 21
13798.05796627303
 31
0.0
  0
LINE
  5
241
330
6C
100
AcDbEntity
  8
Visible (ISO)
100
AcDbLine
 10
36288.08862852836
 20
12038.05796627303
 30
0.0
 11
36296.08862852836
 21
12038.05796627303
 31
0.0
  0
LINE
  5
242
330
6C
100
AcDbEntity
  8
Visible (ISO)
100
AcDbLine
 10
36288.08862852836
 20
12030.05796627303
 30
0.0
 11
36288.08862852836
 21
12038.05796627303
 31
0.0
  0
LINE
  5
243
330
6C
100
AcDbEntity
  8
Visible (ISO)
100
AcDbLine
 10
36296.08862852836
 20
12038.05796627303
 30
0.0
 11
36288.08862852836
 21
12030.05796627303
 31
0.0
  0
LINE
  5
244
330
6C
100
AcDbEntity
  8
Visible (ISO)
100
AcDbLine
 10
36288.08862852836
 20
12470.05796627303
 30
0.0
 11
36296.08862852836
 21
12462.05796627303
 31
0.0
  0
LINE
  5
245
330
6C
100
AcDbEntity
  8
Visible (ISO)
100
AcDbLine
 10
36288.08862852836
 20
12462.05796627303
 30
0.0
 11
36288.08862852836
 21
12470.05796627303
 31
0.0
  0
LINE
  5
246
330
6C
100
AcDbEntity
  8
Visible (ISO)
100
AcDbLine
 10
36296.08862852836
 20
12462.05796627303
 30
0.0
 11
36288.08862852836
 21
12462.05796627303
 31
0.0
  0
LINE
  5
247
330
6C
100
AcDbEntity
  8
Visible (ISO)
100
AcDbLine
 10
35304.08862852836
 20
12030.05796627303
 30
0.0
 11
35296.08862852836
 21
12038.05796627303
 31
0.0
  0
LINE
  5
248
330
6C
100
AcDbEntity
  8
Visible (ISO)
100
AcDbLine
 10
35304.08862852836
 20
12038.05796627303
 30
0.0
 11
35304.08862852836
 21
12030.05796627303
 31
0.0
  0
LINE
  5
249
330
6C
100
AcDbEntity
  8
Visible (ISO)
100
AcDbLine
 10
35296.08862852836
 20
12038.05796627303
 30
0.0
 11
35304.08862852836
 21
12038.05796627303
 31
0.0
  0
LINE
  5
24A
330
6C
100
AcDbEntity
  8
Visible (ISO)
100
AcDbLine
 10
36288.08862852836
 20
12038.05796627303
 30
0.0
 11
35304.08862852836
 21
12038.05796627303
 31
0.0
  0
LINE
  5
24B
330
6C
100
AcDbEntity
  8
Visible (ISO)
100
AcDbLine
 10
35304.08862852836
 20
12462.05796627303
 30
0.0
 11
35296.08862852836
 21
12462.05796627303
 31
0.0
  0
LINE
  5
24C
330
6C
100
AcDbEntity
  8
Visible (ISO)
100
AcDbLine
 10
35304.08862852836
 20
12470.05796627303
 30
0.0
 11
35304.08862852836
 21
12462.05796627303
 31
0.0
  0
LINE
  5
24D
330
6C
100
AcDbEntity
  8
Visible (ISO)
100
AcDbLine
 10
35296.08862852836
 20
12462.05796627303
 30
0.0
 11
35304.08862852836
 21
12470.05796627303
 31
0.0
  0
LINE
  5
24E
330
6C
100
AcDbEntity
  8
Visible (ISO)
100
AcDbLine
 10
36288.08862852836
 20
12470.05796627303
 30
0.0
 11
35304.08862852836
 21
12470.05796627303
 31
0.0
  0
LINE
  5
24F
330
6C
100
AcDbEntity
  8
Visible (ISO)
100
AcDbLine
 10
35304.08862852836
 20
12462.05796627303
 30
0.0
 11
36288.08862852836
 21
12462.05796627303
 31
0.0
  0
LINE
  5
250
330
6C
100
AcDbEntity
  8
Visible (ISO)
100
AcDbLine
 10
35304.08862852836
 20
12038.05796627303
 30
0.0
 11
35304.08862852836
 21
12462.05796627303
 31
0.0
  0
LINE
  5
251
330
6C
100
AcDbEntity
  8
Visible (ISO)
100
AcDbLine
 10
35296.08862852836
 20
12462.05796627303
 30
0.0
 11
35296.08862852836
 21
12038.05796627303
 31
0.0
  0
LINE
  5
252
330
6C
100
AcDbEntity
  8
Visible (ISO)
100
AcDbLine
 10
36288.08862852836
 20
12462.05796627303
 30
0.0
 11
36288.08862852836
 21
12038.05796627303
 31
0.0
  0
LINE
  5
253
330
6C
100
AcDbEntity
  8
Visible (ISO)
100
AcDbLine
 10
36296.08862852836
 20
12038.05796627303
 30
0.0
 11
36296.08862852836
 21
12462.05796627303
 31
0.0
  0
LINE
  5
254
330
6C
100
AcDbEntity
  8
Visible (ISO)
100
AcDbLine
 10
36288.08862852836
 20
12478.05796627303
 30
0.0
 11
36296.08862852836
 21
12478.05796627303
 31
0.0
  0
LINE
  5
255
330
6C
100
AcDbEntity
  8
Visible (ISO)
100
AcDbLine
 10
36288.08862852836
 20
12470.05796627303
 30
0.0
 11
36288.08862852836
 21
12478.05796627303
 31
0.0
  0
LINE
  5
256
330
6C
100
AcDbEntity
  8
Visible (ISO)
100
AcDbLine
 10
36296.08862852836
 20
12478.05796627303
 30
0.0
 11
36288.08862852836
 21
12470.05796627303
 31
0.0
  0
LINE
  5
257
330
6C
100
AcDbEntity
  8
Visible (ISO)
100
AcDbLine
 10
36288.08862852836
 20
12910.05796627303
 30
0.0
 11
36296.08862852836
 21
12902.05796627303
 31
0.0
  0
LINE
  5
258
330
6C
100
AcDbEntity
  8
Visible (ISO)
100
AcDbLine
 10
36288.08862852836
 20
12902.05796627303
 30
0.0
 11
36288.08862852836
 21
12910.05796627303
 31
0.0
  0
LINE
  5
259
330
6C
100
AcDbEntity
  8
Visible (ISO)
100
AcDbLine
 10
36296.08862852836
 20
12902.05796627303
 30
0.0
 11
36288.08862852836
 21
12902.05796627303
 31
0.0
  0
LINE
  5
25A
330
6C
100
AcDbEntity
  8
Visible (ISO)
100
AcDbLine
 10
35304.08862852836
 20
12470.05796627303
 30
0.0
 11
35296.08862852836
 21
12478.05796627303
 31
0.0
  0
LINE
  5
25B
330
6C
100
AcDbEntity
  8
Visible (ISO)
100
AcDbLine
 10
35304.08862852836
 20
12478.05796627303
 30
0.0
 11
35304.08862852836
 21
12470.05796627303
 31
0.0
  0
LINE
  5
25C
330
6C
100
AcDbEntity
  8
Visible (ISO)
100
AcDbLine
 10
35296.08862852836
 20
12478.05796627303
 30
0.0
 11
35304.08862852836
 21
12478.05796627303
 31
0.0
  0
LINE
  5
25D
330
6C
100
AcDbEntity
  8
Visible (ISO)
100
AcDbLine
 10
35304.08862852836
 20
12470.05796627303
 30
0.0
 11
36288.08862852836
 21
12470.05796627303
 31
0.0
  0
LINE
  5
25E
330
6C
100
AcDbEntity
  8
Visible (ISO)
100
AcDbLine
 10
36288.08862852836
 20
12478.05796627303
 30
0.0
 11
35304.08862852836
 21
12478.05796627303
 31
0.0
  0
LINE
  5
25F
330
6C
100
AcDbEntity
  8
Visible (ISO)
100
AcDbLine
 10
35304.08862852836
 20
12902.05796627303
 30
0.0
 11
35296.08862852836
 21
12902.05796627303
 31
0.0
  0
LINE
  5
260
330
6C
100
AcDbEntity
  8
Visible (ISO)
100
AcDbLine
 10
35304.08862852836
 20
12910.05796627303
 30
0.0
 11
35304.08862852836
 21
12902.05796627303
 31
0.0
  0
LINE
  5
261
330
6C
100
AcDbEntity
  8
Visible (ISO)
100
AcDbLine
 10
35296.08862852836
 20
12902.05796627303
 30
0.0
 11
35304.08862852836
 21
12910.05796627303
 31
0.0
  0
LINE
  5
262
330
6C
100
AcDbEntity
  8
Visible (ISO)
100
AcDbLine
 10
36288.08862852836
 20
12910.05796627303
 30
0.0
 11
35304.08862852836
 21
12910.05796627303
 31
0.0
  0
LINE
  5
263
330
6C
100
AcDbEntity
  8
Visible (ISO)
100
AcDbLine
 10
35304.08862852836
 20
12902.05796627303
 30
0.0
 11
36288.08862852836
 21
12902.05796627303
 31
0.0
  0
LINE
  5
264
330
6C
100
AcDbEntity
  8
Visible (ISO)
100
AcDbLine
 10
35304.08862852836
 20
12478.05796627303
 30
0.0
 11
35304.08862852836
 21
12902.05796627303
 31
0.0
  0
LINE
  5
265
330
6C
100
AcDbEntity
  8
Visible (ISO)
100
AcDbLine
 10
35296.08862852836
 20
12902.05796627303
 30
0.0
 11
35296.08862852836
 21
12478.05796627303
 31
0.0
  0
LINE
  5
266
330
6C
100
AcDbEntity
  8
Visible (ISO)
100
AcDbLine
 10
36288.08862852836
 20
12902.05796627303
 30
0.0
 11
36288.08862852836
 21
12478.05796627303
 31
0.0
  0
LINE
  5
267
330
6C
100
AcDbEntity
  8
Visible (ISO)
100
AcDbLine
 10
36296.08862852836
 20
12478.05796627303
 30
0.0
 11
36296.08862852836
 21
12902.05796627303
 31
0.0
  0
LINE
  5
268
330
6C
100
AcDbEntity
  8
Visible (ISO)
100
AcDbLine
 10
37288.08862852835
 20
12030.05796627303
 30
0.0
 11
37288.08862852835
 21
12038.05796627303
 31
0.0
  0
LINE
  5
269
330
6C
100
AcDbEntity
  8
Visible (ISO)
100
AcDbLine
 10
37296.08862852835
 20
12038.05796627303
 30
0.0
 11
37288.08862852835
 21
12030.05796627303
 31
0.0
  0
LINE
  5
26A
330
6C
100
AcDbEntity
  8
Visible (ISO)
100
AcDbLine
 10
37288.08862852835
 20
12038.05796627303
 30
0.0
 11
37296.08862852835
 21
12038.05796627303
 31
0.0
  0
LINE
  5
26B
330
6C
100
AcDbEntity
  8
Visible (ISO)
100
AcDbLine
 10
37296.08862852835
 20
12462.05796627303
 30
0.0
 11
37288.08862852835
 21
12462.05796627303
 31
0.0
  0
LINE
  5
26C
330
6C
100
AcDbEntity
  8
Visible (ISO)
100
AcDbLine
 10
37288.08862852835
 20
12470.05796627303
 30
0.0
 11
37296.08862852835
 21
12462.05796627303
 31
0.0
  0
LINE
  5
26D
330
6C
100
AcDbEntity
  8
Visible (ISO)
100
AcDbLine
 10
37288.08862852835
 20
12462.05796627303
 30
0.0
 11
37288.08862852835
 21
12470.05796627303
 31
0.0
  0
LINE
  5
26E
330
6C
100
AcDbEntity
  8
Visible (ISO)
100
AcDbLine
 10
37288.08862852835
 20
12470.05796627303
 30
0.0
 11
37146.08862852836
 21
12470.05796627303
 31
0.0
  0
LINE
  5
26F
330
6C
100
AcDbEntity
  8
Visible (ISO)
100
AcDbLine
 10
37146.08862852836
 20
12462.05796627303
 30
0.0
 11
37288.08862852835
 21
12462.05796627303
 31
0.0
  0
LINE
  5
270
330
6C
100
AcDbEntity
  8
Visible (ISO)
100
AcDbLine
 10
37296.08862852835
 20
12038.05796627303
 30
0.0
 11
37296.08862852835
 21
12462.05796627303
 31
0.0
  0
LINE
  5
271
330
6C
100
AcDbEntity
  8
Visible (ISO)
100
AcDbLine
 10
37288.08862852835
 20
12462.05796627303
 30
0.0
 11
37288.08862852835
 21
12038.05796627303
 31
0.0
  0
LINE
  5
272
330
6C
100
AcDbEntity
  8
Visible (ISO)
100
AcDbLine
 10
37288.08862852835
 20
12038.05796627303
 30
0.0
 11
37146.08862852836
 21
12038.05796627303
 31
0.0
  0
LINE
  5
273
330
6C
100
AcDbEntity
  8
Visible (ISO)
100
AcDbLine
 10
37288.08862852835
 20
12470.05796627303
 30
0.0
 11
37288.08862852835
 21
12478.05796627303
 31
0.0
  0
LINE
  5
274
330
6C
100
AcDbEntity
  8
Visible (ISO)
100
AcDbLine
 10
37296.08862852835
 20
12478.05796627303
 30
0.0
 11
37288.08862852835
 21
12470.05796627303
 31
0.0
  0
LINE
  5
275
330
6C
100
AcDbEntity
  8
Visible (ISO)
100
AcDbLine
 10
37288.08862852835
 20
12478.05796627303
 30
0.0
 11
37296.08862852835
 21
12478.05796627303
 31
0.0
  0
LINE
  5
276
330
6C
100
AcDbEntity
  8
Visible (ISO)
100
AcDbLine
 10
37296.08862852835
 20
12902.05796627303
 30
0.0
 11
37288.08862852835
 21
12902.05796627303
 31
0.0
  0
LINE
  5
277
330
6C
100
AcDbEntity
  8
Visible (ISO)
100
AcDbLine
 10
37288.08862852835
 20
12910.05796627303
 30
0.0
 11
37296.08862852835
 21
12902.05796627303
 31
0.0
  0
LINE
  5
278
330
6C
100
AcDbEntity
  8
Visible (ISO)
100
AcDbLine
 10
37288.08862852835
 20
12902.05796627303
 30
0.0
 11
37288.08862852835
 21
12910.05796627303
 31
0.0
  0
LINE
  5
279
330
6C
100
AcDbEntity
  8
Visible (ISO)
100
AcDbLine
 10
37288.08862852835
 20
12910.05796627303
 30
0.0
 11
37146.08862852836
 21
12910.05796627303
 31
0.0
  0
LINE
  5
27A
330
6C
100
AcDbEntity
  8
Visible (ISO)
100
AcDbLine
 10
37146.08862852836
 20
12902.05796627303
 30
0.0
 11
37288.08862852835
 21
12902.05796627303
 31
0.0
  0
LINE
  5
27B
330
6C
100
AcDbEntity
  8
Visible (ISO)
100
AcDbLine
 10
37296.08862852835
 20
12478.05796627303
 30
0.0
 11
37296.08862852835
 21
12902.05796627303
 31
0.0
  0
LINE
  5
27C
330
6C
100
AcDbEntity
  8
Visible (ISO)
100
AcDbLine
 10
37288.08862852835
 20
12902.05796627303
 30
0.0
 11
37288.08862852835
 21
12478.05796627303
 31
0.0
  0
LINE
  5
27D
330
6C
100
AcDbEntity
  8
Visible (ISO)
100
AcDbLine
 10
37146.08862852836
 20
12470.05796627303
 30
0.0
 11
37288.08862852835
 21
12470.05796627303
 31
0.0
  0
LINE
  5
27E
330
6C
100
AcDbEntity
  8
Visible (ISO)
100
AcDbLine
 10
37288.08862852835
 20
12478.05796627303
 30
0.0
 11
37146.08862852836
 21
12478.05796627303
 31
0.0
  0
ARC
  5
27F
330
6C
100
AcDbEntity
  8
Visible (ISO)
100
AcDbCircle
 10
36306.08862852836
 20
14300.05796627303
 30
0.0
 40
9.99999999999996
100
AcDbArc
 50
90.0
 51
180.0
  0
LINE
  5
280
330
6C
100
AcDbEntity
  8
Visible (ISO)
100
AcDbLine
 10
36296.08862852835
 20
14300.05796627303
 30
0.0
 11
36296.08862852835
 21
14240.05796627303
 31
0.0
  0
ARC
  5
281
330
6C
100
AcDbEntity
  8
Visible (ISO)
100
AcDbCircle
 10
36306.08862852836
 20
14240.05796627303
 30
0.0
 40
9.99999999999996
100
AcDbArc
 50
180.0
 51
270.0
  0
ARC
  5
282
330
6C
100
AcDbEntity
  8
Visible (ISO)
100
AcDbCircle
 10
37286.08862852835
 20
14240.05796627303
 30
0.0
 40
9.999999999999962
100
AcDbArc
 50
270.0
 51
0.0
  0
LINE
  5
283
330
6C
100
AcDbEntity
  8
Visible (ISO)
100
AcDbLine
 10
37296.08862852835
 20
14240.05796627303
 30
0.0
 11
37296.08862852835
 21
14300.05796627303
 31
0.0
  0
ARC
  5
284
330
6C
100
AcDbEntity
  8
Visible (ISO)
100
AcDbCircle
 10
37286.08862852835
 20
14300.05796627303
 30
0.0
 40
9.999999999999962
100
AcDbArc
 50
0.0
 51
90.0
  0
LINE
  5
285
330
6C
100
AcDbEntity
  8
Visible (ISO)
100
AcDbLine
 10
37286.08862852835
 20
14310.05796627303
 30
0.0
 11
36306.08862852836
 21
14310.05796627303
 31
0.0
  0
ARC
  5
286
330
6C
100
AcDbEntity
  8
Visible (ISO)
100
AcDbCircle
 10
35306.08862852837
 20
12980.05796627303
 30
0.0
 40
9.999999999999978
100
AcDbArc
 50
90.0
 51
180.0
  0
LINE
  5
287
330
6C
100
AcDbEntity
  8
Visible (ISO)
100
AcDbLine
 10
35296.08862852836
 20
12980.05796627303
 30
0.0
 11
35296.08862852836
 21
12920.05796627303
 31
0.0
  0
ARC
  5
288
330
6C
100
AcDbEntity
  8
Visible (ISO)
100
AcDbCircle
 10
35306.08862852837
 20
12920.05796627303
 30
0.0
 40
9.999999999999978
100
AcDbArc
 50
180.0
 51
270.0
  0
ARC
  5
289
330
6C
100
AcDbEntity
  8
Visible (ISO)
100
AcDbCircle
 10
36286.08862852836
 20
12920.05796627303
 30
0.0
 40
9.999999999999978
100
AcDbArc
 50
270.0
 51
0.0
  0
LINE
  5
28A
330
6C
100
AcDbEntity
  8
Visible (ISO)
100
AcDbLine
 10
36296.08862852836
 20
12920.05796627303
 30
0.0
 11
36296.08862852836
 21
12980.05796627303
 31
0.0
  0
ARC
  5
28B
330
6C
100
AcDbEntity
  8
Visible (ISO)
100
AcDbCircle
 10
36286.08862852836
 20
12980.05796627303
 30
0.0
 40
9.999999999999978
100
AcDbArc
 50
0.0
 51
90.0
  0
LINE
  5
28C
330
6C
100
AcDbEntity
  8
Visible (ISO)
100
AcDbLine
 10
36286.08862852836
 20
12990.05796627303
 30
0.0
 11
35306.08862852837
 21
12990.05796627303
 31
0.0
  0
ARC
  5
28D
330
6C
100
AcDbEntity
  8
Visible (ISO)
100
AcDbCircle
 10
34306.08862852836
 20
12480.05796627303
 30
0.0
 40
10.0
100
AcDbArc
 50
193.0519405686574
 51
256.9480594313402
  0
ARC
  5
28E
330
6C
100
AcDbEntity
  8
Visible (ISO)
100
AcDbCircle
 10
37286.08862852836
 20
12980.05796627303
 30
0.0
 40
9.99999999999998
100
AcDbArc
 50
0.0
 51
90.0
  0
LINE
  5
28F
330
6C
100
AcDbEntity
  8
Visible (ISO)
100
AcDbLine
 10
37296.08862852835
 20
12920.05796627303
 30
0.0
 11
37296.08862852835
 21
12980.05796627303
 31
0.0
  0
ARC
  5
290
330
6C
100
AcDbEntity
  8
Visible (ISO)
100
AcDbCircle
 10
37286.08862852836
 20
12920.05796627303
 30
0.0
 40
9.99999999999998
100
AcDbArc
 50
270.0
 51
0.0
  0
LINE
  5
291
330
6C
100
AcDbEntity
  8
Visible (ISO)
100
AcDbLine
 10
37286.08862852836
 20
12990.05796627303
 30
0.0
 11
37146.08862852836
 21
12990.05796627303
 31
0.0
  0
LINE
  5
292
330
6C
100
AcDbEntity
  8
Visible (ISO)
100
AcDbLine
 10
35296.08862852836
 20
14240.05796627303
 30
0.0
 11
35296.08862852836
 21
14300.05796627303
 31
0.0
  0
ARC
  5
293
330
6C
100
AcDbEntity
  8
Visible (ISO)
100
AcDbCircle
 10
35286.08862852836
 20
14300.05796627303
 30
0.0
 40
9.999999999999994
100
AcDbArc
 50
0.0
 51
90.0
  0
ARC
  5
294
330
6C
100
AcDbEntity
  8
Visible (ISO)
100
AcDbCircle
 10
35286.08862852836
 20
14240.05796627303
 30
0.0
 40
9.999999999999994
100
AcDbArc
 50
270.0
 51
0.0
  0
ARC
  5
295
330
6C
100
AcDbEntity
  8
Visible (ISO)
100
AcDbCircle
 10
34306.08862852837
 20
14300.05796627303
 30
0.0
 40
9.999999999999992
100
AcDbArc
 50
90.0
 51
180.0
  0
LINE
  5
296
330
6C
100
AcDbEntity
  8
Visible (ISO)
100
AcDbLine
 10
34296.08862852836
 20
14300.05796627303
 30
0.0
 11
34296.08862852836
 21
14240.05796627303
 31
0.0
  0
ARC
  5
297
330
6C
100
AcDbEntity
  8
Visible (ISO)
100
AcDbCircle
 10
34306.08862852837
 20
14240.05796627303
 30
0.0
 40
9.999999999999992
100
AcDbArc
 50
180.0
 51
270.0
  0
LINE
  5
298
330
6C
100
AcDbEntity
  8
Visible (ISO)
100
AcDbLine
 10
35286.08862852836
 20
14310.05796627303
 30
0.0
 11
34471.08862852837
 21
14310.05796627303
 31
0.0
  0
LINE
  5
299
330
6C
100
AcDbEntity
  8
Visible (ISO)
100
AcDbLine
 10
34371.08862852837
 20
14310.05796627303
 30
0.0
 11
34306.08862852837
 21
14310.05796627303
 31
0.0
  0
CIRCLE
  5
29A
330
6C
100
AcDbEntity
  8
Visible (ISO)
100
AcDbCircle
 10
35421.08862852836
 20
12360.05796627303
 30
0.0
 40
20.0
  0
CIRCLE
  5
29B
330
6C
100
AcDbEntity
  8
Visible (ISO)
100
AcDbCircle
 10
35421.08862852836
 20
12140.05796627303
 30
0.0
 40
20.0
  0
CIRCLE
  5
29C
330
6C
100
AcDbEntity
  8
Visible (ISO)
100
AcDbCircle
 10
36171.08862852835
 20
12360.05796627303
 30
0.0
 40
20.0
  0
CIRCLE
  5
29D
330
6C
100
AcDbEntity
  8
Visible (ISO)
100
AcDbCircle
 10
36171.08862852835
 20
12140.05796627303
 30
0.0
 40
20.0
  0
CIRCLE
  5
29E
330
6C
100
AcDbEntity
  8
Visible (ISO)
100
AcDbCircle
 10
36421.08862852835
 20
12360.05796627303
 30
0.0
 40
20.0
  0
CIRCLE
  5
29F
330
6C
100
AcDbEntity
  8
Visible (ISO)
100
AcDbCircle
 10
36421.08862852835
 20
12140.05796627303
 30
0.0
 40
20.0
  0
CIRCLE
  5
2A0
330
6C
100
AcDbEntity
  8
Visible (ISO)
100
AcDbCircle
 10
36421.08862852835
 20
12800.05796627303
 30
0.0
 40
20.0
  0
CIRCLE
  5
2A1
330
6C
100
AcDbEntity
  8
Visible (ISO)
100
AcDbCircle
 10
36421.08862852835
 20
12580.05796627303
 30
0.0
 40
20.0
  0
CIRCLE
  5
2A2
330
6C
100
AcDbEntity
  8
Visible (ISO)
100
AcDbCircle
 10
36421.08862852835
 20
13240.05796627303
 30
0.0
 40
20.0
  0
CIRCLE
  5
2A3
330
6C
100
AcDbEntity
  8
Visible (ISO)
100
AcDbCircle
 10
36421.08862852835
 20
13020.05796627303
 30
0.0
 40
20.0
  0
CIRCLE
  5
2A4
330
6C
100
AcDbEntity
  8
Visible (ISO)
100
AcDbCircle
 10
37171.08862852835
 20
13240.05796627303
 30
0.0
 40
20.0
  0
CIRCLE
  5
2A5
330
6C
100
AcDbEntity
  8
Visible (ISO)
100
AcDbCircle
 10
37171.08862852835
 20
13020.05796627303
 30
0.0
 40
20.0
  0
CIRCLE
  5
2A6
330
6C
100
AcDbEntity
  8
Visible (ISO)
100
AcDbCircle
 10
35421.08862852836
 20
12800.05796627303
 30
0.0
 40
20.0
  0
CIRCLE
  5
2A7
330
6C
100
AcDbEntity
  8
Visible (ISO)
100
AcDbCircle
 10
35421.08862852836
 20
12580.05796627303
 30
0.0
 40
20.0
  0
CIRCLE
  5
2A8
330
6C
100
AcDbEntity
  8
Visible (ISO)
100
AcDbCircle
 10
36171.08862852835
 20
12800.05796627303
 30
0.0
 40
20.0
  0
CIRCLE
  5
2A9
330
6C
100
AcDbEntity
  8
Visible (ISO)
100
AcDbCircle
 10
36171.08862852835
 20
12580.05796627303
 30
0.0
 40
20.0
  0
CIRCLE
  5
2AA
330
6C
100
AcDbEntity
  8
Visible (ISO)
100
AcDbCircle
 10
37171.08862852835
 20
12360.05796627303
 30
0.0
 40
20.0
  0
CIRCLE
  5
2AB
330
6C
100
AcDbEntity
  8
Visible (ISO)
100
AcDbCircle
 10
37171.08862852835
 20
12140.05796627303
 30
0.0
 40
20.0
  0
CIRCLE
  5
2AC
330
6C
100
AcDbEntity
  8
Visible (ISO)
100
AcDbCircle
 10
37171.08862852835
 20
12800.05796627303
 30
0.0
 40
20.0
  0
CIRCLE
  5
2AD
330
6C
100
AcDbEntity
  8
Visible (ISO)
100
AcDbCircle
 10
37171.08862852835
 20
12580.05796627303
 30
0.0
 40
20.0
  0
CIRCLE
  5
2AE
330
6C
100
AcDbEntity
  8
Visible (ISO)
100
AcDbCircle
 10
36421.08862852835
 20
13680.05796627303
 30
0.0
 40
20.0
  0
CIRCLE
  5
2AF
330
6C
100
AcDbEntity
  8
Visible (ISO)
100
AcDbCircle
 10
36421.08862852835
 20
13460.05796627303
 30
0.0
 40
20.0
  0
CIRCLE
  5
2B0
330
6C
100
AcDbEntity
  8
Visible (ISO)
100
AcDbCircle
 10
37171.08862852835
 20
13680.05796627303
 30
0.0
 40
20.0
  0
CIRCLE
  5
2B1
330
6C
100
AcDbEntity
  8
Visible (ISO)
100
AcDbCircle
 10
37171.08862852835
 20
13460.05796627303
 30
0.0
 40
20.0
  0
CIRCLE
  5
2B2
330
6C
100
AcDbEntity
  8
Visible (ISO)
100
AcDbCircle
 10
36421.08862852835
 20
14120.05796627303
 30
0.0
 40
20.0
  0
CIRCLE
  5
2B3
330
6C
100
AcDbEntity
  8
Visible (ISO)
100
AcDbCircle
 10
36421.08862852835
 20
13900.05796627303
 30
0.0
 40
20.0
  0
CIRCLE
  5
2B4
330
6C
100
AcDbEntity
  8
Visible (ISO)
100
AcDbCircle
 10
37171.08862852835
 20
14120.05796627303
 30
0.0
 40
20.0
  0
CIRCLE
  5
2B5
330
6C
100
AcDbEntity
  8
Visible (ISO)
100
AcDbCircle
 10
37171.08862852835
 20
13900.05796627303
 30
0.0
 40
20.0
  0
CIRCLE
  5
2B6
330
6C
100
AcDbEntity
  8
Visible (ISO)
100
AcDbCircle
 10
35171.08862852836
 20
12360.05796627303
 30
0.0
 40
20.0
  0
CIRCLE
  5
2B7
330
6C
100
AcDbEntity
  8
Visible (ISO)
100
AcDbCircle
 10
35171.08862852836
 20
12140.05796627303
 30
0.0
 40
20.0
  0
CIRCLE
  5
2B8
330
6C
100
AcDbEntity
  8
Visible (ISO)
100
AcDbCircle
 10
35171.08862852836
 20
12800.05796627303
 30
0.0
 40
20.0
  0
CIRCLE
  5
2B9
330
6C
100
AcDbEntity
  8
Visible (ISO)
100
AcDbCircle
 10
35171.08862852836
 20
12580.05796627303
 30
0.0
 40
20.0
  0
CIRCLE
  5
2BA
330
6C
100
AcDbEntity
  8
Visible (ISO)
100
AcDbCircle
 10
35171.08862852836
 20
13240.05796627303
 30
0.0
 40
20.0
  0
CIRCLE
  5
2BB
330
6C
100
AcDbEntity
  8
Visible (ISO)
100
AcDbCircle
 10
35171.08862852836
 20
13020.05796627303
 30
0.0
 40
20.0
  0
CIRCLE
  5
2BC
330
6C
100
AcDbEntity
  8
Visible (ISO)
100
AcDbCircle
 10
35171.08862852836
 20
13680.05796627303
 30
0.0
 40
20.0
  0
CIRCLE
  5
2BD
330
6C
100
AcDbEntity
  8
Visible (ISO)
100
AcDbCircle
 10
35171.08862852836
 20
13460.05796627303
 30
0.0
 40
20.0
  0
CIRCLE
  5
2BE
330
6C
100
AcDbEntity
  8
Visible (ISO)
100
AcDbCircle
 10
35171.08862852836
 20
14120.05796627303
 30
0.0
 40
20.0
  0
CIRCLE
  5
2BF
330
6C
100
AcDbEntity
  8
Visible (ISO)
100
AcDbCircle
 10
35171.08862852836
 20
13900.05796627303
 30
0.0
 40
20.0
  0
LINE
  5
2C0
330
6C
100
AcDbEntity
  8
Visible (ISO)
100
AcDbLine
 10
35296.08862852836
 20
13916.90796627303
 30
0.0
 11
36296.08862852835
 21
13916.90796627303
 31
0.0
  0
LINE
  5
2C1
330
6C
100
AcDbEntity
  8
Visible (ISO)
100
AcDbLine
 10
35296.08862852836
 20
13883.20796627303
 30
0.0
 11
36296.08862852835
 21
13883.20796627303
 31
0.0
  0
LINE
  5
2C2
330
6C
100
AcDbEntity
  8
Visible (ISO)
100
AcDbLine
 10
37296.08862852835
 20
13916.90796627303
 30
0.0
 11
38516.08862852835
 21
13916.90796627303
 31
0.0
  0
LINE
  5
2C3
330
6C
100
AcDbEntity
  8
Visible (ISO)
100
AcDbLine
 10
37296.08862852835
 20
13883.20796627303
 30
0.0
 11
38516.08862852835
 21
13883.20796627303
 31
0.0
  0
LINE
  5
2C4
330
6C
100
AcDbEntity
  8
Visible (ISO)
100
AcDbLine
 10
34296.08862852836
 20
14103.20796627303
 30
0.0
 11
33076.08862852836
 21
14103.20796627303
 31
0.0
  0
LINE
  5
2C5
330
6C
100
AcDbEntity
  8
Visible (ISO)
100
AcDbLine
 10
34296.08862852836
 20
14136.90796627303
 30
0.0
 11
33076.08862852836
 21
14136.90796627303
 31
0.0
  0
LINE
  5
2C6
330
6C
100
AcDbEntity
  8
Visible (ISO)
100
AcDbLine
 10
38516.08862852835
 20
13852.55796627303
 30
0.0
 11
38516.08862852835
 21
13862.55796627304
 31
0.0
  0
LINE
  5
2C7
330
6C
100
AcDbEntity
  8
Visible (ISO)
100
AcDbLine
 10
38516.08862852835
 20
13852.55796627303
 30
0.0
 11
38521.08862852835
 21
13852.55796627303
 31
0.0
  0
LINE
  5
2C8
330
6C
100
AcDbEntity
  8
Visible (ISO)
100
AcDbLine
 10
38521.08862852835
 20
13947.55796627303
 30
0.0
 11
38516.08862852835
 21
13947.55796627303
 31
0.0
  0
LINE
  5
2C9
330
6C
100
AcDbEntity
  8
Visible (ISO)
100
AcDbLine
 10
38516.08862852835
 20
13937.55796627303
 30
0.0
 11
38516.08862852835
 21
13947.55796627303
 31
0.0
  0
LINE
  5
2CA
330
6C
100
AcDbEntity
  8
Visible (ISO)
100
AcDbLine
 10
38516.08862852835
 20
13937.55796627303
 30
0.0
 11
38516.08862852835
 21
13862.55796627304
 31
0.0
  0
LINE
  5
2CB
330
6C
100
AcDbEntity
  8
Visible (ISO)
100
AcDbLine
 10
33071.08862852836
 20
14072.55796627302
 30
0.0
 11
33076.08862852836
 21
14072.55796627302
 31
0.0
  0
LINE
  5
2CC
330
6C
100
AcDbEntity
  8
Visible (ISO)
100
AcDbLine
 10
33076.08862852836
 20
14082.55796627302
 30
0.0
 11
33076.08862852836
 21
14072.55796627302
 31
0.0
  0
LINE
  5
2CD
330
6C
100
AcDbEntity
  8
Visible (ISO)
100
AcDbLine
 10
33076.08862852836
 20
14167.55796627302
 30
0.0
 11
33076.08862852836
 21
14157.55796627302
 31
0.0
  0
LINE
  5
2CE
330
6C
100
AcDbEntity
  8
Visible (ISO)
100
AcDbLine
 10
33076.08862852836
 20
14167.55796627302
 30
0.0
 11
33071.08862852836
 21
14167.55796627302
 31
0.0
  0
LINE
  5
2CF
330
6C
100
AcDbEntity
  8
Visible (ISO)
100
AcDbLine
 10
33076.08862852836
 20
14082.55796627302
 30
0.0
 11
33076.08862852836
 21
14157.55796627302
 31
0.0
  0
LINE
  5
2D0
330
6C
100
AcDbEntity
  8
Visible (ISO)
100
AcDbLine
 10
34366.08862852836
 20
14517.55796627302
 30
0.0
 11
34366.08862852836
 21
14527.55796627303
 31
0.0
  0
LINE
  5
2D1
330
6C
100
AcDbEntity
  8
Visible (ISO)
100
AcDbLine
 10
34366.08862852836
 20
14517.55796627302
 30
0.0
 11
34371.08862852836
 21
14517.55796627302
 31
0.0
  0
LINE
  5
2D2
330
6C
100
AcDbEntity
  8
Visible (ISO)
100
AcDbLine
 10
34371.08862852836
 20
14612.55796627303
 30
0.0
 11
34366.08862852836
 21
14612.55796627303
 31
0.0
  0
LINE
  5
2D3
330
6C
100
AcDbEntity
  8
Visible (ISO)
100
AcDbLine
 10
34366.08862852836
 20
14602.55796627303
 30
0.0
 11
34366.08862852836
 21
14612.55796627303
 31
0.0
  0
LINE
  5
2D4
330
6C
100
AcDbEntity
  8
Visible (ISO)
100
AcDbLine
 10
34366.08862852836
 20
14602.55796627303
 30
0.0
 11
34366.08862852836
 21
14527.55796627303
 31
0.0
  0
LINE
  5
2D5
330
6C
100
AcDbEntity
  8
Visible (ISO)
100
AcDbLine
 10
33071.08862852837
 20
14517.55796627304
 30
0.0
 11
33076.08862852836
 21
14517.55796627304
 31
0.0
  0
LINE
  5
2D6
330
6C
100
AcDbEntity
  8
Visible (ISO)
100
AcDbLine
 10
33076.08862852836
 20
14527.55796627304
 30
0.0
 11
33076.08862852836
 21
14517.55796627304
 31
0.0
  0
LINE
  5
2D7
330
6C
100
AcDbEntity
  8
Visible (ISO)
100
AcDbLine
 10
33076.08862852836
 20
14612.55796627304
 30
0.0
 11
33076.08862852836
 21
14602.55796627303
 31
0.0
  0
LINE
  5
2D8
330
6C
100
AcDbEntity
  8
Visible (ISO)
100
AcDbLine
 10
33076.08862852836
 20
14612.55796627304
 30
0.0
 11
33071.08862852837
 21
14612.55796627304
 31
0.0
  0
LINE
  5
2D9
330
6C
100
AcDbEntity
  8
Visible (ISO)
100
AcDbLine
 10
33076.08862852836
 20
14527.55796627304
 30
0.0
 11
33076.08862852836
 21
14602.55796627303
 31
0.0
  0
LINE
  5
2DA
330
6C
100
AcDbEntity
  8
Visible (ISO)
100
AcDbLine
 10
38516.08862852835
 20
14072.55796627302
 30
0.0
 11
38516.08862852835
 21
14082.55796627303
 31
0.0
  0
LINE
  5
2DB
330
6C
100
AcDbEntity
  8
Visible (ISO)
100
AcDbLine
 10
38516.08862852835
 20
14072.55796627302
 30
0.0
 11
38521.08862852835
 21
14072.55796627302
 31
0.0
  0
LINE
  5
2DC
330
6C
100
AcDbEntity
  8
Visible (ISO)
100
AcDbLine
 10
38521.08862852835
 20
14167.55796627302
 30
0.0
 11
38516.08862852835
 21
14167.55796627302
 31
0.0
  0
LINE
  5
2DD
330
6C
100
AcDbEntity
  8
Visible (ISO)
100
AcDbLine
 10
38516.08862852835
 20
14157.55796627302
 30
0.0
 11
38516.08862852835
 21
14167.55796627302
 31
0.0
  0
LINE
  5
2DE
330
6C
100
AcDbEntity
  8
Visible (ISO)
100
AcDbLine
 10
38516.08862852835
 20
14157.55796627302
 30
0.0
 11
38516.08862852835
 21
14082.55796627303
 31
0.0
  0
LINE
  5
2DF
330
6C
100
AcDbEntity
  8
Visible (ISO)
100
AcDbLine
 10
39816.08862852836
 20
13472.557966273
 30
0.0
 11
39816.08862852836
 21
13482.557966273
 31
0.0
  0
LINE
  5
2E0
330
6C
100
AcDbEntity
  8
Visible (ISO)
100
AcDbLine
 10
39816.08862852836
 20
13472.557966273
 30
0.0
 11
39821.08862852835
 21
13472.557966273
 31
0.0
  0
LINE
  5
2E1
330
6C
100
AcDbEntity
  8
Visible (ISO)
100
AcDbLine
 10
39821.08862852835
 20
13567.557966273
 30
0.0
 11
39816.08862852836
 21
13567.557966273
 31
0.0
  0
LINE
  5
2E2
330
6C
100
AcDbEntity
  8
Visible (ISO)
100
AcDbLine
 10
39816.08862852836
 20
13557.557966273
 30
0.0
 11
39816.08862852836
 21
13567.557966273
 31
0.0
  0
LINE
  5
2E3
330
6C
100
AcDbEntity
  8
Visible (ISO)
100
AcDbLine
 10
39816.08862852836
 20
13557.557966273
 30
0.0
 11
39816.08862852836
 21
13482.557966273
 31
0.0
  0
LINE
  5
2E4
330
6C
100
AcDbEntity
  8
Visible (ISO)
100
AcDbLine
 10
38621.08862852836
 20
13472.55796627301
 30
0.0
 11
38626.08862852835
 21
13472.55796627301
 31
0.0
  0
LINE
  5
2E5
330
6C
100
AcDbEntity
  8
Visible (ISO)
100
AcDbLine
 10
38626.08862852835
 20
13482.55796627301
 30
0.0
 11
38626.08862852835
 21
13472.55796627301
 31
0.0
  0
LINE
  5
2E6
330
6C
100
AcDbEntity
  8
Visible (ISO)
100
AcDbLine
 10
38626.08862852835
 20
13567.55796627301
 30
0.0
 11
38626.08862852835
 21
13557.55796627301
 31
0.0
  0
LINE
  5
2E7
330
6C
100
AcDbEntity
  8
Visible (ISO)
100
AcDbLine
 10
38626.08862852835
 20
13567.55796627301
 30
0.0
 11
38621.08862852836
 21
13567.55796627301
 31
0.0
  0
LINE
  5
2E8
330
6C
100
AcDbEntity
  8
Visible (ISO)
100
AcDbLine
 10
38626.08862852835
 20
13482.55796627301
 30
0.0
 11
38626.08862852835
 21
13557.55796627301
 31
0.0
  0
LINE
  5
378
330
6C
100
AcDbEntity
  8
Visible (ISO)
100
AcDbLine
 10
38621.08862852835
 20
12030.05796627304
 30
0.0
 11
38621.08862852835
 21
13141.05796627303
 31
0.0
  0
LINE
  5
379
330
6C
100
AcDbEntity
  8
Visible (ISO)
100
AcDbLine
 10
38621.08862852835
 20
13179.05796627303
 30
0.0
 11
38621.08862852835
 21
13965.05796627302
 31
0.0
  0
LINE
  5
37A
330
6C
100
AcDbEntity
  8
Visible (ISO)
100
AcDbLine
 10
38521.08862852836
 20
13965.05796627302
 30
0.0
 11
38521.08862852836
 21
13179.05796627303
 31
0.0
  0
LINE
  5
37B
330
6C
100
AcDbEntity
  8
Visible (ISO)
100
AcDbLine
 10
38521.08862852836
 20
13141.05796627303
 30
0.0
 11
38521.08862852836
 21
12030.05796627304
 31
0.0
  0
LINE
  5
37D
330
6C
100
AcDbEntity
  8
Visible (ISO)
100
AcDbLine
 10
38616.08862852836
 20
13965.05796627302
 30
0.0
 11
38526.08862852835
 21
13965.05796627302
 31
0.0
  0
LINE
  5
37E
330
6C
100
AcDbEntity
  8
Visible (ISO)
100
AcDbLine
 10
38621.08862852835
 20
13965.05796627302
 30
0.0
 11
38618.08862852835
 21
13965.05796627302
 31
0.0
  0
LINE
  5
37F
330
6C
100
AcDbEntity
  8
Visible (ISO)
100
AcDbLine
 10
38524.08862852836
 20
13965.05796627302
 30
0.0
 11
38521.08862852836
 21
13965.05796627302
 31
0.0
  0
ARC
  5
380
330
6C
100
AcDbEntity
  8
Visible (ISO)
100
AcDbCircle
 10
38618.08862852835
 20
13967.05796627302
 30
0.0
 40
2.999999999999983
100
AcDbArc
 50
0.0
 51
90.0
  0
LINE
  5
381
330
6C
100
AcDbEntity
  8
Visible (ISO)
100
AcDbLine
 10
38621.08862852835
 20
13965.05796627302
 30
0.0
 11
38621.08862852835
 21
13967.05796627302
 31
0.0
  0
ARC
  5
382
330
6C
100
AcDbEntity
  8
Visible (ISO)
100
AcDbCircle
 10
38524.08862852836
 20
13967.05796627302
 30
0.0
 40
3.000000000000011
100
AcDbArc
 50
90.0
 51
180.0
  0
LINE
  5
383
330
6C
100
AcDbEntity
  8
Visible (ISO)
100
AcDbLine
 10
38521.08862852836
 20
13967.05796627302
 30
0.0
 11
38521.08862852836
 21
13965.05796627302
 31
0.0
  0
LINE
  5
384
330
6C
100
AcDbEntity
  8
Visible (ISO)
100
AcDbLine
 10
38618.08862852835
 20
13970.05796627303
 30
0.0
 11
38524.08862852836
 21
13970.05796627303
 31
0.0
  0
LINE
  5
385
330
6C
100
AcDbEntity
  8
Visible (ISO)
100
AcDbLine
 10
38618.08862852835
 20
13965.05796627302
 30
0.0
 11
38524.08862852836
 21
13965.05796627302
 31
0.0
  0
LINE
  5
386
330
6C
100
AcDbEntity
  8
Visible (ISO)
100
AcDbLine
 10
33071.08862852836
 20
14630.05796627303
 30
0.0
 11
33068.08862852836
 21
14630.05796627303
 31
0.0
  0
LINE
  5
387
330
6C
100
AcDbEntity
  8
Visible (ISO)
100
AcDbLine
 10
32974.08862852837
 20
14630.05796627303
 30
0.0
 11
32971.08862852836
 21
14630.05796627303
 31
0.0
  0
ARC
  5
388
330
6C
100
AcDbEntity
  8
Visible (ISO)
100
AcDbCircle
 10
33068.08862852836
 20
14632.05796627303
 30
0.0
 40
2.99999999999998
100
AcDbArc
 50
0.0
 51
90.0
  0
LINE
  5
389
330
6C
100
AcDbEntity
  8
Visible (ISO)
100
AcDbLine
 10
33071.08862852836
 20
14630.05796627303
 30
0.0
 11
33071.08862852836
 21
14632.05796627303
 31
0.0
  0
ARC
  5
38A
330
6C
100
AcDbEntity
  8
Visible (ISO)
100
AcDbCircle
 10
32974.08862852837
 20
14632.05796627303
 30
0.0
 40
3.000000000000008
100
AcDbArc
 50
90.0
 51
180.0
  0
LINE
  5
38B
330
6C
100
AcDbEntity
  8
Visible (ISO)
100
AcDbLine
 10
32971.08862852836
 20
14632.05796627303
 30
0.0
 11
32971.08862852836
 21
14630.05796627303
 31
0.0
  0
LINE
  5
38C
330
6C
100
AcDbEntity
  8
Visible (ISO)
100
AcDbLine
 10
33068.08862852836
 20
14635.05796627303
 30
0.0
 11
32974.08862852837
 21
14635.05796627304
 31
0.0
  0
LINE
  5
38D
330
6C
100
AcDbEntity
  8
Visible (ISO)
100
AcDbLine
 10
33068.08862852836
 20
14630.05796627303
 30
0.0
 11
32974.08862852837
 21
14630.05796627303
 31
0.0
  0
LINE
  5
38E
330
6C
100
AcDbEntity
  8
Visible (ISO)
100
AcDbLine
 10
34471.08862852836
 20
14630.05796627302
 30
0.0
 11
34468.08862852837
 21
14630.05796627302
 31
0.0
  0
LINE
  5
38F
330
6C
100
AcDbEntity
  8
Visible (ISO)
100
AcDbLine
 10
34374.08862852837
 20
14630.05796627302
 30
0.0
 11
34371.08862852837
 21
14630.05796627302
 31
0.0
  0
ARC
  5
390
330
6C
100
AcDbEntity
  8
Visible (ISO)
100
AcDbCircle
 10
34468.08862852837
 20
14632.05796627302
 30
0.0
 40
2.99999999999998
100
AcDbArc
 50
0.0
 51
90.0
  0
LINE
  5
391
330
6C
100
AcDbEntity
  8
Visible (ISO)
100
AcDbLine
 10
34471.08862852836
 20
14630.05796627302
 30
0.0
 11
34471.08862852836
 21
14632.05796627302
 31
0.0
  0
ARC
  5
392
330
6C
100
AcDbEntity
  8
Visible (ISO)
100
AcDbCircle
 10
34374.08862852837
 20
14632.05796627302
 30
0.0
 40
3.000000000000008
100
AcDbArc
 50
90.0
 51
180.0
  0
LINE
  5
393
330
6C
100
AcDbEntity
  8
Visible (ISO)
100
AcDbLine
 10
34371.08862852837
 20
14632.05796627302
 30
0.0
 11
34371.08862852837
 21
14630.05796627302
 31
0.0
  0
LINE
  5
394
330
6C
100
AcDbEntity
  8
Visible (ISO)
100
AcDbLine
 10
34468.08862852837
 20
14635.05796627302
 30
0.0
 11
34374.08862852837
 21
14635.05796627302
 31
0.0
  0
LINE
  5
395
330
6C
100
AcDbEntity
  8
Visible (ISO)
100
AcDbLine
 10
34468.08862852837
 20
14630.05796627302
 30
0.0
 11
34374.08862852837
 21
14630.05796627302
 31
0.0
  0
LINE
  5
396
330
6C
100
AcDbEntity
  8
Visible (ISO)
100
AcDbLine
 10
30271.08862852833
 20
14330.05796627303
 30
0.0
 11
30268.08862852833
 21
14330.05796627303
 31
0.0
  0
LINE
  5
397
330
6C
100
AcDbEntity
  8
Visible (ISO)
100
AcDbLine
 10
30174.08862852833
 20
14330.05796627303
 30
0.0
 11
30171.08862852833
 21
14330.05796627303
 31
0.0
  0
ARC
  5
398
330
6C
100
AcDbEntity
  8
Visible (ISO)
100
AcDbCircle
 10
30268.08862852833
 20
14332.05796627303
 30
0.0
 40
2.99999999999998
100
AcDbArc
 50
0.0
 51
90.0
  0
LINE
  5
399
330
6C
100
AcDbEntity
  8
Visible (ISO)
100
AcDbLine
 10
30271.08862852833
 20
14330.05796627303
 30
0.0
 11
30271.08862852833
 21
14332.05796627303
 31
0.0
  0
ARC
  5
39A
330
6C
100
AcDbEntity
  8
Visible (ISO)
100
AcDbCircle
 10
30174.08862852833
 20
14332.05796627303
 30
0.0
 40
3.000000000000008
100
AcDbArc
 50
90.0
 51
180.0
  0
LINE
  5
39B
330
6C
100
AcDbEntity
  8
Visible (ISO)
100
AcDbLine
 10
30171.08862852833
 20
14332.05796627303
 30
0.0
 11
30171.08862852833
 21
14330.05796627303
 31
0.0
  0
LINE
  5
39C
330
6C
100
AcDbEntity
  8
Visible (ISO)
100
AcDbLine
 10
30268.08862852833
 20
14335.05796627303
 30
0.0
 11
30174.08862852833
 21
14335.05796627303
 31
0.0
  0
LINE
  5
39D
330
6C
100
AcDbEntity
  8
Visible (ISO)
100
AcDbLine
 10
30268.08862852833
 20
14330.05796627303
 30
0.0
 11
30174.08862852833
 21
14330.05796627303
 31
0.0
  0
LINE
  5
39E
330
6C
100
AcDbEntity
  8
Visible (ISO)
100
AcDbLine
 10
38621.08862852835
 20
14185.05796627302
 30
0.0
 11
38618.08862852835
 21
14185.05796627302
 31
0.0
  0
LINE
  5
39F
330
6C
100
AcDbEntity
  8
Visible (ISO)
100
AcDbLine
 10
38524.08862852836
 20
14185.05796627302
 30
0.0
 11
38521.08862852836
 21
14185.05796627302
 31
0.0
  0
ARC
  5
3A0
330
6C
100
AcDbEntity
  8
Visible (ISO)
100
AcDbCircle
 10
38618.08862852835
 20
14187.05796627302
 30
0.0
 40
2.999999999999984
100
AcDbArc
 50
0.0
 51
90.0
  0
LINE
  5
3A1
330
6C
100
AcDbEntity
  8
Visible (ISO)
100
AcDbLine
 10
38621.08862852835
 20
14185.05796627302
 30
0.0
 11
38621.08862852835
 21
14187.05796627302
 31
0.0
  0
ARC
  5
3A2
330
6C
100
AcDbEntity
  8
Visible (ISO)
100
AcDbCircle
 10
38524.08862852836
 20
14187.05796627302
 30
0.0
 40
3.00000000000001
100
AcDbArc
 50
90.0
 51
180.0
  0
LINE
  5
3A3
330
6C
100
AcDbEntity
  8
Visible (ISO)
100
AcDbLine
 10
38521.08862852836
 20
14187.05796627302
 30
0.0
 11
38521.08862852836
 21
14185.05796627302
 31
0.0
  0
LINE
  5
3A4
330
6C
100
AcDbEntity
  8
Visible (ISO)
100
AcDbLine
 10
38618.08862852835
 20
14190.05796627303
 30
0.0
 11
38524.08862852836
 21
14190.05796627303
 31
0.0
  0
LINE
  5
3A5
330
6C
100
AcDbEntity
  8
Visible (ISO)
100
AcDbLine
 10
38618.08862852835
 20
14185.05796627302
 30
0.0
 11
38524.08862852836
 21
14185.05796627302
 31
0.0
  0
LINE
  5
3A6
330
6C
100
AcDbEntity
  8
Visible (ISO)
100
AcDbLine
 10
39921.08862852835
 20
13585.05796627303
 30
0.0
 11
39918.08862852835
 21
13585.05796627303
 31
0.0
  0
LINE
  5
3A7
330
6C
100
AcDbEntity
  8
Visible (ISO)
100
AcDbLine
 10
39824.08862852836
 20
13585.05796627303
 30
0.0
 11
39821.08862852836
 21
13585.05796627303
 31
0.0
  0
ARC
  5
3A8
330
6C
100
AcDbEntity
  8
Visible (ISO)
100
AcDbCircle
 10
39918.08862852835
 20
13587.05796627303
 30
0.0
 40
2.999999999999982
100
AcDbArc
 50
0.0
 51
90.0
  0
LINE
  5
3A9
330
6C
100
AcDbEntity
  8
Visible (ISO)
100
AcDbLine
 10
39921.08862852835
 20
13585.05796627303
 30
0.0
 11
39921.08862852835
 21
13587.05796627303
 31
0.0
  0
ARC
  5
3AA
330
6C
100
AcDbEntity
  8
Visible (ISO)
100
AcDbCircle
 10
39824.08862852836
 20
13587.05796627303
 30
0.0
 40
3.000000000000011
100
AcDbArc
 50
90.0
 51
180.0
  0
LINE
  5
3AB
330
6C
100
AcDbEntity
  8
Visible (ISO)
100
AcDbLine
 10
39821.08862852836
 20
13587.05796627303
 30
0.0
 11
39821.08862852836
 21
13585.05796627303
 31
0.0
  0
LINE
  5
3AC
330
6C
100
AcDbEntity
  8
Visible (ISO)
100
AcDbLine
 10
39918.08862852835
 20
13590.05796627303
 30
0.0
 11
39824.08862852836
 21
13590.05796627303
 31
0.0
  0
LINE
  5
3AD
330
6C
100
AcDbEntity
  8
Visible (ISO)
100
AcDbLine
 10
39918.08862852835
 20
13585.05796627303
 30
0.0
 11
39824.08862852836
 21
13585.05796627303
 31
0.0
  0
LINE
  5
3AF
330
6C
100
AcDbEntity
  8
Visible (ISO)
100
AcDbLine
 10
33071.08862852834
 20
12030.05796627302
 30
0.0
 11
33071.08862852836
 21
14630.05796627303
 31
0.0
  0
LINE
  5
3B0
330
6C
100
AcDbEntity
  8
Visible (ISO)
100
AcDbLine
 10
32971.08862852836
 20
14630.05796627303
 30
0.0
 11
32971.08862852834
 21
12030.05796627302
 31
0.0
  0
LINE
  5
3B2
330
6C
100
AcDbEntity
  8
Visible (ISO)
100
AcDbLine
 10
33066.08862852836
 20
14630.05796627303
 30
0.0
 11
32976.08862852836
 21
14630.05796627303
 31
0.0
  0
LINE
  5
3B3
330
6C
100
AcDbEntity
  8
Visible (ISO)
100
AcDbLine
 10
32966.08862852834
 20
14217.55796627303
 30
0.0
 11
32966.08862852834
 21
14227.55796627304
 31
0.0
  0
LINE
  5
3B4
330
6C
100
AcDbEntity
  8
Visible (ISO)
100
AcDbLine
 10
32966.08862852834
 20
14217.55796627303
 30
0.0
 11
32971.08862852834
 21
14217.55796627303
 31
0.0
  0
LINE
  5
3B5
330
6C
100
AcDbEntity
  8
Visible (ISO)
100
AcDbLine
 10
32971.08862852834
 20
14312.55796627303
 30
0.0
 11
32966.08862852834
 21
14312.55796627303
 31
0.0
  0
LINE
  5
3B6
330
6C
100
AcDbEntity
  8
Visible (ISO)
100
AcDbLine
 10
32966.08862852834
 20
14302.55796627303
 30
0.0
 11
32966.08862852834
 21
14312.55796627303
 31
0.0
  0
LINE
  5
3B7
330
6C
100
AcDbEntity
  8
Visible (ISO)
100
AcDbLine
 10
32966.08862852834
 20
14302.55796627303
 30
0.0
 11
32966.08862852834
 21
14227.55796627304
 31
0.0
  0
LINE
  5
3B8
330
6C
100
AcDbEntity
  8
Visible (ISO)
100
AcDbLine
 10
30271.08862852834
 20
14217.55796627306
 30
0.0
 11
30276.08862852833
 21
14217.55796627306
 31
0.0
  0
LINE
  5
3B9
330
6C
100
AcDbEntity
  8
Visible (ISO)
100
AcDbLine
 10
30276.08862852833
 20
14227.55796627306
 30
0.0
 11
30276.08862852833
 21
14217.55796627306
 31
0.0
  0
LINE
  5
3BA
330
6C
100
AcDbEntity
  8
Visible (ISO)
100
AcDbLine
 10
30276.08862852833
 20
14312.55796627306
 30
0.0
 11
30276.08862852833
 21
14302.55796627306
 31
0.0
  0
LINE
  5
3BB
330
6C
100
AcDbEntity
  8
Visible (ISO)
100
AcDbLine
 10
30276.08862852833
 20
14312.55796627306
 30
0.0
 11
30271.08862852834
 21
14312.55796627306
 31
0.0
  0
LINE
  5
3BC
330
6C
100
AcDbEntity
  8
Visible (ISO)
100
AcDbLine
 10
30276.08862852833
 20
14227.55796627306
 30
0.0
 11
30276.08862852833
 21
14302.55796627306
 31
0.0
  0
SPLINE
  5
3BD
330
6C
100
AcDbEntity
  8
Visible (ISO)
100
AcDbSpline
210
0.0
220
0.0
230
1.0
 70
     8
 71
     3
 72
    14
 73
    10
 74
     0
 42
0.0000000001
 43
0.0000000001
 40
0.0
 40
0.0
 40
0.0
 40
0.0
 40
0.125471699501995
 40
0.125471699501995
 40
0.2509433990039899
 40
0.2509433990039899
 40
0.376411021494903
 40
0.376411021494903
 40
0.5018786439858161
 40
0.5018786439858161
 40
0.5018786439955616
 40
0.5018786439955616
 10
31759.08862852833
 20
14246.35089948667
 30
0.0
 10
31759.50686752667
 20
14246.35089948667
 30
0.0
 10
31759.95238207983
 20
14246.33542176469
 30
0.0
 10
31760.77096062397
 20
14246.27984487901
 30
0.0
 10
31761.14410031472
 20
14246.24058407905
 30
0.0
 10
31761.73328594399
 20
14246.16714504238
 30
0.0
 10
31761.98892535925
 20
14246.12814801589
 30
0.0
 10
31762.32837021857
 20
14246.07317700169
 30
0.0
 10
31762.41212852833
 20
14246.05796627304
 30
0.0
 10
31762.41212852833
 20
14246.05796627304
 30
0.0
  0
SPLINE
  5
3BE
330
6C
100
AcDbEntity
  8
Visible (ISO)
100
AcDbSpline
210
0.0
220
0.0
230
1.0
 70
     8
 71
     3
 72
    14
 73
    10
 74
     0
 42
0.0000000001
 43
0.0000000001
 40
1.505635931957447
 40
1.505635931957447
 40
1.505635931957809
 40
1.505635931957809
 40
1.63110355444836
 40
1.63110355444836
 40
1.756571176939274
 40
1.756571176939274
 40
1.882042876441269
 40
1.882042876441269
 40
2.007514575943264
 40
2.007514575943264
 40
2.007514575943264
 40
2.007514575943264
 10
31755.76512852833
 20
14246.05796627304
 30
0.0
 10
31755.76512852833
 20
14246.05796627304
 30
0.0
 10
31755.84888683811
 20
14246.07317700169
 30
0.0
 10
31756.18833169742
 20
14246.12814801589
 30
0.0
 10
31756.44397111268
 20
14246.16714504238
 30
0.0
 10
31757.03315674195
 20
14246.24058407905
 30
0.0
 10
31757.4062964327
 20
14246.27984487901
 30
0.0
 10
31758.22487497684
 20
14246.33542176469
 30
0.0
 10
31758.67038953
 20
14246.35089948667
 30
0.0
 10
31759.08862852833
 20
14246.35089948667
 30
0.0
  0
SPLINE
  5
3BF
330
6C
100
AcDbEntity
  8
Visible (ISO)
100
AcDbSpline
210
0.0
220
0.0
230
1.0
 70
     8
 71
     3
 72
    14
 73
    10
 74
     0
 42
0.0000000001
 43
0.0000000001
 40
0.0
 40
0.0
 40
0.0
 40
0.0
 40
0.125471699501995
 40
0.125471699501995
 40
0.25094339900399
 40
0.25094339900399
 40
0.3764110214949032
 40
0.3764110214949032
 40
0.5018786439858165
 40
0.5018786439858165
 40
0.5018786439955587
 40
0.5018786439955587
 10
31829.08862852833
 20
14246.35089948667
 30
0.0
 10
31829.50686752668
 20
14246.35089948667
 30
0.0
 10
31829.95238207983
 20
14246.33542176469
 30
0.0
 10
31830.77096062397
 20
14246.27984487901
 30
0.0
 10
31831.14410031472
 20
14246.24058407905
 30
0.0
 10
31831.73328594399
 20
14246.16714504238
 30
0.0
 10
31831.98892535925
 20
14246.12814801589
 30
0.0
 10
31832.32837021856
 20
14246.07317700169
 30
0.0
 10
31832.41212852833
 20
14246.05796627304
 30
0.0
 10
31832.41212852833
 20
14246.05796627304
 30
0.0
  0
SPLINE
  5
3C0
330
6C
100
AcDbEntity
  8
Visible (ISO)
100
AcDbSpline
210
0.0
220
0.0
230
1.0
 70
     8
 71
     3
 72
    14
 73
    10
 74
     0
 42
0.0000000001
 43
0.0000000001
 40
1.505635931957449
 40
1.505635931957449
 40
1.505635931957836
 40
1.505635931957836
 40
1.631103554448362
 40
1.631103554448362
 40
1.756571176939275
 40
1.756571176939275
 40
1.88204287644127
 40
1.88204287644127
 40
2.007514575943265
 40
2.007514575943265
 40
2.007514575943265
 40
2.007514575943265
 10
31825.76512852834
 20
14246.05796627304
 30
0.0
 10
31825.76512852834
 20
14246.05796627304
 30
0.0
 10
31825.84888683811
 20
14246.07317700169
 30
0.0
 10
31826.18833169742
 20
14246.12814801589
 30
0.0
 10
31826.44397111267
 20
14246.16714504238
 30
0.0
 10
31827.03315674195
 20
14246.24058407905
 30
0.0
 10
31827.40629643269
 20
14246.27984487901
 30
0.0
 10
31828.22487497684
 20
14246.33542176469
 30
0.0
 10
31828.67038952999
 20
14246.35089948667
 30
0.0
 10
31829.08862852833
 20
14246.35089948667
 30
0.0
  0
LINE
  5
3C1
330
6C
100
AcDbEntity
  8
Visible (ISO)
100
AcDbLine
 10
30276.08862852833
 20
14284.05796627306
 30
0.0
 11
32966.08862852834
 21
14284.05796627303
 31
0.0
  0
LINE
  5
3C2
330
6C
100
AcDbEntity
  8
Visible (ISO)
100
AcDbLine
 10
30276.08862852833
 20
14246.05796627306
 30
0.0
 11
31755.76512852833
 21
14246.05796627304
 31
0.0
  0
LINE
  5
3C3
330
6C
100
AcDbEntity
  8
Visible (ISO)
100
AcDbLine
 10
31762.41212852833
 20
14246.05796627304
 30
0.0
 11
31825.76512852834
 21
14246.05796627304
 31
0.0
  0
LINE
  5
3C4
330
6C
100
AcDbEntity
  8
Visible (ISO)
100
AcDbLine
 10
31832.41212852833
 20
14246.05796627304
 30
0.0
 11
32966.08862852834
 21
14246.05796627304
 31
0.0
  0
LINE
  5
3C6
330
6C
100
AcDbEntity
  8
Visible (ISO)
100
AcDbLine
 10
34471.08862852834
 20
12030.05796627303
 30
0.0
 11
34471.08862852836
 21
14630.05796627302
 31
0.0
  0
LINE
  5
3C7
330
6C
100
AcDbEntity
  8
Visible (ISO)
100
AcDbLine
 10
34371.08862852837
 20
14630.05796627302
 30
0.0
 11
34371.08862852834
 21
12030.05796627303
 31
0.0
  0
LINE
  5
3C9
330
6C
100
AcDbEntity
  8
Visible (ISO)
100
AcDbLine
 10
34466.08862852837
 20
14630.05796627302
 30
0.0
 11
34376.08862852836
 21
14630.05796627302
 31
0.0
  0
LINE
  5
3CA
330
6C
100
AcDbEntity
  8
Visible (ISO)
100
AcDbLine
 10
34366.08862852836
 20
14548.20796627303
 30
0.0
 11
33076.08862852836
 21
14548.20796627304
 31
0.0
  0
LINE
  5
3CB
330
6C
100
AcDbEntity
  8
Visible (ISO)
100
AcDbLine
 10
34366.08862852836
 20
14581.90796627303
 30
0.0
 11
33076.08862852836
 21
14581.90796627304
 31
0.0
  0
LINE
  5
3CC
330
6C
100
AcDbEntity
  8
Visible (ISO)
100
AcDbLine
 10
38516.08862852836
 20
14103.20796627303
 30
0.0
 11
37296.08862852835
 21
14103.20796627303
 31
0.0
  0
LINE
  5
3CD
330
6C
100
AcDbEntity
  8
Visible (ISO)
100
AcDbLine
 10
38516.08862852836
 20
14136.90796627303
 30
0.0
 11
37296.08862852835
 21
14136.90796627303
 31
0.0
  0
LINE
  5
3CE
330
6C
100
AcDbEntity
  8
Visible (ISO)
100
AcDbLine
 10
30266.08862852833
 20
14330.05796627303
 30
0.0
 11
30176.08862852833
 21
14330.05796627303
 31
0.0
  0
LINE
  5
3D0
330
6C
100
AcDbEntity
  8
Visible (ISO)
100
AcDbLine
 10
30271.08862852834
 20
12030.05796627301
 30
0.0
 11
30271.08862852833
 21
14330.05796627303
 31
0.0
  0
LINE
  5
3D1
330
6C
100
AcDbEntity
  8
Visible (ISO)
100
AcDbLine
 10
30171.08862852833
 20
14330.05796627303
 30
0.0
 11
30171.08862852833
 21
12030.05796627301
 31
0.0
  0
LINE
  5
3D3
330
6C
100
AcDbEntity
  8
Visible (ISO)
100
AcDbLine
 10
38521.08862852836
 20
14185.05796627303
 30
0.0
 11
38521.08862852836
 21
13967.05796627302
 31
0.0
  0
LINE
  5
3D4
330
6C
100
AcDbEntity
  8
Visible (ISO)
100
AcDbLine
 10
38621.08862852836
 20
13967.05796627302
 30
0.0
 11
38621.08862852836
 21
14185.05796627303
 31
0.0
  0
LINE
  5
3D5
330
6C
100
AcDbEntity
  8
Visible (ISO)
100
AcDbLine
 10
38616.08862852837
 20
14185.05796627303
 30
0.0
 11
38526.08862852836
 21
14185.05796627303
 31
0.0
  0
LINE
  5
3D6
330
6C
100
AcDbEntity
  8
Visible (ISO)
100
AcDbLine
 10
38626.08862852836
 20
13536.90796627301
 30
0.0
 11
39816.08862852836
 21
13536.907966273
 31
0.0
  0
LINE
  5
3D7
330
6C
100
AcDbEntity
  8
Visible (ISO)
100
AcDbLine
 10
38626.08862852836
 20
13503.20796627301
 30
0.0
 11
39816.08862852836
 21
13503.207966273
 31
0.0
  0
LINE
  5
3D9
330
6C
100
AcDbEntity
  8
Visible (ISO)
100
AcDbLine
 10
39921.08862852835
 20
12030.05796627304
 30
0.0
 11
39921.08862852835
 21
13585.05796627303
 31
0.0
  0
LINE
  5
3DA
330
6C
100
AcDbEntity
  8
Visible (ISO)
100
AcDbLine
 10
39821.08862852836
 20
13585.05796627303
 30
0.0
 11
39821.08862852836
 21
12030.05796627304
 31
0.0
  0
LINE
  5
3DC
330
6C
100
AcDbEntity
  8
Visible (ISO)
100
AcDbLine
 10
39916.08862852836
 20
13585.05796627303
 30
0.0
 11
39826.08862852836
 21
13585.05796627303
 31
0.0
  0
LINE
  5
3ED
330
6C
100
AcDbEntity
  8
Visible (ISO)
100
AcDbLine
 10
39266.08862852835
 20
13141.05796627303
 30
0.0
 11
39266.08862852835
 21
13179.05796627303
 31
0.0
  0
LINE
  5
3EE
330
6C
100
AcDbEntity
  8
Visible (ISO)
100
AcDbLine
 10
39292.08862852836
 20
13115.05796627303
 30
0.0
 11
39330.08862852835
 21
13115.05796627303
 31
0.0
  0
ARC
  5
3EF
330
6C
100
AcDbEntity
  8
Visible (ISO)
100
AcDbCircle
 10
39266.08862852835
 20
13115.05796627303
 30
0.0
 40
64.0
100
AcDbArc
 50
0.0
 51
90.0
  0
ARC
  5
3F0
330
6C
100
AcDbEntity
  8
Visible (ISO)
100
AcDbCircle
 10
39266.08862852835
 20
13115.05796627303
 30
0.0
 40
26.0
100
AcDbArc
 50
0.0
 51
90.0
  0
LINE
  5
3F1
330
6C
100
AcDbEntity
  8
Visible (ISO)
100
AcDbLine
 10
39292.08862852836
 20
13115.05796627303
 30
0.0
 11
39330.08862852835
 21
13115.05796627303
 31
0.0
  0
LINE
  5
3F3
330
6C
100
AcDbEntity
  8
Visible (ISO)
100
AcDbLine
 10
39292.08862852836
 20
12030.05796627304
 30
0.0
 11
39292.08862852836
 21
13115.05796627303
 31
0.0
  0
LINE
  5
3F5
330
6C
100
AcDbEntity
  8
Visible (ISO)
100
AcDbLine
 10
39330.08862852835
 20
12030.05796627304
 30
0.0
 11
39330.08862852835
 21
13115.05796627303
 31
0.0
  0
LINE
  5
3F6
330
6C
100
AcDbEntity
  8
Visible (ISO)
100
AcDbLine
 10
36766.08862852836
 20
13141.05796627303
 30
0.0
 11
36766.08862852836
 21
13179.05796627303
 31
0.0
  0
LINE
  5
3F7
330
6C
100
AcDbEntity
  8
Visible (ISO)
100
AcDbLine
 10
39266.08862852836
 20
13179.05796627303
 30
0.0
 11
39266.08862852836
 21
13141.05796627303
 31
0.0
  0
LINE
  5
3F8
330
6C
100
AcDbEntity
  8
Visible (ISO)
100
AcDbLine
 10
36766.08862852836
 20
13179.05796627303
 30
0.0
 11
39266.08862852836
 21
13179.05796627303
 31
0.0
  0
LINE
  5
3F9
330
6C
100
AcDbEntity
  8
Visible (ISO)
100
AcDbLine
 10
36766.08862852836
 20
13141.05796627303
 30
0.0
 11
37016.62135925448
 21
13141.05796627303
 31
0.0
  0
LINE
  5
3FA
330
6C
100
AcDbEntity
  8
Visible (ISO)
100
AcDbLine
 10
37175.55589780224
 20
13141.05796627303
 30
0.0
 11
39266.08862852836
 21
13141.05796627303
 31
0.0
  0
LINE
  5
3FC
330
6C
100
AcDbEntity
  8
Visible (ISO)
100
AcDbLine
 10
37146.08862852835
 20
12030.05796627303
 30
0.0
 11
37146.08862852836
 21
13138.07227385879
 31
0.0
  0
LINE
  5
3FD
330
6C
100
AcDbEntity
  8
Visible (ISO)
100
AcDbLine
 10
37141.08862852835
 20
13140.05796627303
 30
0.0
 11
37145.5731539022
 21
13140.05796627303
 31
0.0
  0
LINE
  5
3FE
330
6C
100
AcDbEntity
  8
Visible (ISO)
100
AcDbLine
 10
37046.60410315451
 20
13140.05796627303
 30
0.0
 11
37051.08862852836
 21
13140.05796627303
 31
0.0
  0
LINE
  5
3FF
330
6C
100
AcDbEntity
  8
Visible (ISO)
100
AcDbLine
 10
37046.08862852835
 20
13138.07227385879
 30
0.0
 11
37046.08862852835
 21
12030.05796627303
 31
0.0
  0
LINE
  5
401
330
6C
100
AcDbEntity
  8
Visible (ISO)
100
AcDbLine
 10
37141.08862852835
 20
13140.05796627303
 30
0.0
 11
37051.08862852836
 21
13140.05796627303
 31
0.0
  0
LINE
  5
402
330
6C
100
AcDbEntity
  8
Visible (ISO)
100
AcDbLine
 10
37176.08862852836
 20
13137.34762535964
 30
0.0
 11
37176.08862852836
 21
13138.96378658128
 31
0.0
  0
SPLINE
  5
403
330
6C
100
AcDbEntity
  8
Visible (ISO)
100
AcDbSpline
210
0.0
220
0.0
230
1.0
 70
     8
 71
     3
 72
    18
 73
    14
 74
     0
 42
0.0000000001
 43
0.0000000001
 40
3.443638552171817
 40
3.443638552171817
 40
3.443638552171817
 40
3.443638552171817
 40
3.693539381105372
 40
3.693539381105372
 40
3.943440210038927
 40
3.943440210038927
 40
4.192658877292499
 40
4.192658877292499
 40
4.441877544546071
 40
4.441877544546071
 40
4.736734844598586
 40
4.736734844598586
 40
4.991787458463333
 40
4.991787458463333
 40
4.991787458463333
 40
4.991787458463333
 10
37026.08862852836
 20
13146.37404061913
 30
0.0
 10
37025.25562576525
 20
13146.37404061913
 30
0.0
 10
37024.35136819186
 20
13146.27752909119
 30
0.0
 10
37022.61020767569
 20
13145.87403085409
 30
0.0
 10
37021.77331093508
 20
13145.56772241275
 30
0.0
 10
37020.33657122388
 20
13144.86953044832
 30
0.0
 10
37019.61412169243
 20
13144.41807451392
 30
0.0
 10
37018.35604040569
 20
13143.40781618566
 30
0.0
 10
37017.82040630969
 20
13142.85069788784
 30
0.0
 10
37016.93702414959
 20
13141.70501389844
 30
0.0
 10
37016.58606746028
 20
13141.06757505089
 30
0.0
 10
37016.17876214944
 20
13139.93171937685
 30
0.0
 10
37016.08862852836
 20
13139.42607883741
 30
0.0
 10
37016.08862852836
 20
13138.96378658128
 30
0.0
  0
SPLINE
  5
404
330
6C
100
AcDbEntity
  8
Visible (ISO)
100
AcDbSpline
210
0.0
220
0.0
230
1.0
 70
     8
 71
     3
 72
    14
 73
    10
 74
     0
 42
0.0000000001
 43
0.0000000001
 40
5.432658229668222
 40
5.432658229668222
 40
5.432658229668222
 40
5.432658229668222
 40
5.829142895255148
 40
5.829142895255148
 40
6.225627560842074
 40
6.225627560842074
 40
6.602879506725217
 40
6.602879506725217
 40
6.980131452608361
 40
6.980131452608361
 40
6.980131452608361
 40
6.980131452608361
 10
37176.08862852836
 20
13138.96378658128
 30
0.0
 10
37176.08862852836
 20
13139.66271760614
 30
0.0
 10
37175.86926966841
 20
13140.52590231029
 30
0.0
 10
37174.87122280458
 20
13142.29657839338
 30
0.0
 10
37174.08972785399
 20
13143.19820091999
 30
0.0
 10
37172.27477889258
 20
13144.64370840302
 30
0.0
 10
37171.15147756705
 20
13145.28694174506
 30
0.0
 10
37168.68709412363
 20
13146.15364488865
 30
0.0
 10
37167.34613501463
 20
13146.37404061912
 30
0.0
 10
37166.08862852836
 20
13146.37404061912
 30
0.0
  0
SPLINE
  5
405
330
6C
100
AcDbEntity
  8
Visible (ISO)
100
AcDbSpline
210
0.0
220
0.0
230
1.0
 70
     8
 71
     3
 72
    14
 73
    10
 74
     0
 42
0.0000000001
 43
0.0000000001
 40
6.559992712265002
 40
6.559992712265002
 40
6.559992712265002
 40
6.559992712265002
 40
6.937115659770563
 40
6.937115659770563
 40
7.314238607276124
 40
7.314238607276124
 40
7.705797430801156
 40
7.705797430801156
 40
8.097356254326188
 40
8.097356254326188
 40
8.097356254326188
 40
8.097356254326188
 10
37166.08862852836
 20
13144.92404061913
 30
0.0
 10
37167.34570502004
 20
13144.92404061913
 30
0.0
 10
37168.68628947988
 20
13144.70409699303
 30
0.0
 10
37171.15053866701
 20
13143.83545890855
 30
0.0
 10
37172.27410803807
 20
13143.18948591574
 30
0.0
 10
37174.0791840458
 20
13141.73651882204
 30
0.0
 10
37174.85786422096
 20
13140.82998363533
 30
0.0
 10
37175.86159818969
 20
13139.0124488121
 30
0.0
 10
37176.08862852836
 20
13138.10627394023
 30
0.0
 10
37176.08862852836
 20
13137.34762535964
 30
0.0
  0
SPLINE
  5
406
330
6C
100
AcDbEntity
  8
Visible (ISO)
100
AcDbSpline
210
0.0
220
0.0
230
1.0
 70
     8
 71
     3
 72
    18
 73
    14
 74
     0
 42
0.0000000001
 43
0.0000000001
 40
1.740373393535247
 40
1.740373393535247
 40
1.740373393535247
 40
1.740373393535247
 40
1.851747771397117
 40
1.851747771397117
 40
2.138930673442415
 40
2.138930673442415
 40
2.419005082044408
 40
2.419005082044408
 40
2.699079490646401
 40
2.699079490646401
 40
2.978709475095751
 40
2.978709475095751
 40
3.258339459545101
 40
3.258339459545101
 40
3.258339459545101
 40
3.258339459545101
 10
37016.08862852836
 20
13137.34762535964
 30
0.0
 10
37016.08862852836
 20
13137.57837108285
 30
0.0
 10
37016.10838554706
 20
13137.81952177852
 30
0.0
 10
37016.25517024739
 20
13138.704601664
 30
0.0
 10
37016.51028704373
 20
13139.38613255709
 30
0.0
 10
37017.223031111
 20
13140.6313351625
 30
0.0
 10
37017.73048006709
 20
13141.29385808274
 30
0.0
 10
37018.99839337227
 20
13142.51144484239
 30
0.0
 10
37019.75894838964
 20
13143.06436986693
 30
0.0
 10
37021.30926130887
 20
13143.92486437433
 30
0.0
 10
37022.22451965576
 20
13144.30317466921
 30
0.0
 10
37024.14815861125
 20
13144.80322020757
 30
0.0
 10
37025.15652858019
 20
13144.92404061913
 30
0.0
 10
37026.08862852836
 20
13144.92404061913
 30
0.0
  0
LINE
  5
407
330
6C
100
AcDbEntity
  8
Visible (ISO)
100
AcDbLine
 10
37016.08862852836
 20
13138.96378658128
 30
0.0
 11
37016.08862852836
 21
13137.34762535964
 31
0.0
  0
LINE
  5
408
330
6C
100
AcDbEntity
  8
Visible (ISO)
100
AcDbLine
 10
37176.08862852836
 20
13137.34762535964
 30
0.0
 11
37176.08862852836
 21
13132.84904061913
 31
0.0
  0
LINE
  5
409
330
6C
100
AcDbEntity
  8
Visible (ISO)
100
AcDbLine
 10
37026.08862852836
 20
13146.37404061913
 30
0.0
 11
37166.08862852836
 21
13146.37404061912
 31
0.0
  0
LINE
  5
40A
330
6C
100
AcDbEntity
  8
Visible (ISO)
100
AcDbLine
 10
37166.08862852836
 20
13144.92404061913
 30
0.0
 11
37026.08862852836
 21
13144.92404061913
 31
0.0
  0
LINE
  5
40B
330
6C
100
AcDbEntity
  8
Visible (ISO)
100
AcDbLine
 10
37016.08862852836
 20
13132.84904061913
 30
0.0
 11
37016.08862852836
 21
13137.34762535964
 31
0.0
  0
LINE
  5
40C
330
6C
100
AcDbEntity
  8
Visible (ISO)
100
AcDbLine
 10
37016.08862852836
 20
13132.84904061913
 30
0.0
 11
37025.58862852836
 21
13132.84904061913
 31
0.0
  0
LINE
  5
40D
330
6C
100
AcDbEntity
  8
Visible (ISO)
100
AcDbLine
 10
37036.58862852836
 20
13132.84904061913
 30
0.0
 11
37046.08862852836
 21
13132.84904061913
 31
0.0
  0
LINE
  5
40E
330
6C
100
AcDbEntity
  8
Visible (ISO)
100
AcDbLine
 10
37146.08862852836
 20
13132.84904061913
 30
0.0
 11
37155.58862852836
 21
13132.84904061913
 31
0.0
  0
LINE
  5
40F
330
6C
100
AcDbEntity
  8
Visible (ISO)
100
AcDbLine
 10
37166.58862852836
 20
13132.84904061913
 30
0.0
 11
37176.08862852836
 21
13132.84904061913
 31
0.0
  0
SPLINE
  5
410
330
6C
100
AcDbEntity
  8
Visible (ISO)
100
AcDbSpline
210
0.0
220
0.0
230
1.0
 70
     8
 71
     3
 72
    14
 73
    10
 74
     0
 42
0.0000000001
 43
0.0000000001
 40
0.0
 40
0.0
 40
0.0
 40
0.0
 40
0.2079752945499463
 40
0.2079752945499463
 40
0.4159505890998926
 40
0.4159505890998926
 40
0.6239060636691005
 40
0.6239060636691005
 40
0.8318615382383082
 40
0.8318615382383082
 40
0.8318615382484432
 40
0.8318615382484432
 10
37031.08862852836
 20
13133.48367330326
 30
0.0
 10
37031.78187951019
 20
13133.48367330326
 30
0.0
 10
37032.51960332349
 20
13133.44983044666
 30
0.0
 10
37033.87392547667
 20
13133.32890150113
 30
0.0
 10
37034.49074391786
 20
13133.24370308979
 30
0.0
 10
37035.46464132363
 20
13133.084793736
 30
0.0
 10
37035.88753904918
 20
13133.00057012722
 30
0.0
 10
37036.44959875064
 20
13132.88188811065
 30
0.0
 10
37036.58862852836
 20
13132.84904061913
 30
0.0
 10
37036.58862852836
 20
13132.84904061913
 30
0.0
  0
SPLINE
  5
411
330
6C
100
AcDbEntity
  8
Visible (ISO)
100
AcDbSpline
210
0.0
220
0.0
230
1.0
 70
     8
 71
     3
 72
    14
 73
    10
 74
     0
 42
0.0000000001
 43
0.0000000001
 40
2.495584614714925
 40
2.495584614714925
 40
2.495584614737683
 40
2.495584614737683
 40
2.703540089284133
 40
2.703540089284133
 40
2.911495563853341
 40
2.911495563853341
 40
3.119470858403287
 40
3.119470858403287
 40
3.327446152953233
 40
3.327446152953233
 40
3.327446152953233
 40
3.327446152953233
 10
37025.58862852836
 20
13132.84904061913
 30
0.0
 10
37025.58862852839
 20
13132.84904061913
 30
0.0
 10
37025.7276583061
 20
13132.88188811066
 30
0.0
 10
37026.28971800753
 20
13133.00057012722
 30
0.0
 10
37026.71261573308
 20
13133.084793736
 30
0.0
 10
37027.68651313886
 20
13133.24370308979
 30
0.0
 10
37028.30333158004
 20
13133.32890150113
 30
0.0
 10
37029.65765373323
 20
13133.44983044666
 30
0.0
 10
37030.39537754653
 20
13133.48367330326
 30
0.0
 10
37031.08862852836
 20
13133.48367330326
 30
0.0
  0
SPLINE
  5
412
330
6C
100
AcDbEntity
  8
Visible (ISO)
100
AcDbSpline
210
0.0
220
0.0
230
1.0
 70
     8
 71
     3
 72
    14
 73
    10
 74
     0
 42
0.0000000001
 43
0.0000000001
 40
0.0
 40
0.0
 40
0.0
 40
0.0
 40
0.2079752945499462
 40
0.2079752945499462
 40
0.4159505890998925
 40
0.4159505890998925
 40
0.6239060636691003
 40
0.6239060636691003
 40
0.8318615382383079
 40
0.8318615382383079
 40
0.8318615382484754
 40
0.8318615382484754
 10
37161.08862852836
 20
13133.48367330326
 30
0.0
 10
37161.78187951018
 20
13133.48367330326
 30
0.0
 10
37162.51960332348
 20
13133.44983044666
 30
0.0
 10
37163.87392547667
 20
13133.32890150113
 30
0.0
 10
37164.49074391786
 20
13133.24370308979
 30
0.0
 10
37165.46464132363
 20
13133.084793736
 30
0.0
 10
37165.88753904919
 20
13133.00057012722
 30
0.0
 10
37166.44959875064
 20
13132.88188811065
 30
0.0
 10
37166.58862852836
 20
13132.84904061913
 30
0.0
 10
37166.58862852836
 20
13132.84904061913
 30
0.0
  0
SPLINE
  5
413
330
6C
100
AcDbEntity
  8
Visible (ISO)
100
AcDbSpline
210
0.0
220
0.0
230
1.0
 70
     8
 71
     3
 72
    14
 73
    10
 74
     0
 42
0.0000000001
 43
0.0000000001
 40
2.495584614714924
 40
2.495584614714924
 40
2.495584614737698
 40
2.495584614737698
 40
2.703540089284132
 40
2.703540089284132
 40
2.911495563853339
 40
2.911495563853339
 40
3.119470858403286
 40
3.119470858403286
 40
3.327446152953232
 40
3.327446152953232
 40
3.327446152953232
 40
3.327446152953232
 10
37155.58862852836
 20
13132.84904061913
 30
0.0
 10
37155.58862852839
 20
13132.84904061913
 30
0.0
 10
37155.7276583061
 20
13132.88188811066
 30
0.0
 10
37156.28971800753
 20
13133.00057012722
 30
0.0
 10
37156.71261573308
 20
13133.084793736
 30
0.0
 10
37157.68651313886
 20
13133.24370308979
 30
0.0
 10
37158.30333158004
 20
13133.32890150113
 30
0.0
 10
37159.65765373324
 20
13133.44983044666
 30
0.0
 10
37160.39537754652
 20
13133.48367330326
 30
0.0
 10
37161.08862852836
 20
13133.48367330326
 30
0.0
  0
ELLIPSE
  5
414
330
6C
100
AcDbEntity
  8
Visible (ISO)
100
AcDbEllipse
 10
30176.08862852833
 20
15278.23811510164
 30
0.0
 11
4.99999999999998
 21
0.000000000000064
 31
0.0
210
0.0
220
0.0
230
0.9999999999999998
 40
0.3639702342662028
 41
1.570796326794892
 42
3.141592653589762
  0
LINE
  5
415
330
6C
100
AcDbEntity
  8
Visible (ISO)
100
AcDbLine
 10
30266.08862852833
 20
15280.05796627298
 30
0.0
 11
30176.08862852833
 21
15280.05796627298
 31
0.0
  0
ELLIPSE
  5
416
330
6C
100
AcDbEntity
  8
Visible (ISO)
100
AcDbEllipse
 10
30266.08862852833
 20
15278.23811510165
 30
0.0
 11
4.99999999999998
 21
0.0000000000000636
 31
0.0
210
0.0
220
0.0
230
0.9999999999999998
 40
0.3639702342662028
 41
0.0
 42
1.570796326794892
  0
LINE
  5
417
330
6C
100
AcDbEntity
  8
Visible (ISO)
100
AcDbLine
 10
30171.08862852833
 20
15278.23811510164
 30
0.0
 11
30171.08862852834
 21
14332.05796627302
 31
0.0
  0
LINE
  5
418
330
6C
100
AcDbEntity
  8
Visible (ISO)
100
AcDbLine
 10
30271.08862852834
 20
14332.05796627302
 30
0.0
 11
30271.08862852833
 21
15278.23811510164
 31
0.0
  0
LINE
  5
419
330
6C
100
AcDbEntity
  8
Visible (ISO)
100
AcDbLine
 10
30176.08862852834
 20
15931.19574292411
 30
0.0
 11
30266.08862852834
 21
15931.19574292411
 31
0.0
  0
ARC
  5
41A
330
6C
100
AcDbEntity
  8
Visible (ISO)
100
AcDbCircle
 10
30266.08862852834
 20
15926.19574292411
 30
0.0
 40
4.999999999999997
100
AcDbArc
 50
0.0
 51
90.0
  0
ARC
  5
41B
330
6C
100
AcDbEntity
  8
Visible (ISO)
100
AcDbCircle
 10
30176.08862852834
 20
15926.19574292411
 30
0.0
 40
4.999999999999997
100
AcDbArc
 50
90.0
 51
180.0
  0
ELLIPSE
  5
41C
330
6C
100
AcDbEntity
  8
Visible (ISO)
100
AcDbEllipse
 10
30266.08862852834
 20
15278.23811510165
 30
0.0
 11
4.999999999999998
 21
0.0000000000000701
 31
0.0
210
0.0
220
0.0
230
1.0
 40
0.3639702342662036
 41
0.0
 42
1.570796326794891
  0
LINE
  5
41D
330
6C
100
AcDbEntity
  8
Visible (ISO)
100
AcDbLine
 10
30176.08862852834
 20
15280.05796627298
 30
0.0
 11
30266.08862852834
 21
15280.05796627298
 31
0.0
  0
ELLIPSE
  5
41E
330
6C
100
AcDbEntity
  8
Visible (ISO)
100
AcDbEllipse
 10
30176.08862852834
 20
15278.23811510165
 30
0.0
 11
4.999999999999998
 21
0.0000000000000704
 31
0.0
210
0.0
220
0.0
230
1.0
 40
0.3639702342662036
 41
1.570796326794891
 42
3.141592653589764
  0
LINE
  5
41F
330
6C
100
AcDbEntity
  8
Visible (ISO)
100
AcDbLine
 10
30171.08862852834
 20
15926.19574292411
 30
0.0
 11
30171.08862852834
 21
15278.23811510164
 31
0.0
  0
LINE
  5
420
330
6C
100
AcDbEntity
  8
Visible (ISO)
100
AcDbLine
 10
30271.08862852834
 20
15278.23811510165
 30
0.0
 11
30271.08862852834
 21
15926.19574292411
 31
0.0
  0
ARC
  5
421
330
6C
100
AcDbEntity
  8
Visible (ISO)
100
AcDbCircle
 10
30176.08862852834
 20
15926.19574292411
 30
0.0
 40
5.000000000000002
100
AcDbArc
 50
90.0
 51
180.0
  0
LINE
  5
422
330
6C
100
AcDbEntity
  8
Visible (ISO)
100
AcDbLine
 10
30266.08862852834
 20
15931.19574292411
 30
0.0
 11
30176.08862852834
 21
15931.19574292411
 31
0.0
  0
ARC
  5
423
330
6C
100
AcDbEntity
  8
Visible (ISO)
100
AcDbCircle
 10
30266.08862852834
 20
15926.19574292411
 30
0.0
 40
5.000000000000002
100
AcDbArc
 50
0.0
 51
90.0
  0
LINE
  5
424
330
6C
100
AcDbEntity
  8
Visible (ISO)
100
AcDbLine
 10
30272.08862852833
 20
15881.69574292417
 30
0.0
 11
30272.08862852833
 21
15891.69574292417
 31
0.0
  0
LINE
  5
425
330
6C
100
AcDbEntity
  8
Visible (ISO)
100
AcDbLine
 10
30272.08862852833
 20
15881.69574292417
 30
0.0
 11
30275.08862852834
 21
15881.69574292417
 31
0.0
  0
LINE
  5
426
330
6C
100
AcDbEntity
  8
Visible (ISO)
100
AcDbLine
 10
30275.08862852834
 20
15891.69574292417
 30
0.0
 11
30275.08862852834
 21
15881.69574292417
 31
0.0
  0
LINE
  5
427
330
6C
100
AcDbEntity
  8
Visible (ISO)
100
AcDbLine
 10
30170.08862852834
 20
15891.69574292417
 30
0.0
 11
30170.08862852834
 21
15881.69574292417
 31
0.0
  0
LINE
  5
428
330
6C
100
AcDbEntity
  8
Visible (ISO)
100
AcDbLine
 10
30167.08862852834
 20
15881.69574292417
 30
0.0
 11
30167.08862852834
 21
15891.69574292417
 31
0.0
  0
LINE
  5
429
330
6C
100
AcDbEntity
  8
Visible (ISO)
100
AcDbLine
 10
30167.08862852834
 20
15881.69574292417
 30
0.0
 11
30170.08862852834
 21
15881.69574292417
 31
0.0
  0
LINE
  5
42A
330
6C
100
AcDbEntity
  8
Visible (ISO)
100
AcDbLine
 10
30272.08862852833
 20
15928.19574292417
 30
0.0
 11
30272.08862852833
 21
15891.69574292417
 31
0.0
  0
LINE
  5
42B
330
6C
100
AcDbEntity
  8
Visible (ISO)
100
AcDbLine
 10
30170.08862852834
 20
15891.69574292417
 30
0.0
 11
30170.08862852834
 21
15928.19574292417
 31
0.0
  0
LINE
  5
42C
330
6C
100
AcDbEntity
  8
Visible (ISO)
100
AcDbLine
 10
30275.08862852834
 20
15928.19574292417
 30
0.0
 11
30275.08862852834
 21
15891.69574292417
 31
0.0
  0
LINE
  5
42D
330
6C
100
AcDbEntity
  8
Visible (ISO)
100
AcDbLine
 10
30173.08862852834
 20
15931.19574292417
 30
0.0
 11
30176.08862852834
 21
15931.19574292417
 31
0.0
  0
LINE
  5
42E
330
6C
100
AcDbEntity
  8
Visible (ISO)
100
AcDbLine
 10
30266.08862852834
 20
15931.19574292417
 30
0.0
 11
30269.08862852833
 21
15931.19574292417
 31
0.0
  0
LINE
  5
42F
330
6C
100
AcDbEntity
  8
Visible (ISO)
100
AcDbLine
 10
30173.08862852834
 20
15934.19574292417
 30
0.0
 11
30269.08862852833
 21
15934.19574292417
 31
0.0
  0
LINE
  5
430
330
6C
100
AcDbEntity
  8
Visible (ISO)
100
AcDbLine
 10
30167.08862852834
 20
15891.69574292417
 30
0.0
 11
30167.08862852834
 21
15928.19574292417
 31
0.0
  0
ARC
  5
431
330
6C
100
AcDbEntity
  8
Visible (ISO)
100
AcDbCircle
 10
30269.08862852833
 20
15928.19574292417
 30
0.0
 40
5.999999999999984
100
AcDbArc
 50
0.0
 51
90.0
  0
ARC
  5
432
330
6C
100
AcDbEntity
  8
Visible (ISO)
100
AcDbCircle
 10
30269.08862852833
 20
15928.19574292417
 30
0.0
 40
2.999999999999992
100
AcDbArc
 50
0.0
 51
90.0
  0
ARC
  5
433
330
6C
100
AcDbEntity
  8
Visible (ISO)
100
AcDbCircle
 10
30173.08862852834
 20
15928.19574292417
 30
0.0
 40
5.999999999999975
100
AcDbArc
 50
90.0
 51
180.0
  0
ARC
  5
434
330
6C
100
AcDbEntity
  8
Visible (ISO)
100
AcDbCircle
 10
30173.08862852834
 20
15928.19574292417
 30
0.0
 40
2.999999999999987
100
AcDbArc
 50
90.0
 51
180.0
  0
LINE
  5
435
330
6C
100
AcDbEntity
  8
Visible (ISO)
100
AcDbLine
 10
30170.08862852834
 20
15880.69574292405
 30
0.0
 11
30170.08862852834
 21
15870.69574292405
 31
0.0
  0
LINE
  5
436
330
6C
100
AcDbEntity
  8
Visible (ISO)
100
AcDbLine
 10
30170.08862852834
 20
15880.69574292405
 30
0.0
 11
30167.08862852834
 21
15880.69574292405
 31
0.0
  0
LINE
  5
437
330
6C
100
AcDbEntity
  8
Visible (ISO)
100
AcDbLine
 10
30167.08862852834
 20
15870.69574292405
 30
0.0
 11
30167.08862852834
 21
15880.69574292405
 31
0.0
  0
LINE
  5
438
330
6C
100
AcDbEntity
  8
Visible (ISO)
100
AcDbLine
 10
30272.08862852833
 20
15870.69574292405
 30
0.0
 11
30272.08862852833
 21
15880.69574292405
 31
0.0
  0
LINE
  5
439
330
6C
100
AcDbEntity
  8
Visible (ISO)
100
AcDbLine
 10
30275.08862852834
 20
15880.69574292405
 30
0.0
 11
30275.08862852834
 21
15870.69574292405
 31
0.0
  0
LINE
  5
43A
330
6C
100
AcDbEntity
  8
Visible (ISO)
100
AcDbLine
 10
30275.08862852834
 20
15880.69574292405
 30
0.0
 11
30272.08862852833
 21
15880.69574292405
 31
0.0
  0
LINE
  5
43B
330
6C
100
AcDbEntity
  8
Visible (ISO)
100
AcDbLine
 10
30170.08862852834
 20
15834.19574292405
 30
0.0
 11
30170.08862852834
 21
15870.69574292405
 31
0.0
  0
LINE
  5
43C
330
6C
100
AcDbEntity
  8
Visible (ISO)
100
AcDbLine
 10
30272.08862852833
 20
15870.69574292405
 30
0.0
 11
30272.08862852833
 21
15834.19574292405
 31
0.0
  0
LINE
  5
43D
330
6C
100
AcDbEntity
  8
Visible (ISO)
100
AcDbLine
 10
30167.08862852834
 20
15834.19574292405
 30
0.0
 11
30167.08862852834
 21
15870.69574292405
 31
0.0
  0
LINE
  5
43E
330
6C
100
AcDbEntity
  8
Visible (ISO)
100
AcDbLine
 10
30275.08862852834
 20
15870.69574292405
 30
0.0
 11
30275.08862852834
 21
15834.19574292405
 31
0.0
  0
ARC
  5
43F
330
6C
100
AcDbEntity
  8
Visible (ISO)
100
AcDbCircle
 10
30173.08862852834
 20
15834.19574292405
 30
0.0
 40
5.999999999999968
100
AcDbArc
 50
180.0
 51
250.5287793654823
  0
ARC
  5
440
330
6C
100
AcDbEntity
  8
Visible (ISO)
100
AcDbCircle
 10
30173.08862852834
 20
15834.19574292405
 30
0.0
 40
2.999999999999968
100
AcDbArc
 50
180.0
 51
228.1896851041551
  0
ARC
  5
441
330
6C
100
AcDbEntity
  8
Visible (ISO)
100
AcDbCircle
 10
30269.08862852833
 20
15834.19574292405
 30
0.0
 40
5.999999999999966
100
AcDbArc
 50
289.47122063448
 51
0.0
  0
ARC
  5
442
330
6C
100
AcDbEntity
  8
Visible (ISO)
100
AcDbCircle
 10
30269.08862852833
 20
15834.19574292405
 30
0.0
 40
3.000000000000005
100
AcDbArc
 50
311.8103148957265
 51
0.0
  0
LINE
  5
443
330
6C
100
AcDbEntity
  8
Visible (ISO)
100
AcDbLine
 10
36766.08862852837
 20
12020.05796627303
 30
0.0
 11
39311.08862852837
 21
12020.05796627304
 31
0.0
  0
LINE
  5
444
330
6C
100
AcDbEntity
  8
Visible (ISO)
100
AcDbLine
 10
39311.08862852837
 20
12030.05796627304
 30
0.0
 11
36766.08862852837
 21
12030.05796627303
 31
0.0
  0
LINE
  5
445
330
6C
100
AcDbEntity
  8
Visible (ISO)
100
AcDbLine
 10
40811.08862852837
 20
12020.05796627304
 30
0.0
 11
39311.08862852837
 21
12020.05796627304
 31
0.0
  0
LINE
  5
446
330
6C
100
AcDbEntity
  8
Visible (ISO)
100
AcDbLine
 10
40811.08862852837
 20
12030.05796627304
 30
0.0
 11
40811.08862852837
 21
12020.05796627304
 31
0.0
  0
LINE
  5
447
330
6C
100
AcDbEntity
  8
Visible (ISO)
100
AcDbLine
 10
39311.08862852837
 20
12030.05796627304
 30
0.0
 11
40811.08862852837
 21
12030.05796627304
 31
0.0
  0
LINE
  5
448
330
6C
100
AcDbEntity
  8
Visible (ISO)
100
AcDbLine
 10
41421.08862852835
 20
12020.05796627305
 30
0.0
 11
40811.08862852836
 21
12020.05796627304
 31
0.0
  0
LINE
  5
449
330
6C
100
AcDbEntity
  8
Visible (ISO)
100
AcDbLine
 10
41421.08862852836
 20
12030.05796627304
 30
0.0
 11
41421.08862852836
 21
12020.05796627305
 31
0.0
  0
LINE
  5
44A
330
6C
100
AcDbEntity
  8
Visible (ISO)
100
AcDbLine
 10
40811.08862852837
 20
12030.05796627304
 30
0.0
 11
41421.08862852836
 21
12030.05796627304
 31
0.0
  0
LINE
  5
44B
330
6C
100
AcDbEntity
  8
Visible (ISO)
100
AcDbLine
 10
28671.08862852834
 20
12030.05796627301
 30
0.0
 11
28671.08862852834
 21
12020.05796627301
 31
0.0
  0
LINE
  5
44C
330
6C
100
AcDbEntity
  8
Visible (ISO)
100
AcDbLine
 10
30171.08862852834
 20
12020.05796627301
 30
0.0
 11
28671.08862852834
 21
12020.05796627301
 31
0.0
  0
LINE
  5
44D
330
6C
100
AcDbEntity
  8
Visible (ISO)
100
AcDbLine
 10
28671.08862852834
 20
12030.05796627301
 30
0.0
 11
30171.08862852835
 21
12030.05796627301
 31
0.0
  0
LINE
  5
44E
330
6C
100
AcDbEntity
  8
Visible (ISO)
100
AcDbLine
 10
30171.08862852835
 20
12020.05796627301
 30
0.0
 11
30271.08862852834
 21
12020.05796627301
 31
0.0
  0
LINE
  5
44F
330
6C
100
AcDbEntity
  8
Visible (ISO)
100
AcDbLine
 10
30271.08862852834
 20
12030.05796627301
 30
0.0
 11
30171.08862852835
 21
12030.05796627301
 31
0.0
  0
LINE
  5
450
330
6C
100
AcDbEntity
  8
Visible (ISO)
100
AcDbLine
 10
31716.77185800843
 20
12020.05796627302
 30
0.0
 11
30271.08862852834
 21
12020.05796627301
 31
0.0
  0
LINE
  5
451
330
6C
100
AcDbEntity
  8
Visible (ISO)
100
AcDbLine
 10
31716.77185800843
 20
12030.05796627302
 30
0.0
 11
31716.77185800843
 21
12020.05796627302
 31
0.0
  0
LINE
  5
452
330
6C
100
AcDbEntity
  8
Visible (ISO)
100
AcDbLine
 10
30271.08862852834
 20
12030.05796627301
 30
0.0
 11
31716.77185800843
 21
12030.05796627302
 31
0.0
  0
LINE
  5
453
330
6C
100
AcDbEntity
  8
Visible (ISO)
100
AcDbLine
 10
31716.77185800843
 20
12020.05796627302
 30
0.0
 11
35266.08862852837
 21
12020.05796627303
 31
0.0
  0
LINE
  5
454
330
6C
100
AcDbEntity
  8
Visible (ISO)
100
AcDbLine
 10
35266.08862852837
 20
12030.05796627303
 30
0.0
 11
31716.77185800843
 21
12030.05796627302
 31
0.0
  0
LINE
  5
455
330
6C
100
AcDbEntity
  8
Visible (ISO)
100
AcDbLine
 10
36766.08862852837
 20
12020.05796627303
 30
0.0
 11
35266.08862852837
 21
12020.05796627303
 31
0.0
  0
LINE
  5
456
330
6C
100
AcDbEntity
  8
Visible (ISO)
100
AcDbLine
 10
35266.08862852837
 20
12030.05796627303
 30
0.0
 11
36766.08862852837
 21
12030.05796627303
 31
0.0
  0
LINE
  5
457
330
6C
100
AcDbEntity
  8
Visible (ISO)
100
AcDbLine
 10
35266.08862852837
 20
12030.05796627303
 30
0.0
 11
35266.08862852837
 21
12020.05796627303
 31
0.0
  0
DIMENSION
  5
5F4
330
6C
100
AcDbEntity
  8
Dimension (ISO)
100
AcDbDimension
  2
*D7
 10
27809.55433279335
 20
3419.029329796475
 30
0.0
 11
27809.55433279335
 21
7067.898798030025
 31
0.0
 70
   160
  1
<>
 71
     2
 42
7297.738936467105
  3
Default (ISO)
100
AcDbAlignedDimension
 13
30171.08862852654
 23
10716.76826626358
 33
0.0
 14
30171.08862852652
 24
3419.029329796474
 34
0.0
 50
90.0
100
AcDbRotatedDimension
1001
ACAD
1000
DSTYLE
1002
{
1070
   172
1070
     0
1070
   289
1070
     1
1070
    74
1070
     0
1070
   271
1070
     0
1070
   272
1070
     2
1070
    48
1040
0.0
1070
    47
1040
0.0
1002
}
  0
DIMENSION
  5
6DD
330
6C
100
AcDbEntity
  8
Dimension (ISO)
100
AcDbDimension
  2
*D8
 10
41421.08862852654
 20
1643.736319807454
 30
0.0
 11
35046.08862852653
 21
1643.736319807454
 31
0.0
 70
   160
  1
<>
 71
     2
 42
12750.00000000002
  3
Default (ISO)
100
AcDbAlignedDimension
 13
28671.08862852652
 23
4919.029329796472
 33
0.0
 14
41421.08862852654
 24
8819.029329796455
 34
0.0
100
AcDbRotatedDimension
1001
ACAD
1000
DSTYLE
1002
{
1070
   172
1070
     0
1070
   289
1070
     1
1070
    74
1070
     0
1070
   271
1070
     2
1070
   272
1070
     2
1070
    48
1040
0.0
1070
    47
1040
0.0
1002
}
  0
DIMENSION
  5
7BF
330
6C
100
AcDbEntity
  8
Dimension (ISO)
100
AcDbDimension
  2
*D9
 10
39921.08862852653
 20
9599.338347826964
 30
0.0
 11
35046.08862852653
 21
9599.338347826964
 31
0.0
 70
   160
  1
<>
 71
     2
 42
9750.000000000012
  3
Default (ISO)
100
AcDbAlignedDimension
 13
30171.08862852652
 23
9211.768266264535
 33
0.0
 14
39921.08862852653
 24
8916.029329796916
 34
0.0
 50
180.0
100
AcDbRotatedDimension
1001
ACAD
1000
DSTYLE
1002
{
1070
   172
1070
     0
1070
   289
1070
     1
1070
    74
1070
     0
1070
   271
1070
     2
1070
   272
1070
     2
1070
    48
1040
0.0
1070
    47
1040
0.0
1002
}
  0
DIMENSION
  5
8A1
330
6C
100
AcDbEntity
  8
Dimension (ISO)
100
AcDbDimension
  2
*D10
 10
29605.75914290784
 20
4255.029329796787
 30
0.0
 11
29605.75914290784
 21
6735.89879803066
 31
0.0
 70
   160
  1
<>
 71
     2
 42
4961.738936467749
  3
Default (ISO)
100
AcDbAlignedDimension
 13
30176.08862852652
 23
9216.768266264535
 33
0.0
 14
36766.08862852654
 24
4255.029329796785
 34
0.0
 50
270.0
100
AcDbRotatedDimension
1001
ACAD
1000
DSTYLE
1002
{
1070
   172
1070
     0
1070
   289
1070
     1
1070
    74
1070
     0
1070
   271
1070
     0
1070
   272
1070
     2
1070
    48
1040
0.0
1070
    47
1040
0.0
1002
}
  0
DIMENSION
  5
989
330
6C
100
AcDbEntity
  8
Dimension (ISO)
100
AcDbDimension
  2
*D11
 10
29610.31300169823
 20
12030.05796627301
 30
0.0
 11
29610.31300169823
 21
13980.62685459856
 31
0.0
 70
   160
  1
<>
 71
     2
 42
3901.137776651097
  3
Default (ISO)
100
AcDbAlignedDimension
 13
30176.08862852834
 23
15931.19574292411
 33
0.0
 14
29610.31300169823
 24
12030.05796627301
 34
0.0
 50
90.0
100
AcDbRotatedDimension
1001
ACAD
1000
DSTYLE
1002
{
1070
   172
1070
     0
1070
   289
1070
     1
1070
    74
1070
     0
1070
   271
1070
     0
1070
    76
1070
     1
1070
   272
1070
     2
1070
    48
1040
0.0
1070
    47
1040
0.0
1002
}
  0
DIMENSION
  5
A6E
330
6C
100
AcDbEntity
  8
Dimension (ISO)
100
AcDbDimension
  2
*D12
 10
32327.55838963459
 20
12030.05796627302
 30
0.0
 11
32327.55838963459
 21
13330.05796627303
 31
0.0
 70
   160
  1
<>
 71
     2
 42
2600.000000000015
  3
Default (ISO)
100
AcDbAlignedDimension
 13
32974.08862852837
 23
14630.05796627303
 33
0.0
 14
32327.55838963459
 24
12030.05796627302
 34
0.0
 50
90.0
100
AcDbRotatedDimension
1001
ACAD
1000
DSTYLE
1002
{
1070
   172
1070
     0
1070
   289
1070
     1
1070
    74
1070
     0
1070
   271
1070
     2
1070
    76
1070
     1
1070
   272
1070
     2
1070
    48
1040
0.0
1070
    47
1040
0.0
1002
}
  0
DIMENSION
  5
B53
330
6C
100
AcDbEntity
  8
Dimension (ISO)
100
AcDbDimension
  2
*D13
 10
33889.28567983625
 20
12030.05796627302
 30
0.0
 11
33889.28567983625
 21
13170.05796627302
 31
0.0
 70
   160
  1
<>
 71
     2
 42
2280.000000000004
  3
Default (ISO)
100
AcDbAlignedDimension
 13
34306.08862852836
 23
14310.05796627303
 33
0.0
 14
33889.28567983625
 24
12030.05796627302
 34
0.0
 50
90.0
100
AcDbRotatedDimension
1001
ACAD
1000
DSTYLE
1002
{
1070
   172
1070
     0
1070
   289
1070
     1
1070
    74
1070
     0
1070
   271
1070
     2
1070
    76
1070
     1
1070
   272
1070
     2
1070
    48
1040
0.0
1070
    47
1040
0.0
1002
}
  0
DIMENSION
  5
C38
330
6C
100
AcDbEntity
  8
Dimension (ISO)
100
AcDbDimension
  2
*D14
 10
38108.28028714196
 20
12020.05796627303
 30
0.0
 11
38108.28028714196
 21
12599.55796627303
 31
0.0
 70
   160
  1
<>
 71
     2
 42
1158.999999999992
  3
Default (ISO)
100
AcDbAlignedDimension
 13
38108.28028714196
 23
13179.05796627303
 33
0.0
 14
38038.58862852836
 24
12020.05796627303
 34
0.0
 50
270.0
100
AcDbRotatedDimension
1001
ACAD
1000
DSTYLE
1002
{
1070
   172
1070
     0
1070
   289
1070
     1
1070
    74
1070
     0
1070
   271
1070
     2
1070
    76
1070
     1
1070
    75
1070
     1
1070
   272
1070
     2
1070
    48
1040
0.0
1070
    47
1040
0.0
1002
}
  0
DIMENSION
  5
D19
330
6C
100
AcDbEntity
  8
Dimension (ISO)
100
AcDbDimension
  2
*D15
 10
41076.33910848778
 20
12030.05796627304
 30
0.0
 11
41076.33910848778
 21
12807.55796627303
 31
0.0
 70
   160
  1
<>
 71
     2
 42
1554.999999999983
  3
Default (ISO)
100
AcDbAlignedDimension
 13
39916.08862852836
 23
13585.05796627303
 33
0.0
 14
40811.08862852836
 24
12030.05796627304
 34
0.0
 50
90.0
100
AcDbRotatedDimension
1001
ACAD
1000
DSTYLE
1002
{
1070
   172
1070
     0
1070
   289
1070
     1
1070
    74
1070
     0
1070
   271
1070
     2
1070
   272
1070
     2
1070
    48
1040
0.0
1070
    47
1040
0.0
1002
}
  0
DIMENSION
  5
E01
330
6C
100
AcDbEntity
  8
Dimension (ISO)
100
AcDbDimension
  2
*D16
 10
39444.68373549663
 20
14185.05796627302
 30
0.0
 11
39444.68373549663
 21
15011.45944054288
 31
0.0
 70
   160
  1
<>
 71
     2
 42
2154.999999999986
  3
Default (ISO)
100
AcDbAlignedDimension
 13
39311.08862852836
 23
12030.05796627304
 33
0.0
 14
38616.08862852837
 24
14185.05796627302
 34
0.0
 50
90.0
100
AcDbRotatedDimension
1001
ACAD
1000
DSTYLE
1002
{
1070
   172
1070
     0
1070
   289
1070
     2
1070
    74
1070
     0
1070
   271
1070
     2
1070
   272
1070
     2
1070
    48
1040
0.0
1070
    47
1040
0.0
1002
}
  0
INSERT
  5
F0C
330
6C
100
AcDbEntity
  8
0
100
AcDbBlockReference
 66
     1
  2
Tabelki rysunkowe Rzut
 10
12022.31837028164
 20
-1074.130542460445
 30
0.0
 41
100.0
 42
100.0
 43
100.0
  0
ATTRIB
  5
F0E
102
{ACAD_XDICTIONARY
360
F18
102
}
330
F0C
100
AcDbEntity
  8
Title (ISO)
100
AcDbText
 10
29875.15110820654
 20
738.5829432236702
 30
0.0
 40
250.0
  1
88504
  7
Note Text (ISO)
100
AcDbAttribute
  2
Numer_katalogowy_001
 70
     0
  0
ATTRIB
  5
F0F
102
{ACAD_XDICTIONARY
360
F1B
102
}
330
F0C
100
AcDbEntity
  8
Title (ISO)
100
AcDbText
 10
31063.3982539799
 20
39.5903307288105
 30
0.0
 40
250.0
  1
2019-03-26
  7
Note Text (ISO)
100
AcDbAttribute
  2
DATA_UTWORZENIA_001
 70
     0
  0
SEQEND
  5
F0D
330
F0C
100
AcDbEntity
  8
0
  0
INSERT
  5
1115
330
6C
100
AcDbEntity
  8
0
100
AcDbBlockReference
  2
88504_Street-workout-parkour-4
 10
34437.93862852654
 20
6734.029329797002
 30
0.0
  0
ENDSEC
  0
SECTION
  2
OBJECTS
  0
DICTIONARY
  5
C
330
0
100
AcDbDictionary
281
     1
  3
ACAD_COLOR
350
63
  3
ACAD_GROUP
350
D
  3
ACAD_LAYOUT
350
62
  3
ACAD_MATERIAL
350
10
  3
ACAD_MLEADERSTYLE
350
66
  3
ACAD_MLINESTYLE
350
5F
  3
ACAD_PLOTSETTINGS
350
61
  3
ACAD_PLOTSTYLENAME
350
E
  3
ACAD_SCALELIST
350
42
  3
ACAD_TABLESTYLE
350
64
  3
ACAD_VISUALSTYLE
350
29
  3
ACDB_RECOMPOSE_DATA
350
1120
  3
AcDbVariableDictionary
350
F61
  3
DWGPROPS
350
1121
  0
DICTIONARY
  5
F20
330
8
100
AcDbDictionary
280
     1
281
     1
  0
DICTIONARY
  5
F12
330
F08
100
AcDbDictionary
280
     1
281
     1
  3
ACAD_MLATT
360
1119
  3
ACAD_XREC_ROUNDTRIP
360
1118
  0
DICTIONARY
  5
F15
330
F0A
100
AcDbDictionary
280
     1
281
     1
  3
ACAD_MLATT
360
111B
  3
ACAD_XREC_ROUNDTRIP
360
111A
  0
DICTIONARY
  5
F18
330
F0E
100
AcDbDictionary
280
     1
281
     1
  3
ACAD_MLATT
360
111D
  3
ACAD_XREC_ROUNDTRIP
360
111C
  0
DICTIONARY
  5
F1B
330
F0F
100
AcDbDictionary
280
     1
281
     1
  3
ACAD_MLATT
360
111F
  3
ACAD_XREC_ROUNDTRIP
360
111E
  0
DICTIONARY
  5
63
102
{ACAD_REACTORS
330
C
102
}
330
C
100
AcDbDictionary
281
     1
  0
DICTIONARY
  5
D
102
{ACAD_REACTORS
330
C
102
}
330
C
100
AcDbDictionary
281
     1
  0
DICTIONARY
  5
62
102
{ACAD_REACTORS
330
C
102
}
330
C
100
AcDbDictionary
281
     1
  3
Layout1
350
6B
  3
Layout2
350
73
  3
Model
350
6F
  0
DICTIONARY
  5
10
102
{ACAD_REACTORS
330
C
102
}
330
C
100
AcDbDictionary
281
     1
  3
ByBlock
350
19
  3
ByLayer
350
11
  3
Global
350
21
  0
DICTIONARY
  5
66
102
{ACAD_REACTORS
330
C
102
}
330
C
100
AcDbDictionary
281
     1
  3
Standard
350
67
  0
DICTIONARY
  5
5F
102
{ACAD_REACTORS
330
C
102
}
330
C
100
AcDbDictionary
281
     1
  3
Standard
350
60
  0
DICTIONARY
  5
61
102
{ACAD_REACTORS
330
C
102
}
330
C
100
AcDbDictionary
281
     1
  0
ACDBDICTIONARYWDFLT
  5
E
102
{ACAD_REACTORS
330
C
102
}
330
C
100
AcDbDictionary
281
     1
  3
Normal
350
F
100
AcDbDictionaryWithDefault
340
F
  0
DICTIONARY
  5
42
102
{ACAD_REACTORS
330
C
102
}
330
C
100
AcDbDictionary
281
     1
  3
A0
350
43
  3
A1
350
44
  3
A2
350
45
  3
A3
350
46
  3
A4
350
47
  3
A5
350
48
  3
A6
350
49
  3
A7
350
4A
  3
A8
350
4B
  3
A9
350
4C
  3
B0
350
4D
  3
B1
350
4E
  3
B2
350
4F
  3
B3
350
50
  3
B4
350
51
  3
B5
350
52
  3
B6
350
53
  0
DICTIONARY
  5
64
102
{ACAD_REACTORS
330
C
102
}
330
C
100
AcDbDictionary
281
     1
  3
Standard
350
65
  0
DICTIONARY
  5
29
102
{ACAD_REACTORS
330
C
102
}
330
C
100
AcDbDictionary
281
     1
  3
2dWireframe
350
2F
  3
Basic
350
2E
  3
Brighten
350
35
  3
ColorChange
350
39
  3
Conceptual
350
32
  3
Dim
350
34
  3
EdgeColorOff
350
41
  3
Facepattern
350
38
  3
Flat
350
2A
  3
FlatWithEdges
350
2B
  3
Gouraud
350
2C
  3
GouraudWithEdges
350
2D
  3
Hidden
350
31
  3
JitterOff
350
3F
  3
Linepattern
350
37
  3
OverhangOff
350
40
  3
Realistic
350
33
  3
Shaded
350
3E
  3
Shaded with edges
350
3D
  3
Shades of Gray
350
3A
  3
Sketchy
350
3B
  3
Thicken
350
36
  3
Wireframe
350
30
  3
X-Ray
350
3C
  0
XRECORD
  5
1120
102
{ACAD_REACTORS
330
C
102
}
330
C
100
AcDbXrecord
280
     1
 90
        1
330
65
330
E01
330
F08
330
F0A
330
F0E
330
F0F
  0
DICTIONARY
  5
F61
102
{ACAD_REACTORS
330
C
102
}
330
C
100
AcDbDictionary
281
     1
  3
CANNOSCALE
350
F65
  3
CMLEADERSTYLE
350
F63
  3
CTABLESTYLE
350
F62
  3
DIMASSOC
350
F6C
  3
HIDETEXT
350
F6B
  3
INDEXCTL
350
F6A
  3
LAYEREVAL
350
F67
  3
LAYERNOTIFY
350
F68
  3
LIGHTINGUNITS
350
F66
  3
MSLTSCALE
350
F64
  3
SORTENTS
350
F69
  3
XCLIPFRAME
350
1116
  0
XRECORD
  5
1121
102
{ACAD_REACTORS
330
C
102
}
330
C
100
AcDbXrecord
280
     1
  1
DWGPROPS COOKIE
  2

  3

  4
Maruszak Marcin
  6

  7

  8
Natalia
  9
v1
300
Menadżer=
301
Firma=Muller Jelcz-Laskowice Sp.z o.o.
302
Kategoria=
303
Numer części=
304
Opis=
305
Projekt=
306
Projektant=Maruszak Marcin
307
Inżynier=Maruszak Marcin
308
Zatwierdził=Ośkiewicz Ryszard
309
Centrum kosztów=
 40
0.0005744444444444
 41
2458569.356039224
 42
2458621.603085394
  1
www.muller.com.pl
 90
       19
300
Dostawca=
300
Stan użytkownika=
300
Stan projektu=PracaWToku
300
Sprawdził=
300
Zatwierdził konstrukcję=
300
Zatwierdził do produkcji=
300
Kolor=szary
300
Stanowisko=Ploter
300
mat.=
  0
XRECORD
  5
1119
102
{ACAD_REACTORS
330
F12
102
}
330
F12
100
AcDbXrecord
280
     1
 70
     4
 70
     0
 70
     0
 40
1.0
  2
Numer_katalogowy
  1
Embedded Object
 10
178.6525718386176
 20
20.68422014898354
 30
0.0
 40
2.5
 41
39.63119806127143
 46
0.0
 71
     1
 72
     5
  1
88504
  7
Note Text (ISO)
 73
     1
 44
1.0
  0
XRECORD
  5
1118
102
{ACAD_REACTORS
330
F12
102
}
330
F12
100
AcDbXrecord
280
     1
102
ACAD_MATT_HEIGHT
140
2.5
  0
XRECORD
  5
111B
102
{ACAD_REACTORS
330
F15
102
}
330
F15
100
AcDbXrecord
280
     1
 70
     4
 70
     0
 70
     0
 40
1.0
  2
DATA_UTWORZENIA
  1
Embedded Object
 10
190.5938075676742
 20
13.68925708649296
 30
0.0
 40
2.5
 41
40.52963831958745
 46
0.0
 71
     1
 72
     5
  1
2019-03-26
  7
Note Text (ISO)
 73
     1
 44
1.0
  0
XRECORD
  5
111A
102
{ACAD_REACTORS
330
F15
102
}
330
F15
100
AcDbXrecord
280
     1
102
ACAD_MATT_HEIGHT
140
2.5
  0
XRECORD
  5
111D
102
{ACAD_REACTORS
330
F18
102
}
330
F18
100
AcDbXrecord
280
     1
 70
     2
 70
     0
 70
     0
 40
1.0
  2
Numer_katalogowy
  1
Embedded Object
 10
29887.5755541434
 20
994.2914724379079
 30
0.0
 40
250.0
 41
3963.119806127143
 46
0.0
 71
     1
 72
     5
  1
88504
  7
Note Text (ISO)
 73
     1
 44
1.0
  0
XRECORD
  5
111C
102
{ACAD_REACTORS
330
F18
102
}
330
F18
100
AcDbXrecord
280
     1
102
ACAD_MATT_HEIGHT
140
250.0
  0
XRECORD
  5
111F
102
{ACAD_REACTORS
330
F1B
102
}
330
F1B
100
AcDbXrecord
280
     1
 70
     2
 70
     0
 70
     0
 40
1.0
  2
DATA_UTWORZENIA
  1
Embedded Object
 10
31081.69912704907
 20
294.7951661888508
 30
0.0
 40
250.0
 41
4052.963831958745
 46
0.0
 71
     1
 72
     5
  1
2019-03-26
  7
Note Text (ISO)
 73
     1
 44
1.0
  0
XRECORD
  5
111E
102
{ACAD_REACTORS
330
F1B
102
}
330
F1B
100
AcDbXrecord
280
     1
102
ACAD_MATT_HEIGHT
140
250.0
  0
LAYOUT
  5
6B
102
{ACAD_XDICTIONARY
360
1156
102
}
102
{ACAD_REACTORS
330
62
102
}
330
62
100
AcDbPlotSettings
  1

  2

  4

  6

 40
0.0
 41
0.0
 42
0.0
 43
0.0
 44
0.0
 45
0.0
 46
0.0
 47
0.0
 48
0.0
 49
0.0
140
0.0
141
0.0
142
1.0
143
1.0
 70
   688
 72
     0
 73
     0
 74
     5
  7

 75
    16
147
1.0
148
0.0
149
0.0
100
AcDbLayout
  1
Layout1
 70
     1
 71
     1
 10
0.0
 20
0.0
 11
29700.0
 21
21000.0
 12
0.0
 22
0.0
 32
0.0
 14
0.0
 24
0.0
 34
0.0
 15
29700.0
 25
21000.0
 35
0.0
146
0.0
 13
0.0
 23
0.0
 33
0.0
 16
1.0
 26
0.0
 36
0.0
 17
0.0
 27
1.0
 37
0.0
 76
     0
330
68
  0
LAYOUT
  5
73
102
{ACAD_XDICTIONARY
360
115A
102
}
102
{ACAD_REACTORS
330
62
102
}
330
62
100
AcDbPlotSettings
  1

  2

  4

  6

 40
0.0
 41
0.0
 42
0.0
 43
0.0
 44
0.0
 45
0.0
 46
0.0
 47
0.0
 48
0.0
 49
0.0
140
0.0
141
0.0
142
1.0
143
1.0
 70
   688
 72
     0
 73
     0
 74
     5
  7

 75
    16
147
1.0
148
0.0
149
0.0
100
AcDbLayout
  1
Layout2
 70
     1
 71
     2
 10
0.0
 20
0.0
 11
12.0
 21
9.0
 12
0.0
 22
0.0
 32
0.0
 14
0.0
 24
0.0
 34
0.0
 15
0.0
 25
0.0
 35
0.0
146
0.0
 13
0.0
 23
0.0
 33
0.0
 16
1.0
 26
0.0
 36
0.0
 17
0.0
 27
1.0
 37
0.0
 76
     0
330
70
  0
LAYOUT
  5
6F
102
{ACAD_XDICTIONARY
360
1158
102
}
102
{ACAD_REACTORS
330
62
102
}
330
62
100
AcDbPlotSettings
  1

  2

  4

  6

 40
0.0
 41
0.0
 42
0.0
 43
0.0
 44
0.0
 45
0.0
 46
0.0
 47
0.0
 48
0.0
 49
0.0
140
0.0
141
0.0
142
1.0
143
1.0
 70
  1712
 72
     0
 73
     0
 74
     0
  7

 75
     0
147
1.0
148
0.0
149
0.0
100
AcDbLayout
  1
Model
 70
     1
 71
     0
 10
0.0
 20
0.0
 11
12.0
 21
9.0
 12
0.0
 22
0.0
 32
0.0
 14
0.0
 24
0.0
 34
0.0
 15
0.0
 25
0.0
 35
0.0
146
0.0
 13
0.0
 23
0.0
 33
0.0
 16
1.0
 26
0.0
 36
0.0
 17
0.0
 27
1.0
 37
0.0
 76
     0
330
6C
331
57
  0
MATERIAL
  5
19
102
{ACAD_XDICTIONARY
360
1A
102
}
102
{ACAD_REACTORS
330
10
102
}
330
10
100
AcDbMaterial
  1
ByBlock
 72
     0
 43
0.0208333333333333
 43
0.0
 43
0.0
 43
0.0
 43
0.0
 43
0.0208333333333333
 43
0.0
 43
0.0
 43
0.0
 43
0.0
 43
1.0
 43
0.0
 43
0.0
 43
0.0
 43
0.0
 43
1.0
 77
     0
 47
0.0208333333333333
 47
0.0
 47
0.0
 47
0.0
 47
0.0
 47
0.0208333333333333
 47
0.0
 47
0.0
 47
0.0
 47
0.0
 47
1.0
 47
0.0
 47
0.0
 47
0.0
 47
0.0
 47
1.0
171
     0
 49
0.0208333333333333
 49
0.0
 49
0.0
 49
0.0
 49
0.0
 49
0.0208333333333333
 49
0.0
 49
0.0
 49
0.0
 49
0.0
 49
1.0
 49
0.0
 49
0.0
 49
0.0
 49
0.0
 49
1.0
175
     0
142
0.0208333333333333
142
0.0
142
0.0
142
0.0
142
0.0
142
0.0208333333333333
142
0.0
142
0.0
142
0.0
142
0.0
142
1.0
142
0.0
142
0.0
142
0.0
142
0.0
142
1.0
179
     0
144
0.0208333333333333
144
0.0
144
0.0
144
0.0
144
0.0
144
0.0208333333333333
144
0.0
144
0.0
144
0.0
144
0.0
144
1.0
144
0.0
144
0.0
144
0.0
144
0.0
144
1.0
147
0.0208333333333333
147
0.0
147
0.0
147
0.0
147
0.0
147
0.0208333333333333
147
0.0
147
0.0
147
0.0
147
0.0
147
1.0
147
0.0
147
0.0
147
0.0
147
0.0
147
1.0
  0
MATERIAL
  5
11
102
{ACAD_XDICTIONARY
360
12
102
}
102
{ACAD_REACTORS
330
10
102
}
330
10
100
AcDbMaterial
  1
ByLayer
 72
     0
 43
0.0208333333333333
 43
0.0
 43
0.0
 43
0.0
 43
0.0
 43
0.0208333333333333
 43
0.0
 43
0.0
 43
0.0
 43
0.0
 43
1.0
 43
0.0
 43
0.0
 43
0.0
 43
0.0
 43
1.0
 77
     0
 47
0.0208333333333333
 47
0.0
 47
0.0
 47
0.0
 47
0.0
 47
0.0208333333333333
 47
0.0
 47
0.0
 47
0.0
 47
0.0
 47
1.0
 47
0.0
 47
0.0
 47
0.0
 47
0.0
 47
1.0
171
     0
 49
0.0208333333333333
 49
0.0
 49
0.0
 49
0.0
 49
0.0
 49
0.0208333333333333
 49
0.0
 49
0.0
 49
0.0
 49
0.0
 49
1.0
 49
0.0
 49
0.0
 49
0.0
 49
0.0
 49
1.0
175
     0
142
0.0208333333333333
142
0.0
142
0.0
142
0.0
142
0.0
142
0.0208333333333333
142
0.0
142
0.0
142
0.0
142
0.0
142
1.0
142
0.0
142
0.0
142
0.0
142
0.0
142
1.0
179
     0
144
0.0208333333333333
144
0.0
144
0.0
144
0.0
144
0.0
144
0.0208333333333333
144
0.0
144
0.0
144
0.0
144
0.0
144
1.0
144
0.0
144
0.0
144
0.0
144
0.0
144
1.0
147
0.0208333333333333
147
0.0
147
0.0
147
0.0
147
0.0
147
0.0208333333333333
147
0.0
147
0.0
147
0.0
147
0.0
147
1.0
147
0.0
147
0.0
147
0.0
147
0.0
147
1.0
  0
MATERIAL
  5
21
102
{ACAD_XDICTIONARY
360
22
102
}
102
{ACAD_REACTORS
330
10
102
}
330
10
100
AcDbMaterial
  1
Global
 72
     0
 43
0.0208333333333333
 43
0.0
 43
0.0
 43
0.0
 43
0.0
 43
0.0208333333333333
 43
0.0
 43
0.0
 43
0.0
 43
0.0
 43
1.0
 43
0.0
 43
0.0
 43
0.0
 43
0.0
 43
1.0
 77
     0
 47
0.0208333333333333
 47
0.0
 47
0.0
 47
0.0
 47
0.0
 47
0.0208333333333333
 47
0.0
 47
0.0
 47
0.0
 47
0.0
 47
1.0
 47
0.0
 47
0.0
 47
0.0
 47
0.0
 47
1.0
171
     0
 49
0.0208333333333333
 49
0.0
 49
0.0
 49
0.0
 49
0.0
 49
0.0208333333333333
 49
0.0
 49
0.0
 49
0.0
 49
0.0
 49
1.0
 49
0.0
 49
0.0
 49
0.0
 49
0.0
 49
1.0
175
     0
142
0.0208333333333333
142
0.0
142
0.0
142
0.0
142
0.0
142
0.0208333333333333
142
0.0
142
0.0
142
0.0
142
0.0
142
1.0
142
0.0
142
0.0
142
0.0
142
0.0
142
1.0
179
     0
144
0.0208333333333333
144
0.0
144
0.0
144
0.0
144
0.0
144
0.0208333333333333
144
0.0
144
0.0
144
0.0
144
0.0
144
1.0
144
0.0
144
0.0
144
0.0
144
0.0
144
1.0
147
0.0208333333333333
147
0.0
147
0.0
147
0.0
147
0.0
147
0.0208333333333333
147
0.0
147
0.0
147
0.0
147
0.0
147
1.0
147
0.0
147
0.0
147
0.0
147
0.0
147
1.0
  0
MLEADERSTYLE
  5
67
102
{ACAD_REACTORS
330
66
102
}
330
66
100
AcDbMLeaderStyle
170
     2
171
     1
172
     0
 90
        2
 40
0.0
 41
0.0
173
     1
 91
-1056964608
340
5B
 92
       -2
290
     1
 42
0.09
291
     1
 43
0.36
  3
Standard
 44
0.18
300

342
55
174
     1
178
     6
175
     1
176
     0
 93
-1056964608
 45
0.18
292
     0
297
     0
 46
0.18
 94
-1056964608
 47
1.0
 49
1.0
140
1.0
293
     1
141
0.0
294
     1
177
     0
142
1.0
295
     0
296
     0
143
0.125
1001
ACAD_MLEADERVER
1070
     2
  0
MLINESTYLE
  5
60
102
{ACAD_REACTORS
330
5F
102
}
330
5F
100
AcDbMlineStyle
  2
STANDARD
 70
     0
  3

 62
   256
 51
90.0
 52
90.0
 71
     2
 49
0.5
 62
   256
  6
BYLAYER
 49
-0.5
 62
   256
  6
BYLAYER
  0
ACDBPLACEHOLDER
  5
F
102
{ACAD_REACTORS
330
E
102
}
330
E
  0
SCALE
  5
43
102
{ACAD_REACTORS
330
42
102
}
330
42
100
AcDbScale
 70
     0
300
1:1
140
1.0
141
1.0
290
     1
  0
SCALE
  5
44
102
{ACAD_REACTORS
330
42
102
}
330
42
100
AcDbScale
 70
     0
300
1/128" = 1'-0"
140
0.0078125
141
12.0
290
     0
  0
SCALE
  5
45
102
{ACAD_REACTORS
330
42
102
}
330
42
100
AcDbScale
 70
     0
300
1/64" = 1'-0"
140
0.015625
141
12.0
290
     0
  0
SCALE
  5
46
102
{ACAD_REACTORS
330
42
102
}
330
42
100
AcDbScale
 70
     0
300
1/32" = 1'-0"
140
0.03125
141
12.0
290
     0
  0
SCALE
  5
47
102
{ACAD_REACTORS
330
42
102
}
330
42
100
AcDbScale
 70
     0
300
1/16" = 1'-0"
140
0.0625
141
12.0
290
     0
  0
SCALE
  5
48
102
{ACAD_REACTORS
330
42
102
}
330
42
100
AcDbScale
 70
     0
300
3/32" = 1'-0"
140
0.09375
141
12.0
290
     0
  0
SCALE
  5
49
102
{ACAD_REACTORS
330
42
102
}
330
42
100
AcDbScale
 70
     0
300
1/8" = 1'-0"
140
0.125
141
12.0
290
     0
  0
SCALE
  5
4A
102
{ACAD_REACTORS
330
42
102
}
330
42
100
AcDbScale
 70
     0
300
3/16" = 1'-0"
140
0.1875
141
12.0
290
     0
  0
SCALE
  5
4B
102
{ACAD_REACTORS
330
42
102
}
330
42
100
AcDbScale
 70
     0
300
1/4" = 1'-0"
140
0.25
141
12.0
290
     0
  0
SCALE
  5
4C
102
{ACAD_REACTORS
330
42
102
}
330
42
100
AcDbScale
 70
     0
300
3/8" = 1'-0"
140
0.375
141
12.0
290
     0
  0
SCALE
  5
4D
102
{ACAD_REACTORS
330
42
102
}
330
42
100
AcDbScale
 70
     0
300
1/2" = 1'-0"
140
0.5
141
12.0
290
     0
  0
SCALE
  5
4E
102
{ACAD_REACTORS
330
42
102
}
330
42
100
AcDbScale
 70
     0
300
3/4" = 1'-0"
140
0.75
141
12.0
290
     0
  0
SCALE
  5
4F
102
{ACAD_REACTORS
330
42
102
}
330
42
100
AcDbScale
 70
     0
300
1" = 1'-0"
140
1.0
141
12.0
290
     0
  0
SCALE
  5
50
102
{ACAD_REACTORS
330
42
102
}
330
42
100
AcDbScale
 70
     0
300
1-1/2" = 1'-0"
140
1.5
141
12.0
290
     0
  0
SCALE
  5
51
102
{ACAD_REACTORS
330
42
102
}
330
42
100
AcDbScale
 70
     0
300
3" = 1'-0"
140
3.0
141
12.0
290
     0
  0
SCALE
  5
52
102
{ACAD_REACTORS
330
42
102
}
330
42
100
AcDbScale
 70
     0
300
6" = 1'-0"
140
6.0
141
12.0
290
     0
  0
SCALE
  5
53
102
{ACAD_REACTORS
330
42
102
}
330
42
100
AcDbScale
 70
     0
300
1'-0" = 1'-0"
140
12.0
141
12.0
290
     0
  0
TABLESTYLE
  5
65
102
{ACAD_XDICTIONARY
360
F10
102
}
102
{ACAD_REACTORS
330
64
102
}
330
64
100
AcDbTableStyle
  3
Standard
 70
     0
 71
     0
 40
0.06
 41
0.06
280
     0
281
     0
  7
Standard
140
0.18
170
     2
 62
     0
 63
     7
283
     0
274
    -2
284
     1
 64
     0
275
    -2
285
     1
 65
     0
276
    -2
286
     1
 66
     0
277
    -2
287
     1
 67
     0
278
    -2
288
     1
 68
     0
279
    -2
289
     1
 69
     0
  7
Standard
140
0.25
170
     5
 62
     0
 63
     7
283
     0
274
    -2
284
     1
 64
     0
275
    -2
285
     1
 65
     0
276
    -2
286
     1
 66
     0
277
    -2
287
     1
 67
     0
278
    -2
288
     1
 68
     0
279
    -2
289
     1
 69
     0
  7
Standard
140
0.18
170
     5
 62
     0
 63
     7
283
     0
274
    -2
284
     1
 64
     0
275
    -2
285
     1
 65
     0
276
    -2
286
     1
 66
     0
277
    -2
287
     1
 67
     0
278
    -2
288
     1
 68
     0
279
    -2
289
     1
 69
     0
  0
VISUALSTYLE
  5
2F
102
{ACAD_XDICTIONARY
360
112F
102
}
102
{ACAD_REACTORS
330
29
102
}
330
29
100
AcDbVisualStyle
  2
2dWireframe
 70
     4
 71
     0
 72
     2
 73
     0
 90
        0
 40
-0.6
 41
-30.0
 62
     5
 63
     7
 74
     1
 91
        4
 64
     7
 65
   257
 75
     1
175
     1
 42
1.0
 92
        0
 66
   257
 43
1.0
 76
     1
 77
     6
 78
     2
 67
     7
 79
     5
170
     0
171
     0
290
     0
174
     0
 93
        1
 44
0.0
173
     0
291
     0
 45
0.0
1001
ACAD
1000
AcDbSavedByObjectVersion
1070
     0
  0
VISUALSTYLE
  5
2E
102
{ACAD_XDICTIONARY
360
112D
102
}
102
{ACAD_REACTORS
330
29
102
}
330
29
100
AcDbVisualStyle
  2
Basic
 70
     7
 71
     1
 72
     0
 73
     1
 90
        0
 40
-0.6
 41
-30.0
 62
     5
 63
     7
 74
     0
 91
        4
 64
     7
 65
   257
 75
     1
175
     1
 42
1.0
 92
        8
 66
     7
 43
1.0
 76
     1
 77
     6
 78
     2
 67
     7
 79
     5
170
     0
171
     0
290
     0
174
     0
 93
        1
 44
0.0
173
     0
291
     1
 45
0.0
1001
ACAD
1000
AcDbSavedByObjectVersion
1070
     0
  0
VISUALSTYLE
  5
35
102
{ACAD_XDICTIONARY
360
113B
102
}
102
{ACAD_REACTORS
330
29
102
}
330
29
100
AcDbVisualStyle
  2
Brighten
 70
    12
 71
     2
 72
     2
 73
     0
 90
        0
 40
-0.6
 41
-30.0
 62
     5
 63
     7
 74
     1
 91
        4
 64
     7
 65
   257
 75
     1
175
     1
 42
1.0
 92
        8
 66
     7
 43
1.0
 76
     1
 77
     6
 78
     2
 67
     7
 79
     5
170
     0
171
     0
290
     0
174
     0
 93
        1
 44
50.0
173
     0
291
     1
 45
0.0
1001
ACAD
1000
AcDbSavedByObjectVersion
1070
     0
  0
VISUALSTYLE
  5
39
102
{ACAD_XDICTIONARY
360
1143
102
}
102
{ACAD_REACTORS
330
29
102
}
330
29
100
AcDbVisualStyle
  2
ColorChange
 70
    16
 71
     2
 72
     2
 73
     3
 90
        0
 40
-0.6
 41
-30.0
 62
     5
 63
     8
 74
     1
 91
        4
 64
     7
 65
   257
 75
     1
175
     1
 42
1.0
 92
        8
 66
     8
 43
1.0
 76
     1
 77
     6
 78
     2
 67
     7
 79
     5
170
     0
171
     0
290
     0
174
     0
 93
        1
 44
0.0
173
     0
291
     1
 45
0.0
1001
ACAD
1000
AcDbSavedByObjectVersion
1070
     0
  0
VISUALSTYLE
  5
32
102
{ACAD_XDICTIONARY
360
1135
102
}
102
{ACAD_REACTORS
330
29
102
}
330
29
100
AcDbVisualStyle
  2
Conceptual
 70
     9
 71
     3
 72
     2
 73
     0
 90
        0
 40
-0.6
 41
-30.0
 62
     5
 63
     7
 74
     2
 91
        2
 64
     7
 65
   257
 75
     1
175
     1
 42
179.0
 92
        8
 66
     7
 43
1.0
 76
     1
 77
     6
 78
     2
 67
     7
 79
     3
170
     0
171
     0
290
     0
174
     0
 93
        1
 44
0.0
173
     0
291
     0
 45
0.0
1001
ACAD
1000
AcDbSavedByObjectVersion
1070
     0
  0
VISUALSTYLE
  5
34
102
{ACAD_XDICTIONARY
360
1139
102
}
102
{ACAD_REACTORS
330
29
102
}
330
29
100
AcDbVisualStyle
  2
Dim
 70
    11
 71
     2
 72
     2
 73
     0
 90
        0
 40
-0.6
 41
-30.0
 62
     5
 63
     7
 74
     1
 91
        4
 64
     7
 65
   257
 75
     1
175
     1
 42
1.0
 92
        8
 66
     7
 43
1.0
 76
     1
 77
     6
 78
     2
 67
     7
 79
     5
170
     0
171
     0
290
     0
174
     0
 93
        1
 44
-50.0
173
     0
291
     1
 45
0.0
1001
ACAD
1000
AcDbSavedByObjectVersion
1070
     0
  0
VISUALSTYLE
  5
41
102
{ACAD_XDICTIONARY
360
1153
102
}
102
{ACAD_REACTORS
330
29
102
}
330
29
100
AcDbVisualStyle
  2
EdgeColorOff
 70
    22
 71
     2
 72
     2
 73
     0
 90
        0
 40
-0.6
 41
-30.0
 62
     5
 63
     7
 74
     1
 91
        4
 64
     7
 65
   257
 75
     1
175
     1
 42
1.0
 92
        8
 66
     7
 43
1.0
 76
     1
 77
     6
 78
     2
 67
     7
 79
     5
170
     0
171
     0
290
     0
174
     0
 93
        1
 44
0.0
173
     0
291
     1
 45
0.0
1001
ACAD
1000
AcDbSavedByObjectVersion
1070
     0
  0
VISUALSTYLE
  5
38
102
{ACAD_XDICTIONARY
360
1141
102
}
102
{ACAD_REACTORS
330
29
102
}
330
29
100
AcDbVisualStyle
  2
Facepattern
 70
    15
 71
     2
 72
     2
 73
     0
 90
        0
 40
-0.6
 41
-30.0
 62
     5
 63
     7
 74
     1
 91
        4
 64
     7
 65
   257
 75
     1
175
     1
 42
1.0
 92
        8
 66
     7
 43
1.0
 76
     1
 77
     6
 78
     2
 67
     7
 79
     5
170
     0
171
     0
290
     0
174
     0
 93
        1
 44
0.0
173
     0
291
     1
 45
0.0
1001
ACAD
1000
AcDbSavedByObjectVersion
1070
     0
  0
VISUALSTYLE
  5
2A
102
{ACAD_XDICTIONARY
360
1125
102
}
102
{ACAD_REACTORS
330
29
102
}
330
29
100
AcDbVisualStyle
  2
Flat
 70
     0
 71
     2
 72
     1
 73
     1
 90
        2
 40
-0.6
 41
30.0
 62
     5
 63
     7
 74
     0
 91
        0
 64
     7
 65
   257
 75
     1
175
     1
 42
1.0
 92
        8
 66
     7
 43
1.0
 76
     1
 77
     6
 78
     2
 67
     7
 79
     5
170
     0
171
     0
290
     0
174
     0
 93
       13
 44
0.0
173
     0
291
     1
 45
0.0
1001
ACAD
1000
AcDbSavedByObjectVersion
1070
     0
  0
VISUALSTYLE
  5
2B
102
{ACAD_XDICTIONARY
360
1127
102
}
102
{ACAD_REACTORS
330
29
102
}
330
29
100
AcDbVisualStyle
  2
FlatWithEdges
 70
     1
 71
     2
 72
     1
 73
     1
 90
        2
 40
-0.6
 41
30.0
 62
     5
 63
     7
 74
     1
 91
        0
 64
     7
 65
   257
 75
     1
175
     1
 42
1.0
 92
        0
 66
   257
 43
1.0
 76
     1
 77
     6
 78
     2
 67
     7
 79
     5
170
     0
171
     0
290
     0
174
     0
 93
       13
 44
0.0
173
     0
291
     1
 45
0.0
1001
ACAD
1000
AcDbSavedByObjectVersion
1070
     0
  0
VISUALSTYLE
  5
2C
102
{ACAD_XDICTIONARY
360
1129
102
}
102
{ACAD_REACTORS
330
29
102
}
330
29
100
AcDbVisualStyle
  2
Gouraud
 70
     2
 71
     2
 72
     2
 73
     1
 90
        2
 40
-0.6
 41
30.0
 62
     5
 63
     7
 74
     0
 91
        0
 64
     7
 65
   257
 75
     1
175
     1
 42
1.0
 92
        0
 66
     7
 43
1.0
 76
     1
 77
     6
 78
     2
 67
     7
 79
     5
170
     0
171
     0
290
     0
174
     0
 93
       13
 44
0.0
173
     0
291
     1
 45
0.0
1001
ACAD
1000
AcDbSavedByObjectVersion
1070
     0
  0
VISUALSTYLE
  5
2D
102
{ACAD_XDICTIONARY
360
112B
102
}
102
{ACAD_REACTORS
330
29
102
}
330
29
100
AcDbVisualStyle
  2
GouraudWithEdges
 70
     3
 71
     2
 72
     2
 73
     1
 90
        2
 40
-0.6
 41
30.0
 62
     5
 63
     7
 74
     1
 91
        0
 64
     7
 65
   257
 75
     1
175
     1
 42
1.0
 92
        0
 66
   257
 43
1.0
 76
     1
 77
     6
 78
     2
 67
     7
 79
     5
170
     0
171
     0
290
     0
174
     0
 93
       13
 44
0.0
173
     0
291
     1
 45
0.0
1001
ACAD
1000
AcDbSavedByObjectVersion
1070
     0
  0
VISUALSTYLE
  5
31
102
{ACAD_XDICTIONARY
360
1133
102
}
102
{ACAD_REACTORS
330
29
102
}
330
29
100
AcDbVisualStyle
  2
Hidden
 70
     6
 71
     1
 72
     2
 73
     2
 90
        0
 40
-0.6
 41
-30.0
 62
     5
 63
     7
 74
     2
 91
        2
 64
     7
 65
   257
 75
     2
175
     1
 42
40.0
 92
        0
 66
   257
 43
1.0
 76
     1
 77
     6
 78
     2
 67
     7
 79
     3
170
     0
171
     0
290
     0
174
     0
 93
        1
 44
0.0
173
     0
291
     0
 45
0.0
1001
ACAD
1000
AcDbSavedByObjectVersion
1070
     0
  0
VISUALSTYLE
  5
3F
102
{ACAD_XDICTIONARY
360
114F
102
}
102
{ACAD_REACTORS
330
29
102
}
330
29
100
AcDbVisualStyle
  2
JitterOff
 70
    20
 71
     2
 72
     2
 73
     0
 90
        0
 40
-0.6
 41
-30.0
 62
     5
 63
     7
 74
     1
 91
        4
 64
     7
 65
   257
 75
     1
175
     1
 42
1.0
 92
       10
 66
     7
 43
1.0
 76
     1
 77
     6
 78
     2
 67
     7
 79
     5
170
     0
171
     0
290
     0
174
     0
 93
        1
 44
0.0
173
     0
291
     1
 45
0.0
1001
ACAD
1000
AcDbSavedByObjectVersion
1070
     0
  0
VISUALSTYLE
  5
37
102
{ACAD_XDICTIONARY
360
113F
102
}
102
{ACAD_REACTORS
330
29
102
}
330
29
100
AcDbVisualStyle
  2
Linepattern
 70
    14
 71
     2
 72
     2
 73
     0
 90
        0
 40
-0.6
 41
-30.0
 62
     5
 63
     7
 74
     1
 91
        4
 64
     7
 65
   257
 75
     7
175
     7
 42
1.0
 92
        8
 66
     7
 43
1.0
 76
     1
 77
     6
 78
     2
 67
     7
 79
     5
170
     0
171
     0
290
     0
174
     0
 93
        1
 44
0.0
173
     0
291
     1
 45
0.0
1001
ACAD
1000
AcDbSavedByObjectVersion
1070
     0
  0
VISUALSTYLE
  5
40
102
{ACAD_XDICTIONARY
360
1151
102
}
102
{ACAD_REACTORS
330
29
102
}
330
29
100
AcDbVisualStyle
  2
OverhangOff
 70
    21
 71
     2
 72
     2
 73
     0
 90
        0
 40
-0.6
 41
-30.0
 62
     5
 63
     7
 74
     1
 91
        4
 64
     7
 65
   257
 75
     1
175
     1
 42
1.0
 92
        9
 66
     7
 43
1.0
 76
     1
 77
     6
 78
     2
 67
     7
 79
     5
170
     0
171
     0
290
     0
174
     0
 93
        1
 44
0.0
173
     0
291
     1
 45
0.0
1001
ACAD
1000
AcDbSavedByObjectVersion
1070
     0
  0
VISUALSTYLE
  5
33
102
{ACAD_XDICTIONARY
360
1137
102
}
102
{ACAD_REACTORS
330
29
102
}
330
29
100
AcDbVisualStyle
  2
Realistic
 70
     8
 71
     2
 72
     2
 73
     0
 90
        2
 40
-0.6
 41
30.0
 62
     5
 63
     7
 74
     0
 91
        0
 64
     7
 65
   257
 75
     1
175
     1
 42
1.0
 92
        8
 66
   257
 43
1.0
 76
     1
 77
     6
 78
     2
 67
     7
 79
     3
170
     0
171
     0
290
     0
174
     0
 93
       13
 44
0.0
173
     0
291
     0
 45
0.0
1001
ACAD
1000
AcDbSavedByObjectVersion
1070
     0
  0
VISUALSTYLE
  5
3E
102
{ACAD_XDICTIONARY
360
114D
102
}
102
{ACAD_REACTORS
330
29
102
}
330
29
100
AcDbVisualStyle
  2
Shaded
 70
    27
 71
     2
 72
     2
 73
     1
 90
        2
 40
-0.6
 41
30.0
 62
     5
 63
     7
 74
     0
 91
        4
 64
     7
 65
   257
 75
     1
175
     1
 42
1.0
 92
        8
 66
   257
 43
1.0
 76
     1
 77
     6
 78
     2
 67
     8
 79
     3
170
     0
171
     0
290
     0
174
     0
 93
        5
 44
0.0
173
     0
291
     0
 45
0.0
1001
ACAD
1000
AcDbSavedByObjectVersion
1070
     0
  0
VISUALSTYLE
  5
3D
102
{ACAD_XDICTIONARY
360
114B
102
}
102
{ACAD_REACTORS
330
29
102
}
330
29
100
AcDbVisualStyle
  2
Shaded with edges
 70
    26
 71
     2
 72
     2
 73
     1
 90
        2
 40
-0.6
 41
30.0
 62
     5
 63
     7
 74
     1
 91
       10
 64
     7
 65
   257
 75
     2
175
     1
 42
1.0
 92
        8
 66
   257
 43
1.0
 76
     1
 77
     6
 78
     2
 67
     7
 79
     3
170
     0
171
     0
290
     0
174
     0
 93
        5
 44
0.0
173
     0
291
     0
 45
0.0
1001
ACAD
1000
AcDbSavedByObjectVersion
1070
     0
  0
VISUALSTYLE
  5
3A
102
{ACAD_XDICTIONARY
360
1145
102
}
102
{ACAD_REACTORS
330
29
102
}
330
29
100
AcDbVisualStyle
  2
Shades of Gray
 70
    23
 71
     2
 72
     2
 73
     3
 90
        0
 40
-0.6
 41
-30.0
 62
     5
 63
     7
 74
     2
 91
        2
 64
     7
 65
     7
 75
     1
175
     1
 42
40.0
 92
        8
 66
     7
 43
1.0
 76
     1
 77
     6
 78
     2
 67
     7
 79
     3
170
     0
171
     0
290
     0
174
     0
 93
        1
 44
0.0
173
     0
291
     0
 45
0.0
1001
ACAD
1000
AcDbSavedByObjectVersion
1070
     0
  0
VISUALSTYLE
  5
3B
102
{ACAD_XDICTIONARY
360
1147
102
}
102
{ACAD_REACTORS
330
29
102
}
330
29
100
AcDbVisualStyle
  2
Sketchy
 70
    24
 71
     1
 72
     2
 73
     2
 90
        0
 40
-0.6
 41
-30.0
 62
     5
 63
     7
 74
     2
 91
        2
 64
     7
 65
     7
 75
     1
175
     1
 42
40.0
 92
       11
 66
     7
 43
1.0
 76
     1
 77
     6
 78
     2
 67
     7
 79
     6
170
     0
171
     0
290
     0
174
     0
 93
        1
 44
0.0
173
     0
291
     0
 45
0.0
1001
ACAD
1000
AcDbSavedByObjectVersion
1070
     0
  0
VISUALSTYLE
  5
36
102
{ACAD_XDICTIONARY
360
113D
102
}
102
{ACAD_REACTORS
330
29
102
}
330
29
100
AcDbVisualStyle
  2
Thicken
 70
    13
 71
     2
 72
     2
 73
     0
 90
        0
 40
-0.6
 41
-30.0
 62
     5
 63
     7
 74
     1
 91
        4
 64
     7
 65
   257
 75
     1
175
     1
 42
1.0
 92
       12
 66
     7
 43
1.0
 76
     1
 77
     6
 78
     2
 67
     7
 79
     5
170
     0
171
     0
290
     0
174
     0
 93
        1
 44
0.0
173
     0
291
     1
 45
0.0
1001
ACAD
1000
AcDbSavedByObjectVersion
1070
     0
  0
VISUALSTYLE
  5
30
102
{ACAD_XDICTIONARY
360
1131
102
}
102
{ACAD_REACTORS
330
29
102
}
330
29
100
AcDbVisualStyle
  2
Wireframe
 70
     5
 71
     0
 72
     2
 73
     0
 90
        0
 40
-0.6
 41
-30.0
 62
     5
 63
     7
 74
     1
 91
        4
 64
     7
 65
   257
 75
     1
175
     1
 42
1.0
 92
        0
 66
   257
 43
1.0
 76
     1
 77
     6
 78
     2
 67
     7
 79
     3
170
     0
171
     0
290
     0
174
     0
 93
        1
 44
0.0
173
     0
291
     0
 45
0.0
1001
ACAD
1000
AcDbSavedByObjectVersion
1070
     0
  0
VISUALSTYLE
  5
3C
102
{ACAD_XDICTIONARY
360
1149
102
}
102
{ACAD_REACTORS
330
29
102
}
330
29
100
AcDbVisualStyle
  2
X-Ray
 70
    25
 71
     2
 72
     2
 73
     1
 90
        1
 40
0.5
 41
-30.0
 62
     5
 63
     7
 74
     1
 91
        0
 64
     7
 65
   257
 75
     1
175
     1
 42
1.0
 92
        8
 66
     7
 43
1.0
 76
     1
 77
     6
 78
     2
 67
     7
 79
     3
170
     0
171
     0
290
     0
174
     0
 93
       13
 44
0.0
173
     0
291
     0
 45
0.0
1001
ACAD
1000
AcDbSavedByObjectVersion
1070
     0
  0
DICTIONARYVAR
  5
F65
102
{ACAD_REACTORS
330
F61
102
}
330
F61
100
DictionaryVariables
280
     0
  1
1:1
  0
DICTIONARYVAR
  5
F63
102
{ACAD_REACTORS
330
F61
102
}
330
F61
100
DictionaryVariables
280
     0
  1
STANDARD
  0
DICTIONARYVAR
  5
F62
102
{ACAD_REACTORS
330
F61
102
}
330
F61
100
DictionaryVariables
280
     0
  1
STANDARD
  0
DICTIONARYVAR
  5
F6C
102
{ACAD_REACTORS
330
F61
102
}
330
F61
100
DictionaryVariables
280
     0
  1
1
  0
DICTIONARYVAR
  5
F6B
102
{ACAD_REACTORS
330
F61
102
}
330
F61
100
DictionaryVariables
280
     0
  1
1
  0
DICTIONARYVAR
  5
F6A
102
{ACAD_REACTORS
330
F61
102
}
330
F61
100
DictionaryVariables
280
     0
  1
0
  0
DICTIONARYVAR
  5
F67
102
{ACAD_REACTORS
330
F61
102
}
330
F61
100
DictionaryVariables
280
     0
  1
0
  0
DICTIONARYVAR
  5
F68
102
{ACAD_REACTORS
330
F61
102
}
330
F61
100
DictionaryVariables
280
     0
  1
0
  0
DICTIONARYVAR
  5
F66
102
{ACAD_REACTORS
330
F61
102
}
330
F61
100
DictionaryVariables
280
     0
  1
2
  0
DICTIONARYVAR
  5
F64
102
{ACAD_REACTORS
330
F61
102
}
330
F61
100
DictionaryVariables
280
     0
  1
1
  0
DICTIONARYVAR
  5
F69
102
{ACAD_REACTORS
330
F61
102
}
330
F61
100
DictionaryVariables
280
     0
  1
127
  0
DICTIONARYVAR
  5
1116
102
{ACAD_REACTORS
330
F61
102
}
330
F61
100
DictionaryVariables
280
     0
  1
2
  0
DICTIONARY
  5
1156
330
6B
100
AcDbDictionary
280
     1
281
     1
  3
ACAD_XREC_ROUNDTRIP
360
1157
  0
DICTIONARY
  5
115A
330
73
100
AcDbDictionary
280
     1
281
     1
  3
ACAD_XREC_ROUNDTRIP
360
115B
  0
DICTIONARY
  5
1158
330
6F
100
AcDbDictionary
280
     1
281
     1
  3
ACAD_XREC_ROUNDTRIP
360
1159
  0
DICTIONARY
  5
1A
330
19
100
AcDbDictionary
280
     1
281
     1
  3
ACAD_XREC_ROUNDTRIP
360
1123
  3
BUMPTILE
360
1C
  3
DIFFUSETILE
360
1B
  3
OPACITYTILE
360
1F
  3
REFLECTIONTILE
360
1E
  3
REFRACTIONTILE
360
20
  3
SPECULARTILE
360
1D
  0
DICTIONARY
  5
12
330
11
100
AcDbDictionary
280
     1
281
     1
  3
ACAD_XREC_ROUNDTRIP
360
1122
  3
BUMPTILE
360
14
  3
DIFFUSETILE
360
13
  3
OPACITYTILE
360
17
  3
REFLECTIONTILE
360
16
  3
REFRACTIONTILE
360
18
  3
SPECULARTILE
360
15
  0
DICTIONARY
  5
22
330
21
100
AcDbDictionary
280
     1
281
     1
  3
ACAD_XREC_ROUNDTRIP
360
1124
  3
BUMPTILE
360
24
  3
DIFFUSETILE
360
23
  3
OPACITYTILE
360
27
  3
REFLECTIONTILE
360
26
  3
REFRACTIONTILE
360
28
  3
SPECULARTILE
360
25
  0
DICTIONARY
  5
F10
330
65
100
AcDbDictionary
280
     1
281
     1
  3
ACAD_ROUNDTRIP_2008_TABLESTYLE_CELLSTYLEMAP
360
1117
  3
ACAD_XREC_ROUNDTRIP
360
1155
  0
DICTIONARY
  5
112F
330
2F
100
AcDbDictionary
280
     1
281
     1
  3
ACAD_XREC_ROUNDTRIP
360
1130
  0
DICTIONARY
  5
112D
330
2E
100
AcDbDictionary
280
     1
281
     1
  3
ACAD_XREC_ROUNDTRIP
360
112E
  0
DICTIONARY
  5
113B
330
35
100
AcDbDictionary
280
     1
281
     1
  3
ACAD_XREC_ROUNDTRIP
360
113C
  0
DICTIONARY
  5
1143
330
39
100
AcDbDictionary
280
     1
281
     1
  3
ACAD_XREC_ROUNDTRIP
360
1144
  0
DICTIONARY
  5
1135
330
32
100
AcDbDictionary
280
     1
281
     1
  3
ACAD_XREC_ROUNDTRIP
360
1136
  0
DICTIONARY
  5
1139
330
34
100
AcDbDictionary
280
     1
281
     1
  3
ACAD_XREC_ROUNDTRIP
360
113A
  0
DICTIONARY
  5
1153
330
41
100
AcDbDictionary
280
     1
281
     1
  3
ACAD_XREC_ROUNDTRIP
360
1154
  0
DICTIONARY
  5
1141
330
38
100
AcDbDictionary
280
     1
281
     1
  3
ACAD_XREC_ROUNDTRIP
360
1142
  0
DICTIONARY
  5
1125
330
2A
100
AcDbDictionary
280
     1
281
     1
  3
ACAD_XREC_ROUNDTRIP
360
1126
  0
DICTIONARY
  5
1127
330
2B
100
AcDbDictionary
280
     1
281
     1
  3
ACAD_XREC_ROUNDTRIP
360
1128
  0
DICTIONARY
  5
1129
330
2C
100
AcDbDictionary
280
     1
281
     1
  3
ACAD_XREC_ROUNDTRIP
360
112A
  0
DICTIONARY
  5
112B
330
2D
100
AcDbDictionary
280
     1
281
     1
  3
ACAD_XREC_ROUNDTRIP
360
112C
  0
DICTIONARY
  5
1133
330
31
100
AcDbDictionary
280
     1
281
     1
  3
ACAD_XREC_ROUNDTRIP
360
1134
  0
DICTIONARY
  5
114F
330
3F
100
AcDbDictionary
280
     1
281
     1
  3
ACAD_XREC_ROUNDTRIP
360
1150
  0
DICTIONARY
  5
113F
330
37
100
AcDbDictionary
280
     1
281
     1
  3
ACAD_XREC_ROUNDTRIP
360
1140
  0
DICTIONARY
  5
1151
330
40
100
AcDbDictionary
280
     1
281
     1
  3
ACAD_XREC_ROUNDTRIP
360
1152
  0
DICTIONARY
  5
1137
330
33
100
AcDbDictionary
280
     1
281
     1
  3
ACAD_XREC_ROUNDTRIP
360
1138
  0
DICTIONARY
  5
114D
330
3E
100
AcDbDictionary
280
     1
281
     1
  3
ACAD_XREC_ROUNDTRIP
360
114E
  0
DICTIONARY
  5
114B
330
3D
100
AcDbDictionary
280
     1
281
     1
  3
ACAD_XREC_ROUNDTRIP
360
114C
  0
DICTIONARY
  5
1145
330
3A
100
AcDbDictionary
280
     1
281
     1
  3
ACAD_XREC_ROUNDTRIP
360
1146
  0
DICTIONARY
  5
1147
330
3B
100
AcDbDictionary
280
     1
281
     1
  3
ACAD_XREC_ROUNDTRIP
360
1148
  0
DICTIONARY
  5
113D
330
36
100
AcDbDictionary
280
     1
281
     1
  3
ACAD_XREC_ROUNDTRIP
360
113E
  0
DICTIONARY
  5
1131
330
30
100
AcDbDictionary
280
     1
281
     1
  3
ACAD_XREC_ROUNDTRIP
360
1132
  0
DICTIONARY
  5
1149
330
3C
100
AcDbDictionary
280
     1
281
     1
  3
ACAD_XREC_ROUNDTRIP
360
114A
  0
XRECORD
  5
1157
102
{ACAD_REACTORS
330
1156
102
}
330
1156
100
AcDbXrecord
280
     1
102
SHADEPLOT
 70
     0
102
SHADEPLOTRESLEVEL
 70
     2
102
SHADEPLOTCUSTOMDPI
 70
   300
  0
XRECORD
  5
115B
102
{ACAD_REACTORS
330
115A
102
}
330
115A
100
AcDbXrecord
280
     1
102
SHADEPLOT
 70
     0
102
SHADEPLOTRESLEVEL
 70
     2
102
SHADEPLOTCUSTOMDPI
 70
   300
  0
XRECORD
  5
1159
102
{ACAD_REACTORS
330
1158
102
}
330
1158
100
AcDbXrecord
280
     1
102
SHADEPLOT
 70
     0
102
SHADEPLOTRESLEVEL
 70
     2
102
SHADEPLOTCUSTOMDPI
 70
   300
  0
XRECORD
  5
1123
102
{ACAD_REACTORS
330
1A
102
}
330
1A
100
AcDbXrecord
280
     1
102
MATERIAL
148
0.0
149
0.0
149
0.0
 93
        0
 94
      127
282
     0
 72
     0
 77
     0
171
     0
175
     0
179
     0
273
     0
  0
XRECORD
  5
1C
102
{ACAD_REACTORS
330
1A
102
}
330
1A
100
AcDbXrecord
280
     1
270
     1
271
     1
  0
XRECORD
  5
1B
102
{ACAD_REACTORS
330
1A
102
}
330
1A
100
AcDbXrecord
280
     1
270
     1
271
     1
  0
XRECORD
  5
1F
102
{ACAD_REACTORS
330
1A
102
}
330
1A
100
AcDbXrecord
280
     1
270
     1
271
     1
  0
XRECORD
  5
1E
102
{ACAD_REACTORS
330
1A
102
}
330
1A
100
AcDbXrecord
280
     1
270
     1
271
     1
  0
XRECORD
  5
20
102
{ACAD_REACTORS
330
1A
102
}
330
1A
100
AcDbXrecord
280
     1
270
     1
271
     1
  0
XRECORD
  5
1D
102
{ACAD_REACTORS
330
1A
102
}
330
1A
100
AcDbXrecord
280
     1
270
     1
271
     1
  0
XRECORD
  5
1122
102
{ACAD_REACTORS
330
12
102
}
330
12
100
AcDbXrecord
280
     1
102
MATERIAL
148
0.0
149
0.0
149
0.0
 93
        0
 94
      127
282
     0
 72
     0
 77
     0
171
     0
175
     0
179
     0
273
     0
  0
XRECORD
  5
14
102
{ACAD_REACTORS
330
12
102
}
330
12
100
AcDbXrecord
280
     1
270
     1
271
     1
  0
XRECORD
  5
13
102
{ACAD_REACTORS
330
12
102
}
330
12
100
AcDbXrecord
280
     1
270
     1
271
     1
  0
XRECORD
  5
17
102
{ACAD_REACTORS
330
12
102
}
330
12
100
AcDbXrecord
280
     1
270
     1
271
     1
  0
XRECORD
  5
16
102
{ACAD_REACTORS
330
12
102
}
330
12
100
AcDbXrecord
280
     1
270
     1
271
     1
  0
XRECORD
  5
18
102
{ACAD_REACTORS
330
12
102
}
330
12
100
AcDbXrecord
280
     1
270
     1
271
     1
  0
XRECORD
  5
15
102
{ACAD_REACTORS
330
12
102
}
330
12
100
AcDbXrecord
280
     1
270
     1
271
     1
  0
XRECORD
  5
1124
102
{ACAD_REACTORS
330
22
102
}
330
22
100
AcDbXrecord
280
     1
102
MATERIAL
148
0.0
149
0.0
149
0.0
 93
        0
 94
      127
282
     0
 72
     0
 77
     0
171
     0
175
     0
179
     0
273
     0
  0
XRECORD
  5
24
102
{ACAD_REACTORS
330
22
102
}
330
22
100
AcDbXrecord
280
     1
270
     1
271
     1
  0
XRECORD
  5
23
102
{ACAD_REACTORS
330
22
102
}
330
22
100
AcDbXrecord
280
     1
270
     1
271
     1
  0
XRECORD
  5
27
102
{ACAD_REACTORS
330
22
102
}
330
22
100
AcDbXrecord
280
     1
270
     1
271
     1
  0
XRECORD
  5
26
102
{ACAD_REACTORS
330
22
102
}
330
22
100
AcDbXrecord
280
     1
270
     1
271
     1
  0
XRECORD
  5
28
102
{ACAD_REACTORS
330
22
102
}
330
22
100
AcDbXrecord
280
     1
270
     1
271
     1
  0
XRECORD
  5
25
102
{ACAD_REACTORS
330
22
102
}
330
22
100
AcDbXrecord
280
     1
270
     1
271
     1
  0
CELLSTYLEMAP
  5
1117
102
{ACAD_REACTORS
330
F10
102
}
330
F10
100
AcDbCellStyleMap
 90
        3
300
CELLSTYLE
  1
TABLEFORMAT_BEGIN
 90
        5
170
     1
 91
        0
 92
    32768
 62
   257
 93
        1
300
CONTENTFORMAT
  1
CONTENTFORMAT_BEGIN
 90
        0
 91
        0
 92
      512
 93
        0
300

 40
0.0
140
1.0
 94
        5
 62
     0
340
55
144
0.25
309
CONTENTFORMAT_END
171
     0
 94
        0
309
TABLEFORMAT_END
  1
CELLSTYLE_BEGIN
 90
        1
 91
        1
300
_TITLE
309
CELLSTYLE_END
300
CELLSTYLE
  1
TABLEFORMAT_BEGIN
 90
        5
170
     1
 91
        0
 92
        0
 62
   257
 93
        1
300
CONTENTFORMAT
  1
CONTENTFORMAT_BEGIN
 90
        0
 91
        0
 92
      512
 93
        0
300

 40
0.0
140
1.0
 94
        5
 62
     0
340
55
144
0.18
309
CONTENTFORMAT_END
171
     0
 94
        0
309
TABLEFORMAT_END
  1
CELLSTYLE_BEGIN
 90
        2
 91
        1
300
_HEADER
309
CELLSTYLE_END
300
CELLSTYLE
  1
TABLEFORMAT_BEGIN
 90
        5
170
     1
 91
        0
 92
        0
 62
   257
 93
        1
300
CONTENTFORMAT
  1
CONTENTFORMAT_BEGIN
 90
        0
 91
        0
 92
      512
 93
        0
300

 40
0.0
140
1.0
 94
        2
 62
     0
340
55
144
0.18
309
CONTENTFORMAT_END
171
     0
 94
        0
309
TABLEFORMAT_END
  1
CELLSTYLE_BEGIN
 90
        3
 91
        2
300
_DATA
309
CELLSTYLE_END
  0
XRECORD
  5
1155
102
{ACAD_REACTORS
330
F10
102
}
330
F10
100
AcDbXrecord
280
     1
102
ACAD_ROUNDTRIP_PRE2007_TABLESTYLE
 90
      512
 91
        0
  1

 92
      512
 93
        0
  2

 94
      512
 95
        0
  3

  0
XRECORD
  5
1130
102
{ACAD_REACTORS
330
112F
102
}
330
112F
100
AcDbXrecord
280
     1
102
RTVSPropertyOp0
 70
     1
102
RTVSPropertyOp1
 70
     1
102
RTVSPropertyOp2
 70
     1
102
RTVSPropertyOp3
 70
     1
102
RTVSPropertyOp4
 70
     1
102
RTVSPropertyOp5
 70
     1
102
RTVSPropertyOp6
 70
     1
102
RTVSPropertyOp7
 70
     1
102
RTVSPropertyOp8
 70
     1
102
RTVSPropertyOp9
 70
     1
102
RTVSPropertyOp10
 70
     1
102
RTVSPropertyOp11
 70
     1
102
RTVSPropertyOp12
 70
     1
102
RTVSPropertyOp13
 70
     1
102
RTVSPropertyOp14
 70
     1
102
RTVSPropertyOp15
 70
     1
102
RTVSPropertyOp16
 70
     1
102
RTVSPropertyOp17
 70
     1
102
RTVSPropertyOp18
 70
     1
102
RTVSPropertyOp19
 70
     1
102
RTVSPropertyOp20
 70
     1
102
RTVSPropertyOp21
 70
     1
102
RTVSPropertyOp22
 70
     1
102
RTVSPropertyOp23
 70
     1
102
RTVSPropertyOp24
 70
     1
102
RTVSPropertyOp25
 70
     1
102
RTVSPropertyOp26
 70
     1
102
RTVSPropertyOp27
 70
     1
102
RTVSPropertyOp28
 70
     1
102
RTVSPropertyOp29
 70
     1
102
RTVSPropertyOp30
 70
     1
102
RTVSPropertyOp31
 70
     1
102
RTVSPropertyOp32
 70
     1
  0
XRECORD
  5
112E
102
{ACAD_REACTORS
330
112D
102
}
330
112D
100
AcDbXrecord
280
     1
102
RTVSPropertyOp0
 70
     1
102
RTVSPropertyOp1
 70
     1
102
RTVSPropertyOp2
 70
     1
102
RTVSPropertyOp3
 70
     1
102
RTVSPropertyOp4
 70
     1
102
RTVSPropertyOp5
 70
     1
102
RTVSPropertyOp6
 70
     1
102
RTVSPropertyOp7
 70
     1
102
RTVSPropertyOp8
 70
     1
102
RTVSPropertyOp9
 70
     1
102
RTVSPropertyOp10
 70
     1
102
RTVSPropertyOp11
 70
     1
102
RTVSPropertyOp12
 70
     1
102
RTVSPropertyOp13
 70
     1
102
RTVSPropertyOp14
 70
     1
102
RTVSPropertyOp15
 70
     1
102
RTVSPropertyOp16
 70
     1
102
RTVSPropertyOp17
 70
     1
102
RTVSPropertyOp18
 70
     1
102
RTVSPropertyOp19
 70
     1
102
RTVSPropertyOp20
 70
     1
102
RTVSPropertyOp21
 70
     1
102
RTVSPropertyOp22
 70
     1
102
RTVSPropertyOp23
 70
     1
102
RTVSPropertyOp24
 70
     1
102
RTVSPropertyOp25
 70
     1
102
RTVSPropertyOp26
 70
     1
102
RTVSPropertyOp27
 70
     1
102
RTVSPropertyOp28
 70
     1
102
RTVSPropertyOp29
 70
     1
102
RTVSPropertyOp30
 70
     1
102
RTVSPropertyOp31
 70
     1
102
RTVSPropertyOp32
 70
     1
  0
XRECORD
  5
113C
102
{ACAD_REACTORS
330
113B
102
}
330
113B
100
AcDbXrecord
280
     1
102
RTVSPropertyOp0
 70
     1
102
RTVSPropertyOp1
 70
     1
102
RTVSPropertyOp2
 70
     1
102
RTVSPropertyOp3
 70
     1
102
RTVSPropertyOp4
 70
     1
102
RTVSPropertyOp5
 70
     1
102
RTVSPropertyOp6
 70
     1
102
RTVSPropertyOp7
 70
     1
102
RTVSPropertyOp8
 70
     1
102
RTVSPropertyOp9
 70
     1
102
RTVSPropertyOp10
 70
     1
102
RTVSPropertyOp11
 70
     1
102
RTVSPropertyOp12
 70
     1
102
RTVSPropertyOp13
 70
     1
102
RTVSPropertyOp14
 70
     1
102
RTVSPropertyOp15
 70
     1
102
RTVSPropertyOp16
 70
     1
102
RTVSPropertyOp17
 70
     1
102
RTVSPropertyOp18
 70
     1
102
RTVSPropertyOp19
 70
     1
102
RTVSPropertyOp20
 70
     1
102
RTVSPropertyOp21
 70
     1
102
RTVSPropertyOp22
 70
     1
102
RTVSPropertyOp23
 70
     1
102
RTVSPropertyOp24
 70
     1
102
RTVSPropertyOp25
 70
     1
102
RTVSPropertyOp26
 70
     1
102
RTVSPropertyOp27
 70
     1
102
RTVSPropertyOp28
 70
     1
102
RTVSPropertyOp29
 70
     1
102
RTVSPropertyOp30
 70
     1
102
RTVSPropertyOp31
 70
     1
102
RTVSPropertyOp32
 70
     1
  0
XRECORD
  5
1144
102
{ACAD_REACTORS
330
1143
102
}
330
1143
100
AcDbXrecord
280
     1
102
RTVSPropertyOp0
 70
     1
102
RTVSPropertyOp1
 70
     1
102
RTVSPropertyOp2
 70
     1
102
RTVSPropertyOp3
 70
     1
102
RTVSPropertyOp4
 70
     1
102
RTVSPropertyOp5
 70
     1
102
RTVSPropertyOp6
 70
     1
102
RTVSPropertyOp7
 70
     1
102
RTVSPropertyOp8
 70
     1
102
RTVSPropertyOp9
 70
     1
102
RTVSPropertyOp10
 70
     1
102
RTVSPropertyOp11
 70
     1
102
RTVSPropertyOp12
 70
     1
102
RTVSPropertyOp13
 70
     1
102
RTVSPropertyOp14
 70
     1
102
RTVSPropertyOp15
 70
     1
102
RTVSPropertyOp16
 70
     1
102
RTVSPropertyOp17
 70
     1
102
RTVSPropertyOp18
 70
     1
102
RTVSPropertyOp19
 70
     1
102
RTVSPropertyOp20
 70
     1
102
RTVSPropertyOp21
 70
     1
102
RTVSPropertyOp22
 70
     1
102
RTVSPropertyOp23
 70
     1
102
RTVSPropertyOp24
 70
     1
102
RTVSPropertyOp25
 70
     1
102
RTVSPropertyOp26
 70
     1
102
RTVSPropertyOp27
 70
     1
102
RTVSPropertyOp28
 70
     1
102
RTVSPropertyOp29
 70
     1
102
RTVSPropertyOp30
 70
     1
102
RTVSPropertyOp31
 70
     1
102
RTVSPropertyOp32
 70
     1
  0
XRECORD
  5
1136
102
{ACAD_REACTORS
330
1135
102
}
330
1135
100
AcDbXrecord
280
     1
102
RTVSPropertyOp0
 70
     1
102
RTVSPropertyOp1
 70
     1
102
RTVSPropertyOp2
 70
     1
102
RTVSPropertyOp3
 70
     1
102
RTVSPropertyOp4
 70
     1
102
RTVSPropertyOp5
 70
     1
102
RTVSPropertyOp6
 70
     1
102
RTVSPropertyOp7
 70
     1
102
RTVSPropertyOp8
 70
     1
102
RTVSPropertyOp9
 70
     1
102
RTVSPropertyOp10
 70
     1
102
RTVSPropertyOp11
 70
     1
102
RTVSPropertyOp12
 70
     1
102
RTVSPropertyOp13
 70
     1
102
RTVSPropertyOp14
 70
     1
102
RTVSPropertyOp15
 70
     1
102
RTVSPropertyOp16
 70
     1
102
RTVSPropertyOp17
 70
     1
102
RTVSPropertyOp18
 70
     1
102
RTVSPropertyOp19
 70
     1
102
RTVSPropertyOp20
 70
     1
102
RTVSPropertyOp21
 70
     1
102
RTVSPropertyOp22
 70
     1
102
RTVSPropertyOp23
 70
     1
102
RTVSPropertyOp24
 70
     1
102
RTVSPropertyOp25
 70
     1
102
RTVSPropertyOp26
 70
     1
102
RTVSPropertyOp27
 70
     1
102
RTVSPropertyOp28
 70
     1
102
RTVSPropertyOp29
 70
     1
102
RTVSPropertyOp30
 70
     1
102
RTVSPropertyOp31
 70
     1
102
RTVSPropertyOp32
 70
     1
  0
XRECORD
  5
113A
102
{ACAD_REACTORS
330
1139
102
}
330
1139
100
AcDbXrecord
280
     1
102
RTVSPropertyOp0
 70
     1
102
RTVSPropertyOp1
 70
     1
102
RTVSPropertyOp2
 70
     1
102
RTVSPropertyOp3
 70
     1
102
RTVSPropertyOp4
 70
     1
102
RTVSPropertyOp5
 70
     1
102
RTVSPropertyOp6
 70
     1
102
RTVSPropertyOp7
 70
     1
102
RTVSPropertyOp8
 70
     1
102
RTVSPropertyOp9
 70
     1
102
RTVSPropertyOp10
 70
     1
102
RTVSPropertyOp11
 70
     1
102
RTVSPropertyOp12
 70
     1
102
RTVSPropertyOp13
 70
     1
102
RTVSPropertyOp14
 70
     1
102
RTVSPropertyOp15
 70
     1
102
RTVSPropertyOp16
 70
     1
102
RTVSPropertyOp17
 70
     1
102
RTVSPropertyOp18
 70
     1
102
RTVSPropertyOp19
 70
     1
102
RTVSPropertyOp20
 70
     1
102
RTVSPropertyOp21
 70
     1
102
RTVSPropertyOp22
 70
     1
102
RTVSPropertyOp23
 70
     1
102
RTVSPropertyOp24
 70
     1
102
RTVSPropertyOp25
 70
     1
102
RTVSPropertyOp26
 70
     1
102
RTVSPropertyOp27
 70
     1
102
RTVSPropertyOp28
 70
     1
102
RTVSPropertyOp29
 70
     1
102
RTVSPropertyOp30
 70
     1
102
RTVSPropertyOp31
 70
     1
102
RTVSPropertyOp32
 70
     1
  0
XRECORD
  5
1154
102
{ACAD_REACTORS
330
1153
102
}
330
1153
100
AcDbXrecord
280
     1
102
RTVSPropertyOp0
 70
     0
102
RTVSPropertyOp1
 70
     0
102
RTVSPropertyOp2
 70
     0
102
RTVSPropertyOp3
 70
     0
102
RTVSPropertyOp4
 70
     0
102
RTVSPropertyOp5
 70
     0
102
RTVSPropertyOp6
 70
     0
102
RTVSPropertyOp7
 70
     0
102
RTVSPropertyOp8
 70
     0
102
RTVSPropertyOp9
 70
     0
102
RTVSPropertyOp10
 70
     0
102
RTVSPropertyOp11
 70
     0
102
RTVSPropertyOp12
 70
     0
102
RTVSPropertyOp13
 70
     0
102
RTVSPropertyOp14
 70
     2
102
RTVSPropertyOp15
 70
     0
102
RTVSPropertyOp16
 70
     0
102
RTVSPropertyOp17
 70
     0
102
RTVSPropertyOp18
 70
     0
102
RTVSPropertyOp19
 70
     0
102
RTVSPropertyOp20
 70
     0
102
RTVSPropertyOp21
 70
     0
102
RTVSPropertyOp22
 70
     0
102
RTVSPropertyOp23
 70
     0
102
RTVSPropertyOp24
 70
     0
102
RTVSPropertyOp25
 70
     0
102
RTVSPropertyOp26
 70
     0
102
RTVSPropertyOp27
 70
     0
102
RTVSPropertyOp28
 70
     0
102
RTVSPropertyOp29
 70
     0
102
RTVSPropertyOp30
 70
     0
102
RTVSPropertyOp31
 70
     0
102
RTVSPropertyOp32
 70
     0
  0
XRECORD
  5
1142
102
{ACAD_REACTORS
330
1141
102
}
330
1141
100
AcDbXrecord
280
     1
102
RTVSPropertyOp0
 70
     1
102
RTVSPropertyOp1
 70
     1
102
RTVSPropertyOp2
 70
     1
102
RTVSPropertyOp3
 70
     1
102
RTVSPropertyOp4
 70
     1
102
RTVSPropertyOp5
 70
     1
102
RTVSPropertyOp6
 70
     1
102
RTVSPropertyOp7
 70
     1
102
RTVSPropertyOp8
 70
     1
102
RTVSPropertyOp9
 70
     1
102
RTVSPropertyOp10
 70
     1
102
RTVSPropertyOp11
 70
     1
102
RTVSPropertyOp12
 70
     1
102
RTVSPropertyOp13
 70
     1
102
RTVSPropertyOp14
 70
     1
102
RTVSPropertyOp15
 70
     1
102
RTVSPropertyOp16
 70
     1
102
RTVSPropertyOp17
 70
     1
102
RTVSPropertyOp18
 70
     1
102
RTVSPropertyOp19
 70
     1
102
RTVSPropertyOp20
 70
     1
102
RTVSPropertyOp21
 70
     1
102
RTVSPropertyOp22
 70
     1
102
RTVSPropertyOp23
 70
     1
102
RTVSPropertyOp24
 70
     1
102
RTVSPropertyOp25
 70
     1
102
RTVSPropertyOp26
 70
     1
102
RTVSPropertyOp27
 70
     1
102
RTVSPropertyOp28
 70
     1
102
RTVSPropertyOp29
 70
     1
102
RTVSPropertyOp30
 70
     1
102
RTVSPropertyOp31
 70
     1
102
RTVSPropertyOp32
 70
     1
  0
XRECORD
  5
1126
102
{ACAD_REACTORS
330
1125
102
}
330
1125
100
AcDbXrecord
280
     1
102
RTVSPropertyOp0
 70
     1
102
RTVSPropertyOp1
 70
     1
102
RTVSPropertyOp2
 70
     1
102
RTVSPropertyOp3
 70
     1
102
RTVSPropertyOp4
 70
     1
102
RTVSPropertyOp5
 70
     1
102
RTVSPropertyOp6
 70
     1
102
RTVSPropertyOp7
 70
     1
102
RTVSPropertyOp8
 70
     1
102
RTVSPropertyOp9
 70
     1
102
RTVSPropertyOp10
 70
     1
102
RTVSPropertyOp11
 70
     1
102
RTVSPropertyOp12
 70
     1
102
RTVSPropertyOp13
 70
     1
102
RTVSPropertyOp14
 70
     1
102
RTVSPropertyOp15
 70
     1
102
RTVSPropertyOp16
 70
     1
102
RTVSPropertyOp17
 70
     1
102
RTVSPropertyOp18
 70
     1
102
RTVSPropertyOp19
 70
     1
102
RTVSPropertyOp20
 70
     1
102
RTVSPropertyOp21
 70
     1
102
RTVSPropertyOp22
 70
     1
102
RTVSPropertyOp23
 70
     1
102
RTVSPropertyOp24
 70
     1
102
RTVSPropertyOp25
 70
     1
102
RTVSPropertyOp26
 70
     1
102
RTVSPropertyOp27
 70
     1
102
RTVSPropertyOp28
 70
     1
102
RTVSPropertyOp29
 70
     1
102
RTVSPropertyOp30
 70
     1
102
RTVSPropertyOp31
 70
     1
102
RTVSPropertyOp32
 70
     1
  0
XRECORD
  5
1128
102
{ACAD_REACTORS
330
1127
102
}
330
1127
100
AcDbXrecord
280
     1
102
RTVSPropertyOp0
 70
     1
102
RTVSPropertyOp1
 70
     1
102
RTVSPropertyOp2
 70
     1
102
RTVSPropertyOp3
 70
     1
102
RTVSPropertyOp4
 70
     1
102
RTVSPropertyOp5
 70
     1
102
RTVSPropertyOp6
 70
     1
102
RTVSPropertyOp7
 70
     1
102
RTVSPropertyOp8
 70
     1
102
RTVSPropertyOp9
 70
     1
102
RTVSPropertyOp10
 70
     1
102
RTVSPropertyOp11
 70
     1
102
RTVSPropertyOp12
 70
     1
102
RTVSPropertyOp13
 70
     1
102
RTVSPropertyOp14
 70
     1
102
RTVSPropertyOp15
 70
     1
102
RTVSPropertyOp16
 70
     1
102
RTVSPropertyOp17
 70
     1
102
RTVSPropertyOp18
 70
     1
102
RTVSPropertyOp19
 70
     1
102
RTVSPropertyOp20
 70
     1
102
RTVSPropertyOp21
 70
     1
102
RTVSPropertyOp22
 70
     1
102
RTVSPropertyOp23
 70
     1
102
RTVSPropertyOp24
 70
     1
102
RTVSPropertyOp25
 70
     1
102
RTVSPropertyOp26
 70
     1
102
RTVSPropertyOp27
 70
     1
102
RTVSPropertyOp28
 70
     1
102
RTVSPropertyOp29
 70
     1
102
RTVSPropertyOp30
 70
     1
102
RTVSPropertyOp31
 70
     1
102
RTVSPropertyOp32
 70
     1
  0
XRECORD
  5
112A
102
{ACAD_REACTORS
330
1129
102
}
330
1129
100
AcDbXrecord
280
     1
102
RTVSPropertyOp0
 70
     1
102
RTVSPropertyOp1
 70
     1
102
RTVSPropertyOp2
 70
     1
102
RTVSPropertyOp3
 70
     1
102
RTVSPropertyOp4
 70
     1
102
RTVSPropertyOp5
 70
     1
102
RTVSPropertyOp6
 70
     1
102
RTVSPropertyOp7
 70
     1
102
RTVSPropertyOp8
 70
     1
102
RTVSPropertyOp9
 70
     1
102
RTVSPropertyOp10
 70
     1
102
RTVSPropertyOp11
 70
     1
102
RTVSPropertyOp12
 70
     1
102
RTVSPropertyOp13
 70
     1
102
RTVSPropertyOp14
 70
     1
102
RTVSPropertyOp15
 70
     1
102
RTVSPropertyOp16
 70
     1
102
RTVSPropertyOp17
 70
     1
102
RTVSPropertyOp18
 70
     1
102
RTVSPropertyOp19
 70
     1
102
RTVSPropertyOp20
 70
     1
102
RTVSPropertyOp21
 70
     1
102
RTVSPropertyOp22
 70
     1
102
RTVSPropertyOp23
 70
     1
102
RTVSPropertyOp24
 70
     1
102
RTVSPropertyOp25
 70
     1
102
RTVSPropertyOp26
 70
     1
102
RTVSPropertyOp27
 70
     1
102
RTVSPropertyOp28
 70
     1
102
RTVSPropertyOp29
 70
     1
102
RTVSPropertyOp30
 70
     1
102
RTVSPropertyOp31
 70
     1
102
RTVSPropertyOp32
 70
     1
  0
XRECORD
  5
112C
102
{ACAD_REACTORS
330
112B
102
}
330
112B
100
AcDbXrecord
280
     1
102
RTVSPropertyOp0
 70
     1
102
RTVSPropertyOp1
 70
     1
102
RTVSPropertyOp2
 70
     1
102
RTVSPropertyOp3
 70
     1
102
RTVSPropertyOp4
 70
     1
102
RTVSPropertyOp5
 70
     1
102
RTVSPropertyOp6
 70
     1
102
RTVSPropertyOp7
 70
     1
102
RTVSPropertyOp8
 70
     1
102
RTVSPropertyOp9
 70
     1
102
RTVSPropertyOp10
 70
     1
102
RTVSPropertyOp11
 70
     1
102
RTVSPropertyOp12
 70
     1
102
RTVSPropertyOp13
 70
     1
102
RTVSPropertyOp14
 70
     1
102
RTVSPropertyOp15
 70
     1
102
RTVSPropertyOp16
 70
     1
102
RTVSPropertyOp17
 70
     1
102
RTVSPropertyOp18
 70
     1
102
RTVSPropertyOp19
 70
     1
102
RTVSPropertyOp20
 70
     1
102
RTVSPropertyOp21
 70
     1
102
RTVSPropertyOp22
 70
     1
102
RTVSPropertyOp23
 70
     1
102
RTVSPropertyOp24
 70
     1
102
RTVSPropertyOp25
 70
     1
102
RTVSPropertyOp26
 70
     1
102
RTVSPropertyOp27
 70
     1
102
RTVSPropertyOp28
 70
     1
102
RTVSPropertyOp29
 70
     1
102
RTVSPropertyOp30
 70
     1
102
RTVSPropertyOp31
 70
     1
102
RTVSPropertyOp32
 70
     1
  0
XRECORD
  5
1134
102
{ACAD_REACTORS
330
1133
102
}
330
1133
100
AcDbXrecord
280
     1
102
RTVSPropertyOp0
 70
     1
102
RTVSPropertyOp1
 70
     1
102
RTVSPropertyOp2
 70
     1
102
RTVSPropertyOp3
 70
     1
102
RTVSPropertyOp4
 70
     1
102
RTVSPropertyOp5
 70
     1
102
RTVSPropertyOp6
 70
     1
102
RTVSPropertyOp7
 70
     1
102
RTVSPropertyOp8
 70
     1
102
RTVSPropertyOp9
 70
     1
102
RTVSPropertyOp10
 70
     1
102
RTVSPropertyOp11
 70
     1
102
RTVSPropertyOp12
 70
     1
102
RTVSPropertyOp13
 70
     1
102
RTVSPropertyOp14
 70
     1
102
RTVSPropertyOp15
 70
     1
102
RTVSPropertyOp16
 70
     1
102
RTVSPropertyOp17
 70
     1
102
RTVSPropertyOp18
 70
     1
102
RTVSPropertyOp19
 70
     1
102
RTVSPropertyOp20
 70
     1
102
RTVSPropertyOp21
 70
     1
102
RTVSPropertyOp22
 70
     1
102
RTVSPropertyOp23
 70
     1
102
RTVSPropertyOp24
 70
     1
102
RTVSPropertyOp25
 70
     1
102
RTVSPropertyOp26
 70
     1
102
RTVSPropertyOp27
 70
     1
102
RTVSPropertyOp28
 70
     1
102
RTVSPropertyOp29
 70
     1
102
RTVSPropertyOp30
 70
     1
102
RTVSPropertyOp31
 70
     1
102
RTVSPropertyOp32
 70
     1
  0
XRECORD
  5
1150
102
{ACAD_REACTORS
330
114F
102
}
330
114F
100
AcDbXrecord
280
     1
102
RTVSPropertyOp0
 70
     0
102
RTVSPropertyOp1
 70
     0
102
RTVSPropertyOp2
 70
     0
102
RTVSPropertyOp3
 70
     0
102
RTVSPropertyOp4
 70
     0
102
RTVSPropertyOp5
 70
     0
102
RTVSPropertyOp6
 70
     0
102
RTVSPropertyOp7
 70
     0
102
RTVSPropertyOp8
 70
     0
102
RTVSPropertyOp9
 70
     0
102
RTVSPropertyOp10
 70
     0
102
RTVSPropertyOp11
 70
     0
102
RTVSPropertyOp12
 70
     0
102
RTVSPropertyOp13
 70
     0
102
RTVSPropertyOp14
 70
     2
102
RTVSPropertyOp15
 70
     0
102
RTVSPropertyOp16
 70
     0
102
RTVSPropertyOp17
 70
     0
102
RTVSPropertyOp18
 70
     0
102
RTVSPropertyOp19
 70
     0
102
RTVSPropertyOp20
 70
     0
102
RTVSPropertyOp21
 70
     0
102
RTVSPropertyOp22
 70
     0
102
RTVSPropertyOp23
 70
     0
102
RTVSPropertyOp24
 70
     0
102
RTVSPropertyOp25
 70
     0
102
RTVSPropertyOp26
 70
     0
102
RTVSPropertyOp27
 70
     0
102
RTVSPropertyOp28
 70
     0
102
RTVSPropertyOp29
 70
     0
102
RTVSPropertyOp30
 70
     0
102
RTVSPropertyOp31
 70
     0
102
RTVSPropertyOp32
 70
     0
  0
XRECORD
  5
1140
102
{ACAD_REACTORS
330
113F
102
}
330
113F
100
AcDbXrecord
280
     1
102
RTVSPropertyOp0
 70
     1
102
RTVSPropertyOp1
 70
     1
102
RTVSPropertyOp2
 70
     1
102
RTVSPropertyOp3
 70
     1
102
RTVSPropertyOp4
 70
     1
102
RTVSPropertyOp5
 70
     1
102
RTVSPropertyOp6
 70
     1
102
RTVSPropertyOp7
 70
     1
102
RTVSPropertyOp8
 70
     1
102
RTVSPropertyOp9
 70
     1
102
RTVSPropertyOp10
 70
     1
102
RTVSPropertyOp11
 70
     1
102
RTVSPropertyOp12
 70
     1
102
RTVSPropertyOp13
 70
     1
102
RTVSPropertyOp14
 70
     1
102
RTVSPropertyOp15
 70
     1
102
RTVSPropertyOp16
 70
     1
102
RTVSPropertyOp17
 70
     1
102
RTVSPropertyOp18
 70
     1
102
RTVSPropertyOp19
 70
     1
102
RTVSPropertyOp20
 70
     1
102
RTVSPropertyOp21
 70
     1
102
RTVSPropertyOp22
 70
     1
102
RTVSPropertyOp23
 70
     1
102
RTVSPropertyOp24
 70
     1
102
RTVSPropertyOp25
 70
     1
102
RTVSPropertyOp26
 70
     1
102
RTVSPropertyOp27
 70
     1
102
RTVSPropertyOp28
 70
     1
102
RTVSPropertyOp29
 70
     1
102
RTVSPropertyOp30
 70
     1
102
RTVSPropertyOp31
 70
     1
102
RTVSPropertyOp32
 70
     1
  0
XRECORD
  5
1152
102
{ACAD_REACTORS
330
1151
102
}
330
1151
100
AcDbXrecord
280
     1
102
RTVSPropertyOp0
 70
     0
102
RTVSPropertyOp1
 70
     0
102
RTVSPropertyOp2
 70
     0
102
RTVSPropertyOp3
 70
     0
102
RTVSPropertyOp4
 70
     0
102
RTVSPropertyOp5
 70
     0
102
RTVSPropertyOp6
 70
     0
102
RTVSPropertyOp7
 70
     0
102
RTVSPropertyOp8
 70
     0
102
RTVSPropertyOp9
 70
     0
102
RTVSPropertyOp10
 70
     0
102
RTVSPropertyOp11
 70
     0
102
RTVSPropertyOp12
 70
     0
102
RTVSPropertyOp13
 70
     0
102
RTVSPropertyOp14
 70
     2
102
RTVSPropertyOp15
 70
     0
102
RTVSPropertyOp16
 70
     0
102
RTVSPropertyOp17
 70
     0
102
RTVSPropertyOp18
 70
     0
102
RTVSPropertyOp19
 70
     0
102
RTVSPropertyOp20
 70
     0
102
RTVSPropertyOp21
 70
     0
102
RTVSPropertyOp22
 70
     0
102
RTVSPropertyOp23
 70
     0
102
RTVSPropertyOp24
 70
     0
102
RTVSPropertyOp25
 70
     0
102
RTVSPropertyOp26
 70
     0
102
RTVSPropertyOp27
 70
     0
102
RTVSPropertyOp28
 70
     0
102
RTVSPropertyOp29
 70
     0
102
RTVSPropertyOp30
 70
     0
102
RTVSPropertyOp31
 70
     0
102
RTVSPropertyOp32
 70
     0
  0
XRECORD
  5
1138
102
{ACAD_REACTORS
330
1137
102
}
330
1137
100
AcDbXrecord
280
     1
102
RTVSPropertyOp0
 70
     1
102
RTVSPropertyOp1
 70
     1
102
RTVSPropertyOp2
 70
     1
102
RTVSPropertyOp3
 70
     1
102
RTVSPropertyOp4
 70
     1
102
RTVSPropertyOp5
 70
     1
102
RTVSPropertyOp6
 70
     1
102
RTVSPropertyOp7
 70
     1
102
RTVSPropertyOp8
 70
     1
102
RTVSPropertyOp9
 70
     1
102
RTVSPropertyOp10
 70
     1
102
RTVSPropertyOp11
 70
     1
102
RTVSPropertyOp12
 70
     1
102
RTVSPropertyOp13
 70
     1
102
RTVSPropertyOp14
 70
     1
102
RTVSPropertyOp15
 70
     1
102
RTVSPropertyOp16
 70
     1
102
RTVSPropertyOp17
 70
     1
102
RTVSPropertyOp18
 70
     1
102
RTVSPropertyOp19
 70
     1
102
RTVSPropertyOp20
 70
     1
102
RTVSPropertyOp21
 70
     1
102
RTVSPropertyOp22
 70
     1
102
RTVSPropertyOp23
 70
     1
102
RTVSPropertyOp24
 70
     1
102
RTVSPropertyOp25
 70
     1
102
RTVSPropertyOp26
 70
     1
102
RTVSPropertyOp27
 70
     1
102
RTVSPropertyOp28
 70
     1
102
RTVSPropertyOp29
 70
     1
102
RTVSPropertyOp30
 70
     1
102
RTVSPropertyOp31
 70
     1
102
RTVSPropertyOp32
 70
     1
  0
XRECORD
  5
114E
102
{ACAD_REACTORS
330
114D
102
}
330
114D
100
AcDbXrecord
280
     1
102
RTVSPropertyOp0
 70
     1
102
RTVSPropertyOp1
 70
     1
102
RTVSPropertyOp2
 70
     1
102
RTVSPropertyOp3
 70
     1
102
RTVSPropertyOp4
 70
     1
102
RTVSPropertyOp5
 70
     1
102
RTVSPropertyOp6
 70
     1
102
RTVSPropertyOp7
 70
     1
102
RTVSPropertyOp8
 70
     1
102
RTVSPropertyOp9
 70
     1
102
RTVSPropertyOp10
 70
     1
102
RTVSPropertyOp11
 70
     1
102
RTVSPropertyOp12
 70
     1
102
RTVSPropertyOp13
 70
     1
102
RTVSPropertyOp14
 70
     1
102
RTVSPropertyOp15
 70
     1
102
RTVSPropertyOp16
 70
     1
102
RTVSPropertyOp17
 70
     1
102
RTVSPropertyOp18
 70
     1
102
RTVSPropertyOp19
 70
     1
102
RTVSPropertyOp20
 70
     1
102
RTVSPropertyOp21
 70
     1
102
RTVSPropertyOp22
 70
     1
102
RTVSPropertyOp23
 70
     1
102
RTVSPropertyOp24
 70
     1
102
RTVSPropertyOp25
 70
     1
102
RTVSPropertyOp26
 70
     1
102
RTVSPropertyOp27
 70
     1
102
RTVSPropertyOp28
 70
     1
102
RTVSPropertyOp29
 70
     1
102
RTVSPropertyOp30
 70
     1
102
RTVSPropertyOp31
 70
     1
102
RTVSPropertyOp32
 70
     1
  0
XRECORD
  5
114C
102
{ACAD_REACTORS
330
114B
102
}
330
114B
100
AcDbXrecord
280
     1
102
RTVSPropertyOp0
 70
     1
102
RTVSPropertyOp1
 70
     1
102
RTVSPropertyOp2
 70
     1
102
RTVSPropertyOp3
 70
     1
102
RTVSPropertyOp4
 70
     1
102
RTVSPropertyOp5
 70
     1
102
RTVSPropertyOp6
 70
     1
102
RTVSPropertyOp7
 70
     1
102
RTVSPropertyOp8
 70
     1
102
RTVSPropertyOp9
 70
     1
102
RTVSPropertyOp10
 70
     1
102
RTVSPropertyOp11
 70
     1
102
RTVSPropertyOp12
 70
     1
102
RTVSPropertyOp13
 70
     1
102
RTVSPropertyOp14
 70
     1
102
RTVSPropertyOp15
 70
     1
102
RTVSPropertyOp16
 70
     1
102
RTVSPropertyOp17
 70
     1
102
RTVSPropertyOp18
 70
     1
102
RTVSPropertyOp19
 70
     1
102
RTVSPropertyOp20
 70
     1
102
RTVSPropertyOp21
 70
     1
102
RTVSPropertyOp22
 70
     1
102
RTVSPropertyOp23
 70
     1
102
RTVSPropertyOp24
 70
     1
102
RTVSPropertyOp25
 70
     1
102
RTVSPropertyOp26
 70
     1
102
RTVSPropertyOp27
 70
     1
102
RTVSPropertyOp28
 70
     1
102
RTVSPropertyOp29
 70
     1
102
RTVSPropertyOp30
 70
     1
102
RTVSPropertyOp31
 70
     1
102
RTVSPropertyOp32
 70
     1
  0
XRECORD
  5
1146
102
{ACAD_REACTORS
330
1145
102
}
330
1145
100
AcDbXrecord
280
     1
102
RTVSPropertyOp0
 70
     1
102
RTVSPropertyOp1
 70
     1
102
RTVSPropertyOp2
 70
     1
102
RTVSPropertyOp3
 70
     1
102
RTVSPropertyOp4
 70
     1
102
RTVSPropertyOp5
 70
     1
102
RTVSPropertyOp6
 70
     1
102
RTVSPropertyOp7
 70
     1
102
RTVSPropertyOp8
 70
     1
102
RTVSPropertyOp9
 70
     1
102
RTVSPropertyOp10
 70
     1
102
RTVSPropertyOp11
 70
     1
102
RTVSPropertyOp12
 70
     1
102
RTVSPropertyOp13
 70
     1
102
RTVSPropertyOp14
 70
     1
102
RTVSPropertyOp15
 70
     1
102
RTVSPropertyOp16
 70
     1
102
RTVSPropertyOp17
 70
     1
102
RTVSPropertyOp18
 70
     1
102
RTVSPropertyOp19
 70
     1
102
RTVSPropertyOp20
 70
     1
102
RTVSPropertyOp21
 70
     1
102
RTVSPropertyOp22
 70
     1
102
RTVSPropertyOp23
 70
     1
102
RTVSPropertyOp24
 70
     1
102
RTVSPropertyOp25
 70
     1
102
RTVSPropertyOp26
 70
     1
102
RTVSPropertyOp27
 70
     1
102
RTVSPropertyOp28
 70
     1
102
RTVSPropertyOp29
 70
     1
102
RTVSPropertyOp30
 70
     1
102
RTVSPropertyOp31
 70
     1
102
RTVSPropertyOp32
 70
     1
  0
XRECORD
  5
1148
102
{ACAD_REACTORS
330
1147
102
}
330
1147
100
AcDbXrecord
280
     1
102
RTVSPropertyOp0
 70
     1
102
RTVSPropertyOp1
 70
     1
102
RTVSPropertyOp2
 70
     1
102
RTVSPropertyOp3
 70
     1
102
RTVSPropertyOp4
 70
     1
102
RTVSPropertyOp5
 70
     1
102
RTVSPropertyOp6
 70
     1
102
RTVSPropertyOp7
 70
     1
102
RTVSPropertyOp8
 70
     1
102
RTVSPropertyOp9
 70
     1
102
RTVSPropertyOp10
 70
     1
102
RTVSPropertyOp11
 70
     1
102
RTVSPropertyOp12
 70
     1
102
RTVSPropertyOp13
 70
     1
102
RTVSPropertyOp14
 70
     1
102
RTVSPropertyOp15
 70
     1
102
RTVSPropertyOp16
 70
     1
102
RTVSPropertyOp17
 70
     1
102
RTVSPropertyOp18
 70
     1
102
RTVSPropertyOp19
 70
     1
102
RTVSPropertyOp20
 70
     1
102
RTVSPropertyOp21
 70
     1
102
RTVSPropertyOp22
 70
     1
102
RTVSPropertyOp23
 70
     1
102
RTVSPropertyOp24
 70
     1
102
RTVSPropertyOp25
 70
     1
102
RTVSPropertyOp26
 70
     1
102
RTVSPropertyOp27
 70
     1
102
RTVSPropertyOp28
 70
     1
102
RTVSPropertyOp29
 70
     1
102
RTVSPropertyOp30
 70
     1
102
RTVSPropertyOp31
 70
     1
102
RTVSPropertyOp32
 70
     1
  0
XRECORD
  5
113E
102
{ACAD_REACTORS
330
113D
102
}
330
113D
100
AcDbXrecord
280
     1
102
RTVSPropertyOp0
 70
     1
102
RTVSPropertyOp1
 70
     1
102
RTVSPropertyOp2
 70
     1
102
RTVSPropertyOp3
 70
     1
102
RTVSPropertyOp4
 70
     1
102
RTVSPropertyOp5
 70
     1
102
RTVSPropertyOp6
 70
     1
102
RTVSPropertyOp7
 70
     1
102
RTVSPropertyOp8
 70
     1
102
RTVSPropertyOp9
 70
     1
102
RTVSPropertyOp10
 70
     1
102
RTVSPropertyOp11
 70
     1
102
RTVSPropertyOp12
 70
     1
102
RTVSPropertyOp13
 70
     1
102
RTVSPropertyOp14
 70
     1
102
RTVSPropertyOp15
 70
     1
102
RTVSPropertyOp16
 70
     1
102
RTVSPropertyOp17
 70
     1
102
RTVSPropertyOp18
 70
     1
102
RTVSPropertyOp19
 70
     1
102
RTVSPropertyOp20
 70
     1
102
RTVSPropertyOp21
 70
     1
102
RTVSPropertyOp22
 70
     1
102
RTVSPropertyOp23
 70
     1
102
RTVSPropertyOp24
 70
     1
102
RTVSPropertyOp25
 70
     1
102
RTVSPropertyOp26
 70
     1
102
RTVSPropertyOp27
 70
     1
102
RTVSPropertyOp28
 70
     1
102
RTVSPropertyOp29
 70
     1
102
RTVSPropertyOp30
 70
     1
102
RTVSPropertyOp31
 70
     1
102
RTVSPropertyOp32
 70
     1
  0
XRECORD
  5
1132
102
{ACAD_REACTORS
330
1131
102
}
330
1131
100
AcDbXrecord
280
     1
102
RTVSPropertyOp0
 70
     1
102
RTVSPropertyOp1
 70
     1
102
RTVSPropertyOp2
 70
     1
102
RTVSPropertyOp3
 70
     1
102
RTVSPropertyOp4
 70
     1
102
RTVSPropertyOp5
 70
     1
102
RTVSPropertyOp6
 70
     1
102
RTVSPropertyOp7
 70
     1
102
RTVSPropertyOp8
 70
     1
102
RTVSPropertyOp9
 70
     1
102
RTVSPropertyOp10
 70
     1
102
RTVSPropertyOp11
 70
     1
102
RTVSPropertyOp12
 70
     1
102
RTVSPropertyOp13
 70
     1
102
RTVSPropertyOp14
 70
     1
102
RTVSPropertyOp15
 70
     1
102
RTVSPropertyOp16
 70
     1
102
RTVSPropertyOp17
 70
     1
102
RTVSPropertyOp18
 70
     1
102
RTVSPropertyOp19
 70
     1
102
RTVSPropertyOp20
 70
     1
102
RTVSPropertyOp21
 70
     1
102
RTVSPropertyOp22
 70
     1
102
RTVSPropertyOp23
 70
     1
102
RTVSPropertyOp24
 70
     1
102
RTVSPropertyOp25
 70
     1
102
RTVSPropertyOp26
 70
     1
102
RTVSPropertyOp27
 70
     1
102
RTVSPropertyOp28
 70
     1
102
RTVSPropertyOp29
 70
     1
102
RTVSPropertyOp30
 70
     1
102
RTVSPropertyOp31
 70
     1
102
RTVSPropertyOp32
 70
     1
  0
XRECORD
  5
114A
102
{ACAD_REACTORS
330
1149
102
}
330
1149
100
AcDbXrecord
280
     1
102
RTVSPropertyOp0
 70
     1
102
RTVSPropertyOp1
 70
     1
102
RTVSPropertyOp2
 70
     1
102
RTVSPropertyOp3
 70
     1
102
RTVSPropertyOp4
 70
     1
102
RTVSPropertyOp5
 70
     1
102
RTVSPropertyOp6
 70
     1
102
RTVSPropertyOp7
 70
     1
102
RTVSPropertyOp8
 70
     1
102
RTVSPropertyOp9
 70
     1
102
RTVSPropertyOp10
 70
     1
102
RTVSPropertyOp11
 70
     1
102
RTVSPropertyOp12
 70
     1
102
RTVSPropertyOp13
 70
     1
102
RTVSPropertyOp14
 70
     1
102
RTVSPropertyOp15
 70
     1
102
RTVSPropertyOp16
 70
     1
102
RTVSPropertyOp17
 70
     1
102
RTVSPropertyOp18
 70
     1
102
RTVSPropertyOp19
 70
     1
102
RTVSPropertyOp20
 70
     1
102
RTVSPropertyOp21
 70
     1
102
RTVSPropertyOp22
 70
     1
102
RTVSPropertyOp23
 70
     1
102
RTVSPropertyOp24
 70
     1
102
RTVSPropertyOp25
 70
     1
102
RTVSPropertyOp26
 70
     1
102
RTVSPropertyOp27
 70
     1
102
RTVSPropertyOp28
 70
     1
102
RTVSPropertyOp29
 70
     1
102
RTVSPropertyOp30
 70
     1
102
RTVSPropertyOp31
 70
     1
102
RTVSPropertyOp32
 70
     1
  0
ENDSEC
  0
EOF
