  0
SECTION
  2
HEADER
  9
$ACADVER
  1
AC1015
  9
$ACADMAINTVER
 70
    20
  9
$DWGCODEPAGE
  3
ANSI_1250
  9
$INSBASE
 10
0.0
 20
0.0
 30
0.0
  9
$EXTMIN
 10
20090.0
 20
-22.00134202912078
 30
0.0
  9
$EXTMAX
 10
34197.99371819765
 20
10148.8401496386
 30
0.0
  9
$LIMMIN
 10
0.0
 20
0.0
  9
$LIMMAX
 10
20790.0
 20
14700.0
  9
$ORTHOMODE
 70
     0
  9
$REGENMODE
 70
     1
  9
$FILLMODE
 70
     1
  9
$QTEXTMODE
 70
     0
  9
$MIRRTEXT
 70
     0
  9
$LTSCALE
 40
70.0
  9
$ATTMODE
 70
     1
  9
$TEXTSIZE
 40
0.2
  9
$TRACEWID
 40
0.05
  9
$TEXTSTYLE
  7
Standard
  9
$CLAYER
  8
0
  9
$CELTYPE
  6
ByLayer
  9
$CECOLOR
 62
   256
  9
$CELTSCALE
 40
1.0
  9
$DISPSILH
 70
     0
  9
$DIMSCALE
 40
1.0
  9
$DIMASZ
 40
1.799999999999999
  9
$DIMEXO
 40
0.0625
  9
$DIMDLI
 40
0.38
  9
$DIMRND
 40
0.0
  9
$DIMDLE
 40
0.0
  9
$DIMEXE
 40
0.18
  9
$DIMTP
 40
0.0
  9
$DIMTM
 40
0.0
  9
$DIMTXT
 40
0.25
  9
$DIMCEN
 40
0.09
  9
$DIMTSZ
 40
0.0
  9
$DIMTOL
 70
     0
  9
$DIMLIM
 70
     0
  9
$DIMTIH
 70
     1
  9
$DIMTOH
 70
     1
  9
$DIMSE1
 70
     0
  9
$DIMSE2
 70
     0
  9
$DIMTAD
 70
     0
  9
$DIMZIN
 70
     0
  9
$DIMBLK
  1

  9
$DIMASO
 70
     1
  9
$DIMSHO
 70
     1
  9
$DIMPOST
  1

  9
$DIMAPOST
  1

  9
$DIMALT
 70
     0
  9
$DIMALTD
 70
     2
  9
$DIMALTF
 40
25.4
  9
$DIMLFAC
 40
1.0
  9
$DIMTOFL
 70
     0
  9
$DIMTVP
 40
0.0
  9
$DIMTIX
 70
     0
  9
$DIMSOXD
 70
     0
  9
$DIMSAH
 70
     0
  9
$DIMBLK1
  1

  9
$DIMBLK2
  1

  9
$DIMSTYLE
  2
Standard
  9
$DIMCLRD
 70
     0
  9
$DIMCLRE
 70
     0
  9
$DIMCLRT
 70
     0
  9
$DIMTFAC
 40
1.0
  9
$DIMGAP
 40
0.09
  9
$DIMJUST
 70
     0
  9
$DIMSD1
 70
     0
  9
$DIMSD2
 70
     0
  9
$DIMTOLJ
 70
     1
  9
$DIMTZIN
 70
     0
  9
$DIMALTZ
 70
     0
  9
$DIMALTTZ
 70
     0
  9
$DIMUPT
 70
     0
  9
$DIMDEC
 70
     4
  9
$DIMTDEC
 70
     4
  9
$DIMALTU
 70
     2
  9
$DIMALTTD
 70
     2
  9
$DIMTXSTY
  7
Standard
  9
$DIMAUNIT
 70
     0
  9
$DIMADEC
 70
     0
  9
$DIMALTRND
 40
0.0
  9
$DIMAZIN
 70
     0
  9
$DIMDSEP
 70
    46
  9
$DIMATFIT
 70
     3
  9
$DIMFRAC
 70
     0
  9
$DIMLDRBLK
  1

  9
$DIMLUNIT
 70
     2
  9
$DIMLWD
 70
    -2
  9
$DIMLWE
 70
    -2
  9
$DIMTMOVE
 70
     0
  9
$LUNITS
 70
     2
  9
$LUPREC
 70
     4
  9
$SKETCHINC
 40
0.1
  9
$FILLETRAD
 40
0.0
  9
$AUNITS
 70
     0
  9
$AUPREC
 70
     0
  9
$MENU
  1
.
  9
$ELEVATION
 40
0.0
  9
$PELEVATION
 40
0.0
  9
$THICKNESS
 40
0.0
  9
$LIMCHECK
 70
     0
  9
$CHAMFERA
 40
0.0
  9
$CHAMFERB
 40
0.0
  9
$CHAMFERC
 40
0.0
  9
$CHAMFERD
 40
0.0
  9
$SKPOLY
 70
     0
  9
$TDCREATE
 40
2457945.593961678
  9
$TDUCREATE
 40
2457945.510628345
  9
$TDUPDATE
 40
2458619.605060926
  9
$TDUUPDATE
 40
2458619.521727593
  9
$TDINDWG
 40
0.0012968519
  9
$TDUSRTIMER
 40
0.0012968519
  9
$USRTIMER
 70
     1
  9
$ANGBASE
 50
0.0
  9
$ANGDIR
 70
     0
  9
$PDMODE
 70
     0
  9
$PDSIZE
 40
0.0
  9
$PLINEWID
 40
0.0
  9
$SPLFRAME
 70
     0
  9
$SPLINETYPE
 70
     6
  9
$SPLINESEGS
 70
     8
  9
$HANDSEED
  5
1154
  9
$SURFTAB1
 70
     6
  9
$SURFTAB2
 70
     6
  9
$SURFTYPE
 70
     6
  9
$SURFU
 70
     6
  9
$SURFV
 70
     6
  9
$UCSBASE
  2

  9
$UCSNAME
  2

  9
$UCSORG
 10
0.0
 20
0.0
 30
0.0
  9
$UCSXDIR
 10
1.0
 20
0.0
 30
0.0
  9
$UCSYDIR
 10
0.0
 20
1.0
 30
0.0
  9
$UCSORTHOREF
  2

  9
$UCSORTHOVIEW
 70
     0
  9
$UCSORGTOP
 10
0.0
 20
0.0
 30
0.0
  9
$UCSORGBOTTOM
 10
0.0
 20
0.0
 30
0.0
  9
$UCSORGLEFT
 10
0.0
 20
0.0
 30
0.0
  9
$UCSORGRIGHT
 10
0.0
 20
0.0
 30
0.0
  9
$UCSORGFRONT
 10
0.0
 20
0.0
 30
0.0
  9
$UCSORGBACK
 10
0.0
 20
0.0
 30
0.0
  9
$PUCSBASE
  2

  9
$PUCSNAME
  2

  9
$PUCSORG
 10
0.0
 20
0.0
 30
0.0
  9
$PUCSXDIR
 10
1.0
 20
0.0
 30
0.0
  9
$PUCSYDIR
 10
0.0
 20
1.0
 30
0.0
  9
$PUCSORTHOREF
  2

  9
$PUCSORTHOVIEW
 70
     0
  9
$PUCSORGTOP
 10
0.0
 20
0.0
 30
0.0
  9
$PUCSORGBOTTOM
 10
0.0
 20
0.0
 30
0.0
  9
$PUCSORGLEFT
 10
0.0
 20
0.0
 30
0.0
  9
$PUCSORGRIGHT
 10
0.0
 20
0.0
 30
0.0
  9
$PUCSORGFRONT
 10
0.0
 20
0.0
 30
0.0
  9
$PUCSORGBACK
 10
0.0
 20
0.0
 30
0.0
  9
$USERI1
 70
     0
  9
$USERI2
 70
     0
  9
$USERI3
 70
     0
  9
$USERI4
 70
     0
  9
$USERI5
 70
     0
  9
$USERR1
 40
0.0
  9
$USERR2
 40
0.0
  9
$USERR3
 40
0.0
  9
$USERR4
 40
0.0
  9
$USERR5
 40
0.0
  9
$WORLDVIEW
 70
     1
  9
$SHADEDGE
 70
     3
  9
$SHADEDIF
 70
    70
  9
$TILEMODE
 70
     1
  9
$MAXACTVP
 70
    64
  9
$PINSBASE
 10
0.0
 20
0.0
 30
0.0
  9
$PLIMCHECK
 70
     0
  9
$PEXTMIN
 10
0.0
 20
0.0
 30
0.0
  9
$PEXTMAX
 10
20790.0
 20
14700.0
 30
0.0
  9
$PLIMMIN
 10
0.0
 20
0.0
  9
$PLIMMAX
 10
20790.0
 20
14700.0
  9
$UNITMODE
 70
     0
  9
$VISRETAIN
 70
     1
  9
$PLINEGEN
 70
     0
  9
$PSLTSCALE
 70
     1
  9
$TREEDEPTH
 70
  3020
  9
$CMLSTYLE
  2
Standard
  9
$CMLJUST
 70
     0
  9
$CMLSCALE
 40
1.0
  9
$PROXYGRAPHICS
 70
     1
  9
$MEASUREMENT
 70
     1
  9
$CELWEIGHT
370
    -1
  9
$ENDCAPS
280
     0
  9
$JOINSTYLE
280
     0
  9
$LWDISPLAY
290
     0
  9
$INSUNITS
 70
     4
  9
$HYPERLINKBASE
  1

  9
$STYLESHEET
  1

  9
$XEDIT
290
     1
  9
$CEPSNTYPE
380
     0
  9
$PSTYLEMODE
290
     1
  9
$FINGERPRINTGUID
  2
{35B036BE-B9E7-4F98-AB2B-8B132C6E3ABA}
  9
$VERSIONGUID
  2
{EB2965B8-275E-4C41-826A-85E6D997DB19}
  9
$EXTNAMES
290
     1
  9
$PSVPSCALE
 40
0.0
  9
$OLESTARTUP
290
     0
  0
ENDSEC
  0
SECTION
  2
CLASSES
  0
CLASS
  1
ACDBDICTIONARYWDFLT
  2
AcDbDictionaryWithDefault
  3
ObjectDBX Classes
 90
        0
280
     0
281
     0
  0
CLASS
  1
MATERIAL
  2
AcDbMaterial
  3
ObjectDBX Classes
 90
     1153
280
     0
281
     0
  0
CLASS
  1
VISUALSTYLE
  2
AcDbVisualStyle
  3
ObjectDBX Classes
 90
     4095
280
     0
281
     0
  0
CLASS
  1
SCALE
  2
AcDbScale
  3
ObjectDBX Classes
 90
     1153
280
     0
281
     0
  0
CLASS
  1
TABLESTYLE
  2
AcDbTableStyle
  3
ObjectDBX Classes
 90
     4095
280
     0
281
     0
  0
CLASS
  1
MLEADERSTYLE
  2
AcDbMLeaderStyle
  3
ACDB_MLEADERSTYLE_CLASS
 90
     4095
280
     0
281
     0
  0
CLASS
  1
CELLSTYLEMAP
  2
AcDbCellStyleMap
  3
ObjectDBX Classes
 90
     1152
280
     0
281
     0
  0
CLASS
  1
DICTIONARYVAR
  2
AcDbDictionaryVar
  3
ObjectDBX Classes
 90
        0
280
     0
281
     0
  0
CLASS
  1
ACDBPLACEHOLDER
  2
AcDbPlaceHolder
  3
ObjectDBX Classes
 90
        0
280
     0
281
     0
  0
CLASS
  1
LAYOUT
  2
AcDbLayout
  3
ObjectDBX Classes
 90
        0
280
     0
281
     0
  0
CLASS
  1
EXACXREFPANELOBJECT
  2
ExAcXREFPanelObject
  3
EXAC_ESW
 90
     1025
280
     0
281
     0
  0
CLASS
  1
NPOCOLLECTION
  2
AcDbImpNonPersistentObjectsCollection
  3
ObjectDBX Classes
 90
     1153
280
     0
281
     0
  0
CLASS
  1
ACDBASSOCNETWORK
  2
AcDbAssocNetwork
  3
ObjectDBX Classes
 90
     1025
280
     0
281
     0
  0
CLASS
  1
ACDBASSOC2DCONSTRAINTGROUP
  2
AcDbAssoc2dConstraintGroup
  3
ObjectDBX Classes
 90
     1025
280
     0
281
     0
  0
CLASS
  1
ACDBASSOCGEOMDEPENDENCY
  2
AcDbAssocGeomDependency
  3
ObjectDBX Classes
 90
     1025
280
     0
281
     0
  0
ENDSEC
  0
SECTION
  2
TABLES
  0
TABLE
  2
VPORT
  5
8
102
{ACAD_XDICTIONARY
360
AE5
102
}
330
0
100
AcDbSymbolTable
 70
     1
  0
VPORT
  5
57
330
8
100
AcDbSymbolTableRecord
100
AcDbViewportTableRecord
  2
*Active
 70
     0
 10
0.0
 20
0.0
 11
1.0
 21
1.0
 12
24765.3430958208
 22
5531.682795571795
 13
0.0
 23
0.0
 14
1.0
 24
1.0
 15
0.0
 25
0.0
 16
0.0
 26
0.0
 36
1.0
 17
0.0
 27
0.0
 37
0.0
 40
13146.51260330597
 41
2.430203045685279
 42
50.0
 43
0.0
 44
0.0
 50
0.0
 51
0.0
 71
     0
 72
   100
 73
     1
 74
     1
 75
     0
 76
     0
 77
     0
 78
     0
281
     0
 65
     1
110
0.0
120
0.0
130
0.0
111
1.0
121
0.0
131
0.0
112
0.0
122
1.0
132
0.0
 79
     0
146
0.0
  0
ENDTAB
  0
TABLE
  2
LTYPE
  5
5
330
0
100
AcDbSymbolTable
 70
     2
  0
LTYPE
  5
5B
330
5
100
AcDbSymbolTableRecord
100
AcDbLinetypeTableRecord
  2
ByBlock
 70
     0
  3

 72
    65
 73
     0
 40
0.0
  0
LTYPE
  5
5C
330
5
100
AcDbSymbolTableRecord
100
AcDbLinetypeTableRecord
  2
ByLayer
 70
     0
  3

 72
    65
 73
     0
 40
0.0
  0
LTYPE
  5
5D
330
5
100
AcDbSymbolTableRecord
100
AcDbLinetypeTableRecord
  2
Continuous
 70
     0
  3
Solid line
 72
    65
 73
     0
 40
0.0
  0
ENDTAB
  0
TABLE
  2
LAYER
  5
2
330
0
100
AcDbSymbolTable
 70
     5
  0
LAYER
  5
54
330
2
100
AcDbSymbolTableRecord
100
AcDbLayerTableRecord
  2
0
 70
     0
 62
     7
  6
Continuous
370
    -3
390
F
  0
LAYER
  5
BA
330
2
100
AcDbSymbolTableRecord
100
AcDbLayerTableRecord
  2
Dimension (ISO)
 70
     0
 62
   161
  6
Continuous
370
    18
390
F
  0
LAYER
  5
C5
330
2
100
AcDbSymbolTableRecord
100
AcDbLayerTableRecord
  2
Title (ISO)
 70
     0
 62
     7
  6
Continuous
370
    30
390
F
  0
LAYER
  5
C8
330
2
100
AcDbSymbolTableRecord
100
AcDbLayerTableRecord
  2
Visible (ISO)
 70
     0
 62
     7
  6
Continuous
370
    30
390
F
  0
LAYER
  5
39D
330
2
100
AcDbSymbolTableRecord
100
AcDbLayerTableRecord
  2
Defpoints
 70
     0
 62
     7
  6
Continuous
290
     0
370
    -3
390
F
  0
ENDTAB
  0
TABLE
  2
STYLE
  5
3
330
0
100
AcDbSymbolTable
 70
     3
  0
STYLE
  5
55
330
3
100
AcDbSymbolTableRecord
100
AcDbTextStyleTableRecord
  2
Standard
 70
     0
 40
0.0
 41
1.0
 50
0.0
 71
     0
 42
0.2
  3
tahoma.ttf
  4

1001
ACAD
1000
Tahoma
1071
      256
  0
STYLE
  5
CD
330
3
100
AcDbSymbolTableRecord
100
AcDbTextStyleTableRecord
  2
Label Text (ISO)
 70
     0
 40
0.0
 41
1.0
 50
0.0
 71
     0
 42
0.2
  3
tahoma.ttf
  4

1001
ACAD
1000
Tahoma
1071
      256
  0
STYLE
  5
CE
330
3
100
AcDbSymbolTableRecord
100
AcDbTextStyleTableRecord
  2
Note Text (ISO)
 70
     0
 40
0.0
 41
1.0
 50
0.0
 71
     0
 42
0.2
  3
tahoma.ttf
  4

1001
ACAD
1000
Tahoma
1071
      256
  0
ENDTAB
  0
TABLE
  2
VIEW
  5
6
330
0
100
AcDbSymbolTable
 70
     0
  0
ENDTAB
  0
TABLE
  2
UCS
  5
7
330
0
100
AcDbSymbolTable
 70
     0
  0
ENDTAB
  0
TABLE
  2
APPID
  5
9
330
0
100
AcDbSymbolTable
 70
     5
  0
APPID
  5
56
330
9
100
AcDbSymbolTableRecord
100
AcDbRegAppTableRecord
  2
ACAD
 70
     0
  0
APPID
  5
5E
330
9
100
AcDbSymbolTableRecord
100
AcDbRegAppTableRecord
  2
AcadAnnotative
 70
     0
  0
APPID
  5
111
330
9
100
AcDbSymbolTableRecord
100
AcDbRegAppTableRecord
  2
AcadAnnoPO
 70
     0
  0
APPID
  5
B1B
330
9
100
AcDbSymbolTableRecord
100
AcDbRegAppTableRecord
  2
ACAD_MLEADERVER
 70
     0
  0
APPID
  5
FBD
330
9
100
AcDbSymbolTableRecord
100
AcDbRegAppTableRecord
  2
ACAD_EXEMPT_FROM_CAD_STANDARDS
 70
     0
  0
ENDTAB
  0
TABLE
  2
DIMSTYLE
  5
A
330
0
100
AcDbSymbolTable
 70
     3
100
AcDbDimStyleTable
 71
     2
340
58
340
D4
  0
DIMSTYLE
105
58
330
A
100
AcDbSymbolTableRecord
100
AcDbDimStyleTableRecord
  2
Standard
 70
     0
340
55
  0
DIMSTYLE
105
D4
102
{ACAD_REACTORS
330
731
330
819
330
8FE
330
9EA
330
F65
330
F66
330
F67
330
F68
102
}
330
A
100
AcDbSymbolTableRecord
100
AcDbDimStyleTableRecord
  2
Default (ISO)
 70
     0
 40
70.0
 41
2.5
 42
0.5
 43
5.999999999999999
 44
1.0
 45
0.00000001
 46
10.0
 73
     0
 77
     1
 78
     8
 79
     2
140
3.5
143
0.03937
146
0.7142857313156128
147
0.762
171
     3
172
     1
176
   256
177
   256
178
   256
271
     2
272
     2
274
     3
278
    44
340
CD
371
    -1
372
    -1
  0
ENDTAB
  0
TABLE
  2
BLOCK_RECORD
  5
1
330
0
100
AcDbSymbolTable
 70
    21
  0
BLOCK_RECORD
  5
6C
102
{ACAD_XDICTIONARY
360
FE9
102
}
330
1
100
AcDbSymbolTableRecord
100
AcDbBlockTableRecord
  2
*Model_Space
340
6F
  0
BLOCK_RECORD
  5
68
330
1
100
AcDbSymbolTableRecord
100
AcDbBlockTableRecord
  2
*Paper_Space
340
6B
  0
BLOCK_RECORD
  5
70
330
1
100
AcDbSymbolTableRecord
100
AcDbBlockTableRecord
  2
*Paper_Space0
340
73
  0
BLOCK_RECORD
  5
109
330
1
100
AcDbSymbolTableRecord
100
AcDbBlockTableRecord
  2
Tabelki rysunkowe Rzut
340
0
102
{BLKREFS
331
114
102
}
  0
BLOCK_RECORD
  5
39E
330
1
100
AcDbSymbolTableRecord
100
AcDbBlockTableRecord
  2
*D2
340
0
  0
BLOCK_RECORD
  5
480
330
1
100
AcDbSymbolTableRecord
100
AcDbBlockTableRecord
  2
*D3
340
0
  0
BLOCK_RECORD
  5
568
330
1
100
AcDbSymbolTableRecord
100
AcDbBlockTableRecord
  2
*D4
340
0
  0
BLOCK_RECORD
  5
650
330
1
100
AcDbSymbolTableRecord
100
AcDbBlockTableRecord
  2
*D5
340
0
  0
BLOCK_RECORD
  5
732
330
1
100
AcDbSymbolTableRecord
100
AcDbBlockTableRecord
  2
*D6
340
0
  0
BLOCK_RECORD
  5
81A
330
1
100
AcDbSymbolTableRecord
100
AcDbBlockTableRecord
  2
*D7
340
0
  0
BLOCK_RECORD
  5
8FF
330
1
100
AcDbSymbolTableRecord
100
AcDbBlockTableRecord
  2
*D8
340
0
  0
BLOCK_RECORD
  5
9EB
330
1
100
AcDbSymbolTableRecord
100
AcDbBlockTableRecord
  2
*D9
340
0
  0
BLOCK_RECORD
  5
B3B
330
1
100
AcDbSymbolTableRecord
100
AcDbBlockTableRecord
  2
88115_Zestaw-drazkow
340
0
310
2800000020000000200000000100080000000000000400000000000000000000000000000000000000000000000080000080000000808000800000008000800080800000C0C0C000C0DCC000F0CAA6000020400000206000002080000020A0000020C0000020E00000400000004020000040400000406000004080000040A0
310
000040C0000040E00000600000006020000060400000606000006080000060A0000060C0000060E00000800000008020000080400000806000008080000080A0000080C0000080E00000A0000000A0200000A0400000A0600000A0800000A0A00000A0C00000A0E00000C0000000C0200000C0400000C0600000C0800000C0
310
A00000C0C00000C0E00000E0000000E0200000E0400000E0600000E0800000E0A00000E0C00000E0E00040000000400020004000400040006000400080004000A0004000C0004000E00040200000402020004020400040206000402080004020A0004020C0004020E000404000004040200040404000404060004040800040
310
40A0004040C0004040E00040600000406020004060400040606000406080004060A0004060C0004060E00040800000408020004080400040806000408080004080A0004080C0004080E00040A0000040A0200040A0400040A0600040A0800040A0A00040A0C00040A0E00040C0000040C0200040C0400040C0600040C08000
310
40C0A00040C0C00040C0E00040E0000040E0200040E0400040E0600040E0800040E0A00040E0C00040E0E00080000000800020008000400080006000800080008000A0008000C0008000E00080200000802020008020400080206000802080008020A0008020C0008020E00080400000804020008040400080406000804080
310
008040A0008040C0008040E00080600000806020008060400080606000806080008060A0008060C0008060E00080800000808020008080400080806000808080008080A0008080C0008080E00080A0000080A0200080A0400080A0600080A0800080A0A00080A0C00080A0E00080C0000080C0200080C0400080C0600080C0
310
800080C0A00080C0C00080C0E00080E0000080E0200080E0400080E0600080E0800080E0A00080E0C00080E0E000C0000000C0002000C0004000C0006000C0008000C000A000C000C000C000E000C0200000C0202000C0204000C0206000C0208000C020A000C020C000C020E000C0400000C0402000C0404000C0406000C0
310
408000C040A000C040C000C040E000C0600000C0602000C0604000C0606000C0608000C060A000C060C000C060E000C0800000C0802000C0804000C0806000C0808000C080A000C080C000C080E000C0A00000C0A02000C0A04000C0A06000C0A08000C0A0A000C0A0C000C0A0E000C0C00000C0C02000C0C04000C0C06000
310
C0C08000C0C0A000F0FBFF00A4A0A000808080000000FF0000FF000000FFFF00FF000000FF00FF00FFFF0000FFFFFF0049494949494949494949494949494949494949494949494949494949494949494949494949494949494949494949494949494949494949494949494949494949494949494949494949FFFFFFFFFFFF
310
FFFFFFFFFFFFFFFF494949494949494949494949494949FFFFFF4949494949494949494949494949FFFFFF4949494949494949494949FF4949494949494949494949494949494949494949FF4949494949494949FFFF49494949494949494949494949494949494949494949FFFF494949494949FF49494949494949494949
310
4949494949494949494949494949FF494949494949FF494949494949494949494949494949494949494949494949FF4949494949FF4949494949494949494949494949494949494949494949494949FF49494949FF4949494949494949494949494949494949494949494949494949FF49494949FF49494949494949494949
310
49494949494949494949494949494949FF494949FF4949494949494949FFFFFFFFFFFFFFFFFFFFFFFF4949494949494949FF4949FF4949494949494949FFFF4949494949494949FFFF4949494949494949FF4949FF4949494949494949FFFF4949494949494949FFFF4949494949494949FF4949FF4949494949494949FFFF
310
4949494949494949FFFF4949494949494949FF4949FF4949494949494949FFFF4949494949494949FFFF4949494949494949FF4949FF4949494949494949FFFF4949494949494949FFFF4949494949494949FF4949FF4949494949494949FFFF4949494949494949FFFF4949494949494949FF4949FF4949494949494949FF
310
FF4949494949494949FFFF4949494949494949FF4949FF4949494949494949FFFF4949494949494949FFFF4949494949494949FF4949FF4949494949494949FFFFFFFFFFFFFFFFFFFFFFFF4949494949494949FF494949FF4949494949494949494949494949494949494949494949494949FF49494949FF49494949494949
310
49494949494949494949494949494949494949FF49494949FF4949494949494949494949494949494949494949494949494949FF4949494949FF494949494949494949494949494949494949494949494949FF494949494949FF494949494949494949494949494949494949494949494949FF494949494949FF4949494949
310
49494949494949494949494949494949494949FF49494949494949FFFF4949494949494949494949494949494949494949FFFF49494949494949494949FFFF49494949494949494949494949494949FFFF4949494949494949494949494949FFFFFFFFFFFFFFFFFFFFFFFFFFFFFFFF49494949494949494949494949494949
310
4949494949494949494949494949494949494949494949494949494949494949494949494949494949494949494949494949494949494949
102
{BLKREFS
331
1109
102
}
1001
ACAD
1000
DesignCenter Data
1002
{
1070
     1
1070
     4
1002
}
  0
BLOCK_RECORD
  5
CFD
330
1
100
AcDbSymbolTableRecord
100
AcDbBlockTableRecord
  2
*D11
340
0
  0
BLOCK_RECORD
  5
D09
330
1
100
AcDbSymbolTableRecord
100
AcDbBlockTableRecord
  2
*D12
340
0
  0
BLOCK_RECORD
  5
D15
330
1
100
AcDbSymbolTableRecord
100
AcDbBlockTableRecord
  2
*D13
340
0
  0
BLOCK_RECORD
  5
D21
330
1
100
AcDbSymbolTableRecord
100
AcDbBlockTableRecord
  2
*D14
340
0
  0
BLOCK_RECORD
  5
F69
330
1
100
AcDbSymbolTableRecord
100
AcDbBlockTableRecord
  2
*D16
340
0
  0
BLOCK_RECORD
  5
F75
330
1
100
AcDbSymbolTableRecord
100
AcDbBlockTableRecord
  2
*D17
340
0
  0
BLOCK_RECORD
  5
F81
330
1
100
AcDbSymbolTableRecord
100
AcDbBlockTableRecord
  2
*D18
340
0
  0
BLOCK_RECORD
  5
F8D
330
1
100
AcDbSymbolTableRecord
100
AcDbBlockTableRecord
  2
*D19
340
0
  0
ENDTAB
  0
ENDSEC
  0
SECTION
  2
BLOCKS
  0
BLOCK
  5
6D
330
6C
100
AcDbEntity
  8
0
100
AcDbBlockBegin
  2
*Model_Space
 70
     0
 10
0.0
 20
0.0
 30
0.0
  3
*Model_Space
  1

  0
ENDBLK
  5
6E
330
6C
100
AcDbEntity
  8
0
100
AcDbBlockEnd
  0
BLOCK
  5
69
330
68
100
AcDbEntity
 67
     1
  8
0
100
AcDbBlockBegin
  2
*Paper_Space
 70
     0
 10
0.0
 20
0.0
 30
0.0
  3
*Paper_Space
  1

  0
ENDBLK
  5
6A
330
68
100
AcDbEntity
 67
     1
  8
0
100
AcDbBlockEnd
  0
BLOCK
  5
71
330
70
100
AcDbEntity
 67
     1
  8
0
100
AcDbBlockBegin
  2
*Paper_Space0
 70
     0
 10
0.0
 20
0.0
 30
0.0
  3
*Paper_Space0
  1

  0
ENDBLK
  5
72
330
70
100
AcDbEntity
 67
     1
  8
0
100
AcDbBlockEnd
  0
BLOCK
  5
10A
330
109
100
AcDbEntity
  8
0
100
AcDbBlockBegin
  2
Tabelki rysunkowe Rzut
 70
     2
 10
0.0
 20
0.0
 30
0.0
  3
Tabelki rysunkowe Rzut
  1

  0
TEXT
  5
10C
330
109
100
AcDbEntity
  8
Title (ISO)
100
AcDbText
 10
166.7768162971836
 20
11.24130542460445
 30
0.0
 40
2.5
  1
Obowiązuje od:
  7
Note Text (ISO)
 11
166.7768162971836
 21
13.74130542460445
 31
0.0
100
AcDbText
 73
     3
  0
TEXT
  5
10E
330
109
100
AcDbEntity
  8
Title (ISO)
100
AcDbText
 10
166.7768162971836
 20
18.24130542460445
 30
0.0
 40
2.5
  1
Nr kat.:
  7
Note Text (ISO)
 11
166.7768162971836
 21
20.74130542460446
 31
0.0
100
AcDbText
 73
     3
  0
TEXT
  5
10F
330
109
100
AcDbEntity
  8
Title (ISO)
100
AcDbText
 10
166.7768162971836
 20
14.74130542460445
 30
0.0
 40
2.5
  1
Nazwa:
  7
Note Text (ISO)
 11
166.7768162971836
 21
17.24130542460445
 31
0.0
100
AcDbText
 73
     3
  0
ATTDEF
  5
110
102
{ACAD_XDICTIONARY
360
AD1
102
}
330
109
100
AcDbEntity
  8
Title (ISO)
100
AcDbText
 10
178.5283273792489
 20
18.12713485684115
 30
0.0
 40
2.5
  1
88115
  7
Note Text (ISO)
100
AcDbAttributeDefinition
  3
Numer katalogowy
  2
Numer_katalogowy_001
 70
     0
  0
ATTDEF
  5
112
102
{ACAD_XDICTIONARY
360
AD4
102
}
330
109
100
AcDbEntity
  8
Title (ISO)
100
AcDbText
 10
190.4107988369825
 20
11.13720873189256
 30
0.0
 40
2.5
  1
2017-07-10
  7
Note Text (ISO)
100
AcDbAttributeDefinition
  3
DATA UTWORZENIA
  2
DATA_UTWORZENIA_001
 70
     0
  0
ATTDEF
  5
113
102
{ACAD_XDICTIONARY
360
AD7
102
}
330
109
100
AcDbEntity
  8
Title (ISO)
100
AcDbText
 10
178.5753387961554
 20
14.1133672292195
 30
0.0
 40
2.5
  1
Zestaw drążków
  7
Note Text (ISO)
100
AcDbAttributeDefinition
  3
Nazwa
  2
Nazwa_001
 70
     0
  0
ENDBLK
  5
10B
330
109
100
AcDbEntity
  8
0
100
AcDbBlockEnd
  0
BLOCK
  5
39F
330
39E
100
AcDbEntity
  8
0
100
AcDbBlockBegin
  2
*D2
 70
     1
 10
0.0
 20
0.0
 30
0.0
  3
*D2
  1

  0
LINE
  5
476
330
39E
100
AcDbEntity
  8
Dimension (ISO)
100
AcDbLine
 10
20091.5836332545
 20
3413.304192903067
 30
0.0
 11
20091.5836332545
 21
828.4482359107219
 31
0.0
  0
LINE
  5
477
330
39E
100
AcDbEntity
  8
Dimension (ISO)
100
AcDbLine
 10
25761.5836332545
 20
3413.304192903082
 30
0.0
 11
25761.5836332545
 21
828.4482359107219
 31
0.0
  0
LINE
  5
478
330
39E
100
AcDbEntity
  8
Dimension (ISO)
100
AcDbLine
 10
20266.5836332545
 20
898.4482359107218
 30
0.0
 11
25586.5836332545
 21
898.4482359107218
 31
0.0
  0
SOLID
  5
479
330
39E
100
AcDbEntity
  8
Dimension (ISO)
100
AcDbTrace
 10
20266.5836332545
 20
927.6149025773884
 30
0.0
 11
20266.5836332545
 21
869.2815692440552
 31
0.0
 12
20091.5836332545
 22
898.4482359107218
 32
0.0
 13
20091.5836332545
 23
898.4482359107218
 33
0.0
  0
SOLID
  5
47A
330
39E
100
AcDbEntity
  8
Dimension (ISO)
100
AcDbTrace
 10
25586.5836332545
 20
927.6149025773884
 30
0.0
 11
25586.5836332545
 21
869.2815692440552
 31
0.0
 12
25761.5836332545
 22
898.4482359107218
 32
0.0
 13
25761.5836332545
 23
898.4482359107218
 33
0.0
  0
MTEXT
  5
47B
330
39E
100
AcDbEntity
  8
Dimension (ISO)
100
AcDbMText
 10
22926.58363325451
 20
1206.82517180489
 30
0.0
 40
245.0
 41
0.0
 71
     2
 72
     1
  1
\A1;5670
  7
Label Text (ISO)
 73
     1
 44
1.0
1001
ACAD
1000
MTEXTBEGIN
1070
    73
1070
     1
1070
    44
1040
1.0
1070
    74
1070
     0
1000
MTEXTEND
  0
POINT
  5
47C
330
39E
100
AcDbEntity
  8
Defpoints
 62
     0
100
AcDbPoint
 10
20091.5836332545
 20
3448.304192903066
 30
0.0
  0
POINT
  5
47D
330
39E
100
AcDbEntity
  8
Defpoints
 62
     0
100
AcDbPoint
 10
25761.5836332545
 20
3448.304192903082
 30
0.0
  0
POINT
  5
47E
330
39E
100
AcDbEntity
  8
Defpoints
 62
     0
100
AcDbPoint
 10
25761.5836332545
 20
898.4482359107218
 30
0.0
  0
ENDBLK
  5
3A0
330
39E
100
AcDbEntity
  8
0
100
AcDbBlockEnd
  0
BLOCK
  5
481
330
480
100
AcDbEntity
  8
0
100
AcDbBlockBegin
  2
*D3
 70
     1
 10
0.0
 20
0.0
 30
0.0
  3
*D3
  1

  0
LINE
  5
55E
330
480
100
AcDbEntity
  8
Dimension (ISO)
100
AcDbLine
 10
23761.58363325451
 20
1413.304192903076
 30
0.0
 11
26449.53823672621
 21
1413.304192903075
 31
0.0
  0
LINE
  5
55F
330
480
100
AcDbEntity
  8
Dimension (ISO)
100
AcDbLine
 10
24161.58363325449
 20
6583.304192903066
 30
0.0
 11
26449.53823672621
 21
6583.304192903066
 31
0.0
  0
LINE
  5
560
330
480
100
AcDbEntity
  8
Dimension (ISO)
100
AcDbLine
 10
26379.53823672621
 20
1588.304192903075
 30
0.0
 11
26379.53823672621
 21
6408.304192903066
 31
0.0
  0
SOLID
  5
561
330
480
100
AcDbEntity
  8
Dimension (ISO)
100
AcDbTrace
 10
26350.37157005954
 20
1588.304192903075
 30
0.0
 11
26408.70490339288
 21
1588.304192903075
 31
0.0
 12
26379.53823672621
 22
1413.304192903075
 32
0.0
 13
26379.53823672621
 23
1413.304192903075
 33
0.0
  0
SOLID
  5
562
330
480
100
AcDbEntity
  8
Dimension (ISO)
100
AcDbTrace
 10
26350.37157005954
 20
6408.304192903066
 30
0.0
 11
26408.70490339288
 21
6408.304192903066
 31
0.0
 12
26379.53823672621
 22
6583.304192903066
 32
0.0
 13
26379.53823672621
 23
6583.304192903066
 33
0.0
  0
MTEXT
  5
563
330
480
100
AcDbEntity
  8
Dimension (ISO)
100
AcDbMText
 10
26071.16130083204
 20
3998.304192903088
 30
0.0
 40
245.0
 41
0.0
 71
     2
 72
     1
  1
\A1;5170
  7
Label Text (ISO)
 11
0.0000000000000001
 21
1.0
 31
0.0
 73
     1
 44
1.0
1001
ACAD
1000
MTEXTBEGIN
1070
    73
1070
     1
1070
    44
1040
1.0
1070
    74
1070
     0
1000
MTEXTEND
  0
POINT
  5
564
330
480
100
AcDbEntity
  8
Defpoints
 62
     0
100
AcDbPoint
 10
23726.58363325451
 20
1413.304192903076
 30
0.0
  0
POINT
  5
565
330
480
100
AcDbEntity
  8
Defpoints
 62
     0
100
AcDbPoint
 10
24126.58363325449
 20
6583.304192903066
 30
0.0
  0
POINT
  5
566
330
480
100
AcDbEntity
  8
Defpoints
 62
     0
100
AcDbPoint
 10
26379.53823672621
 20
6583.304192903066
 30
0.0
  0
ENDBLK
  5
482
330
480
100
AcDbEntity
  8
0
100
AcDbBlockEnd
  0
BLOCK
  5
569
330
568
100
AcDbEntity
  8
0
100
AcDbBlockBegin
  2
*D4
 70
     1
 10
0.0
 20
0.0
 30
0.0
  3
*D4
  1

  0
LINE
  5
646
330
568
100
AcDbEntity
  8
Dimension (ISO)
100
AcDbLine
 10
23758.5836332545
 20
4948.304192903066
 30
0.0
 11
24567.76393282595
 21
4948.304192903066
 31
0.0
  0
LINE
  5
647
330
568
100
AcDbEntity
  8
Dimension (ISO)
100
AcDbLine
 10
23758.58363325449
 20
3448.304192903066
 30
0.0
 11
24567.76393282595
 21
3448.304192903066
 31
0.0
  0
LINE
  5
648
330
568
100
AcDbEntity
  8
Dimension (ISO)
100
AcDbLine
 10
24497.76393282594
 20
4773.304192903066
 30
0.0
 11
24497.76393282594
 21
3623.304192903066
 31
0.0
  0
SOLID
  5
649
330
568
100
AcDbEntity
  8
Dimension (ISO)
100
AcDbTrace
 10
24468.59726615928
 20
4773.304192903066
 30
0.0
 11
24526.93059949261
 21
4773.304192903066
 31
0.0
 12
24497.76393282594
 22
4948.304192903066
 32
0.0
 13
24497.76393282594
 23
4948.304192903066
 33
0.0
  0
SOLID
  5
64A
330
568
100
AcDbEntity
  8
Dimension (ISO)
100
AcDbTrace
 10
24468.59726615928
 20
3623.304192903066
 30
0.0
 11
24526.93059949261
 21
3623.304192903066
 31
0.0
 12
24497.76393282594
 22
3448.304192903066
 32
0.0
 13
24497.76393282594
 23
3448.304192903066
 33
0.0
  0
MTEXT
  5
64B
330
568
100
AcDbEntity
  8
Dimension (ISO)
100
AcDbMText
 10
24189.38699693177
 20
4198.304192903066
 30
0.0
 40
245.0
 41
0.0
 71
     2
 72
     1
  1
\A1;1500
  7
Label Text (ISO)
 11
0.0000000000000001
 21
1.0
 31
0.0
 73
     1
 44
1.0
1001
ACAD
1000
MTEXTBEGIN
1070
    73
1070
     1
1070
    44
1040
1.0
1070
    74
1070
     0
1000
MTEXTEND
  0
POINT
  5
64C
330
568
100
AcDbEntity
  8
Defpoints
 62
     0
100
AcDbPoint
 10
23723.5836332545
 20
4948.304192903066
 30
0.0
  0
POINT
  5
64D
330
568
100
AcDbEntity
  8
Defpoints
 62
     0
100
AcDbPoint
 10
23723.58363325449
 20
3448.304192903066
 30
0.0
  0
POINT
  5
64E
330
568
100
AcDbEntity
  8
Defpoints
 62
     0
100
AcDbPoint
 10
24497.76393282594
 20
3448.304192903066
 30
0.0
  0
ENDBLK
  5
56A
330
568
100
AcDbEntity
  8
0
100
AcDbBlockEnd
  0
BLOCK
  5
651
330
650
100
AcDbEntity
  8
0
100
AcDbBlockBegin
  2
*D5
 70
     1
 10
0.0
 20
0.0
 30
0.0
  3
*D5
  1

  0
LINE
  5
728
330
650
100
AcDbEntity
  8
Dimension (ISO)
100
AcDbLine
 10
23726.5836332545
 20
3416.304192903066
 30
0.0
 11
23726.5836332545
 21
2681.304192903065
 31
0.0
  0
LINE
  5
729
330
650
100
AcDbEntity
  8
Dimension (ISO)
100
AcDbLine
 10
21926.5836332545
 20
3416.304192903065
 30
0.0
 11
21926.5836332545
 21
2681.304192903065
 31
0.0
  0
LINE
  5
72A
330
650
100
AcDbEntity
  8
Dimension (ISO)
100
AcDbLine
 10
23551.5836332545
 20
2751.304192903065
 30
0.0
 11
22101.5836332545
 21
2751.304192903065
 31
0.0
  0
SOLID
  5
72B
330
650
100
AcDbEntity
  8
Dimension (ISO)
100
AcDbTrace
 10
23551.5836332545
 20
2780.470859569732
 30
0.0
 11
23551.5836332545
 21
2722.137526236398
 31
0.0
 12
23726.5836332545
 22
2751.304192903065
 32
0.0
 13
23726.5836332545
 23
2751.304192903065
 33
0.0
  0
SOLID
  5
72C
330
650
100
AcDbEntity
  8
Dimension (ISO)
100
AcDbTrace
 10
22101.5836332545
 20
2780.470859569732
 30
0.0
 11
22101.5836332545
 21
2722.137526236398
 31
0.0
 12
21926.5836332545
 22
2751.304192903065
 32
0.0
 13
21926.5836332545
 23
2751.304192903065
 33
0.0
  0
MTEXT
  5
72D
330
650
100
AcDbEntity
  8
Dimension (ISO)
100
AcDbMText
 10
22826.5836332545
 20
3060.832908507723
 30
0.0
 40
245.0
 41
0.0
 71
     2
 72
     1
  1
\A1;1800
  7
Label Text (ISO)
 73
     1
 44
1.0
1001
ACAD
1000
MTEXTBEGIN
1070
    73
1070
     1
1070
    44
1040
1.0
1070
    74
1070
     0
1000
MTEXTEND
  0
POINT
  5
72E
330
650
100
AcDbEntity
  8
Defpoints
 62
     0
100
AcDbPoint
 10
23726.5836332545
 20
3451.304192903066
 30
0.0
  0
POINT
  5
72F
330
650
100
AcDbEntity
  8
Defpoints
 62
     0
100
AcDbPoint
 10
21926.5836332545
 20
3451.304192903065
 30
0.0
  0
POINT
  5
730
330
650
100
AcDbEntity
  8
Defpoints
 62
     0
100
AcDbPoint
 10
21926.5836332545
 20
2751.304192903065
 30
0.0
  0
ENDBLK
  5
652
330
650
100
AcDbEntity
  8
0
100
AcDbBlockEnd
  0
BLOCK
  5
733
330
732
100
AcDbEntity
  8
0
100
AcDbBlockBegin
  2
*D6
 70
     1
 10
0.0
 20
0.0
 30
0.0
  3
*D6
  1

  0
LINE
  5
810
330
732
100
AcDbEntity
  8
Dimension (ISO)
100
AcDbLine
 10
23656.58363325562
 20
9495.690149639038
 30
0.0
 11
24711.49549849521
 21
9495.690149639038
 31
0.0
  0
LINE
  5
811
330
732
100
AcDbEntity
  8
Dimension (ISO)
100
AcDbLine
 10
23761.58363325563
 20
7843.840149638002
 30
0.0
 11
24711.4954984952
 21
7843.840149638002
 31
0.0
  0
LINE
  5
812
330
732
100
AcDbEntity
  8
Dimension (ISO)
100
AcDbLine
 10
24641.4954984952
 20
9320.690149639039
 30
0.0
 11
24641.4954984952
 21
8018.840149638002
 31
0.0
  0
SOLID
  5
813
330
732
100
AcDbEntity
  8
Dimension (ISO)
100
AcDbTrace
 10
24612.32883182854
 20
9320.690149639039
 30
0.0
 11
24670.66216516188
 21
9320.690149639039
 31
0.0
 12
24641.4954984952
 22
9495.690149639038
 32
0.0
 13
24641.4954984952
 23
9495.690149639038
 33
0.0
  0
SOLID
  5
814
330
732
100
AcDbEntity
  8
Dimension (ISO)
100
AcDbTrace
 10
24612.32883182853
 20
8018.840149638002
 30
0.0
 11
24670.66216516187
 21
8018.840149638002
 31
0.0
 12
24641.4954984952
 22
7843.840149638002
 32
0.0
 13
24641.4954984952
 23
7843.840149638002
 33
0.0
  0
MTEXT
  5
815
330
732
100
AcDbEntity
  8
Dimension (ISO)
100
AcDbMText
 10
24332.95402264239
 20
8669.76514963852
 30
0.0
 40
245.0
 41
0.0
 71
     2
 72
     1
  1
\A1;1652
  7
Label Text (ISO)
 11
0.0000000000000001
 21
1.0
 31
0.0
 73
     1
 44
1.0
1001
ACAD
1000
MTEXTBEGIN
1070
    73
1070
     1
1070
    44
1040
1.0
1070
    74
1070
     0
1000
MTEXTEND
  0
POINT
  5
816
330
732
100
AcDbEntity
  8
Defpoints
 62
     0
100
AcDbPoint
 10
23621.58363325562
 20
9495.690149639038
 30
0.0
  0
POINT
  5
817
330
732
100
AcDbEntity
  8
Defpoints
 62
     0
100
AcDbPoint
 10
23726.58363325563
 20
7843.840149638002
 30
0.0
  0
POINT
  5
818
330
732
100
AcDbEntity
  8
Defpoints
 62
     0
100
AcDbPoint
 10
24641.4954984952
 20
7843.840149638002
 30
0.0
  0
ENDBLK
  5
734
330
732
100
AcDbEntity
  8
0
100
AcDbBlockEnd
  0
BLOCK
  5
81B
330
81A
100
AcDbEntity
  8
0
100
AcDbBlockBegin
  2
*D7
 70
     1
 10
0.0
 20
0.0
 30
0.0
  3
*D7
  1

  0
LINE
  5
8F6
330
81A
100
AcDbEntity
  8
Dimension (ISO)
100
AcDbLine
 10
21896.58363325562
 20
10143.8401496386
 30
0.0
 11
21168.28359400203
 21
10143.8401496386
 31
0.0
  0
LINE
  5
8F7
330
81A
100
AcDbEntity
  8
Dimension (ISO)
100
AcDbLine
 10
21238.28359400203
 20
8018.840149638304
 30
0.0
 11
21238.28359400203
 21
9968.840149638607
 31
0.0
  0
SOLID
  5
8F8
330
81A
100
AcDbEntity
  8
Dimension (ISO)
100
AcDbTrace
 10
21209.11692733536
 20
8018.840149638304
 30
0.0
 11
21267.4502606687
 21
8018.840149638304
 31
0.0
 12
21238.28359400203
 22
7843.840149638303
 32
0.0
 13
21238.28359400203
 23
7843.840149638303
 33
0.0
  0
SOLID
  5
8F9
330
81A
100
AcDbEntity
  8
Dimension (ISO)
100
AcDbTrace
 10
21209.11692733537
 20
9968.840149638607
 30
0.0
 11
21267.4502606687
 21
9968.840149638607
 31
0.0
 12
21238.28359400203
 22
10143.8401496386
 32
0.0
 13
21238.28359400203
 23
10143.8401496386
 33
0.0
  0
MTEXT
  5
8FA
330
81A
100
AcDbEntity
  8
Dimension (ISO)
100
AcDbMText
 10
20929.74211814922
 20
8993.840149638456
 30
0.0
 40
245.0
 41
0.0
 71
     2
 72
     1
  1
\A1;2300
  7
Label Text (ISO)
 11
0.0000000000000001
 21
1.0
 31
0.0
 73
     1
 44
1.0
1001
ACAD
1000
MTEXTBEGIN
1070
    73
1070
     1
1070
    44
1040
1.0
1070
    74
1070
     0
1000
MTEXTEND
  0
POINT
  5
8FB
330
81A
100
AcDbEntity
  8
Defpoints
 62
     0
100
AcDbPoint
 10
21489.72846131138
 20
7843.840149638303
 30
0.0
  0
POINT
  5
8FC
330
81A
100
AcDbEntity
  8
Defpoints
 62
     0
100
AcDbPoint
 10
21931.58363325562
 20
10143.8401496386
 30
0.0
  0
POINT
  5
8FD
330
81A
100
AcDbEntity
  8
Defpoints
 62
     0
100
AcDbPoint
 10
21238.28359400203
 20
10143.8401496386
 30
0.0
  0
ENDBLK
  5
81C
330
81A
100
AcDbEntity
  8
0
100
AcDbBlockEnd
  0
BLOCK
  5
900
330
8FF
100
AcDbEntity
  8
0
100
AcDbBlockBegin
  2
*D8
 70
     1
 10
0.0
 20
0.0
 30
0.0
  3
*D8
  1

  0
LINE
  5
9E1
330
8FF
100
AcDbEntity
  8
Dimension (ISO)
100
AcDbLine
 10
23761.58363325563
 20
7843.840149638002
 30
0.0
 11
24711.4954984952
 21
7843.840149638002
 31
0.0
  0
LINE
  5
9E2
330
8FF
100
AcDbEntity
  8
Dimension (ISO)
100
AcDbLine
 10
23810.57858262173
 20
7293.840149638609
 30
0.0
 11
24711.4954984952
 21
7293.840149638609
 31
0.0
  0
LINE
  5
9E3
330
8FF
100
AcDbEntity
  8
Dimension (ISO)
100
AcDbLine
 10
24641.4954984952
 20
7668.840149638002
 30
0.0
 11
24641.4954984952
 21
7468.840149638609
 31
0.0
  0
SOLID
  5
9E4
330
8FF
100
AcDbEntity
  8
Dimension (ISO)
100
AcDbTrace
 10
24612.32883182853
 20
7668.840149638002
 30
0.0
 11
24670.66216516187
 21
7668.840149638002
 31
0.0
 12
24641.4954984952
 22
7843.840149638002
 32
0.0
 13
24641.4954984952
 23
7843.840149638002
 33
0.0
  0
SOLID
  5
9E5
330
8FF
100
AcDbEntity
  8
Dimension (ISO)
100
AcDbTrace
 10
24612.32883182853
 20
7468.840149638609
 30
0.0
 11
24670.66216516187
 21
7468.840149638609
 31
0.0
 12
24641.4954984952
 22
7293.840149638609
 32
0.0
 13
24641.4954984952
 23
7293.840149638609
 33
0.0
  0
MTEXT
  5
9E6
330
8FF
100
AcDbEntity
  8
Dimension (ISO)
100
AcDbMText
 10
24333.11856260103
 20
7568.840149638309
 30
0.0
 40
245.0
 41
0.0
 71
     2
 72
     1
  1
\A1;550
  7
Label Text (ISO)
 11
0.0000000000000001
 21
1.0
 31
0.0
 73
     1
 44
1.0
1001
ACAD
1000
MTEXTBEGIN
1070
    73
1070
     1
1070
    44
1040
1.0
1070
    74
1070
     0
1000
MTEXTEND
  0
POINT
  5
9E7
330
8FF
100
AcDbEntity
  8
Defpoints
 62
     0
100
AcDbPoint
 10
23726.58363325563
 20
7843.840149638002
 30
0.0
  0
POINT
  5
9E8
330
8FF
100
AcDbEntity
  8
Defpoints
 62
     0
100
AcDbPoint
 10
23775.57858262173
 20
7293.840149638609
 30
0.0
  0
POINT
  5
9E9
330
8FF
100
AcDbEntity
  8
Defpoints
 62
     0
100
AcDbPoint
 10
24641.4954984952
 20
7293.840149638609
 30
0.0
  0
ENDBLK
  5
901
330
8FF
100
AcDbEntity
  8
0
100
AcDbBlockEnd
  0
BLOCK
  5
9EC
330
9EB
100
AcDbEntity
  8
0
100
AcDbBlockBegin
  2
*D9
 70
     1
 10
0.0
 20
0.0
 30
0.0
  3
*D9
  1

  0
LINE
  5
AC7
330
9EB
100
AcDbEntity
  8
Dimension (ISO)
100
AcDbLine
 10
21691.58363325562
 20
7138.840149638622
 30
0.0
 11
21168.28359400203
 21
7138.840149638622
 31
0.0
  0
LINE
  5
AC8
330
9EB
100
AcDbEntity
  8
Dimension (ISO)
100
AcDbLine
 10
21238.28359400203
 20
7668.840149638303
 30
0.0
 11
21238.28359400203
 21
7313.840149638622
 31
0.0
  0
SOLID
  5
AC9
330
9EB
100
AcDbEntity
  8
Dimension (ISO)
100
AcDbTrace
 10
21209.11692733536
 20
7668.840149638303
 30
0.0
 11
21267.4502606687
 21
7668.840149638303
 31
0.0
 12
21238.28359400203
 22
7843.840149638303
 32
0.0
 13
21238.28359400203
 23
7843.840149638303
 33
0.0
  0
SOLID
  5
ACA
330
9EB
100
AcDbEntity
  8
Dimension (ISO)
100
AcDbTrace
 10
21209.11692733536
 20
7313.840149638622
 30
0.0
 11
21267.4502606687
 21
7313.840149638622
 31
0.0
 12
21238.28359400203
 22
7138.840149638622
 32
0.0
 13
21238.28359400203
 23
7138.840149638622
 33
0.0
  0
MTEXT
  5
ACB
330
9EB
100
AcDbEntity
  8
Dimension (ISO)
100
AcDbMText
 10
20929.90665810786
 20
7491.340149638462
 30
0.0
 40
245.0
 41
0.0
 71
     2
 72
     1
  1
\A1;705
  7
Label Text (ISO)
 11
0.0000000000000001
 21
1.0
 31
0.0
 73
     1
 44
1.0
1001
ACAD
1000
MTEXTBEGIN
1070
    73
1070
     1
1070
    44
1040
1.0
1070
    74
1070
     0
1000
MTEXTEND
  0
POINT
  5
ACC
330
9EB
100
AcDbEntity
  8
Defpoints
 62
     0
100
AcDbPoint
 10
21109.08363325562
 20
7843.840149638303
 30
0.0
  0
POINT
  5
ACD
330
9EB
100
AcDbEntity
  8
Defpoints
 62
     0
100
AcDbPoint
 10
21726.58363325562
 20
7138.840149638622
 30
0.0
  0
POINT
  5
ACE
330
9EB
100
AcDbEntity
  8
Defpoints
 62
     0
100
AcDbPoint
 10
21238.28359400203
 20
7138.840149638622
 30
0.0
  0
ENDBLK
  5
9ED
330
9EB
100
AcDbEntity
  8
0
100
AcDbBlockEnd
  0
BLOCK
  5
B3C
330
B3B
100
AcDbEntity
  8
0
100
AcDbBlockBegin
  2
88115_Zestaw-drazkow
 70
     0
 10
0.0
 20
0.0
 30
0.0
  3
88115_Zestaw-drazkow
  1

  0
LINE
  5
FF1
330
B3B
100
AcDbEntity
  8
Visible (ISO)
100
AcDbLine
 10
789.2286796564404
 20
0.0
 30
0.0
 11
-789.2286796564367
 21
0.0
 31
0.0
  0
LINE
  5
FF2
330
B3B
100
AcDbEntity
  8
Visible (ISO)
100
AcDbLine
 10
789.2286796564404
 20
33.69999999999982
 30
0.0
 11
-789.2286796564404
 21
33.69999999999982
 31
0.0
  0
LINE
  5
FF3
330
B3B
100
AcDbEntity
  8
Visible (ISO)
100
AcDbLine
 10
-789.2286796564367
 20
-1366.300000000001
 30
0.0
 11
789.2286796564367
 21
-1366.299999999999
 31
0.0
  0
LINE
  5
FF4
330
B3B
100
AcDbEntity
  8
Visible (ISO)
100
AcDbLine
 10
-789.2286796564367
 20
-1400.000000000001
 30
0.0
 11
789.2286796564294
 21
-1399.999999999999
 31
0.0
  0
LINE
  5
FF5
330
B3B
100
AcDbEntity
  8
Visible (ISO)
100
AcDbLine
 10
795.0
 20
44.35000000000036
 30
0.0
 11
795.0
 21
54.34999999999945
 31
0.0
  0
LINE
  5
FF6
330
B3B
100
AcDbEntity
  8
Visible (ISO)
100
AcDbLine
 10
800.0
 20
54.34999999999945
 30
0.0
 11
795.0
 21
54.34999999999945
 31
0.0
  0
LINE
  5
FF7
330
B3B
100
AcDbEntity
  8
Visible (ISO)
100
AcDbLine
 10
795.0
 20
-20.64999999999963
 30
0.0
 11
795.0
 21
-10.64999999999963
 31
0.0
  0
LINE
  5
FF8
330
B3B
100
AcDbEntity
  8
Visible (ISO)
100
AcDbLine
 10
795.0
 20
-20.64999999999963
 30
0.0
 11
800.0
 21
-20.64999999999963
 31
0.0
  0
LINE
  5
FF9
330
B3B
100
AcDbEntity
  8
Visible (ISO)
100
AcDbLine
 10
795.0
 20
44.35000000000036
 30
0.0
 11
795.0
 21
-10.64999999999963
 31
0.0
  0
LINE
  5
FFA
330
B3B
100
AcDbEntity
  8
Visible (ISO)
100
AcDbLine
 10
-795.0
 20
-10.64999999999963
 30
0.0
 11
-795.0
 21
-20.64999999999963
 31
0.0
  0
LINE
  5
FFB
330
B3B
100
AcDbEntity
  8
Visible (ISO)
100
AcDbLine
 10
-800.0
 20
-20.64999999999963
 30
0.0
 11
-795.0
 21
-20.64999999999963
 31
0.0
  0
LINE
  5
FFC
330
B3B
100
AcDbEntity
  8
Visible (ISO)
100
AcDbLine
 10
-795.0
 20
54.34999999999945
 30
0.0
 11
-795.0
 21
44.35000000000036
 31
0.0
  0
LINE
  5
FFD
330
B3B
100
AcDbEntity
  8
Visible (ISO)
100
AcDbLine
 10
-795.0
 20
54.34999999999945
 30
0.0
 11
-800.0
 21
54.34999999999945
 31
0.0
  0
LINE
  5
FFE
330
B3B
100
AcDbEntity
  8
Visible (ISO)
100
AcDbLine
 10
-795.0
 20
-10.64999999999963
 30
0.0
 11
-795.0
 21
44.35000000000036
 31
0.0
  0
LINE
  5
FFF
330
B3B
100
AcDbEntity
  8
Visible (ISO)
100
AcDbLine
 10
822.4999999999999
 20
-38.14999999999873
 30
0.0
 11
812.5
 21
-38.14999999999873
 31
0.0
  0
LINE
  5
1000
330
B3B
100
AcDbEntity
  8
Visible (ISO)
100
AcDbLine
 10
812.5
 20
-33.14999999999782
 30
0.0
 11
812.5
 21
-38.14999999999873
 31
0.0
  0
LINE
  5
1001
330
B3B
100
AcDbEntity
  8
Visible (ISO)
100
AcDbLine
 10
887.4999999999964
 20
-38.14999999999873
 30
0.0
 11
877.4999999999963
 21
-38.14999999999873
 31
0.0
  0
LINE
  5
1002
330
B3B
100
AcDbEntity
  8
Visible (ISO)
100
AcDbLine
 10
887.4999999999964
 20
-38.14999999999873
 30
0.0
 11
887.4999999999964
 21
-33.14999999999782
 31
0.0
  0
LINE
  5
1003
330
B3B
100
AcDbEntity
  8
Visible (ISO)
100
AcDbLine
 10
822.4999999999999
 20
-38.14999999999873
 30
0.0
 11
877.4999999999963
 21
-38.14999999999873
 31
0.0
  0
LINE
  5
1004
330
B3B
100
AcDbEntity
  8
Visible (ISO)
100
AcDbLine
 10
877.4999999999927
 20
-1328.149999999998
 30
0.0
 11
887.4999999999927
 21
-1328.149999999998
 31
0.0
  0
LINE
  5
1005
330
B3B
100
AcDbEntity
  8
Visible (ISO)
100
AcDbLine
 10
887.4999999999927
 20
-1333.149999999999
 30
0.0
 11
887.4999999999927
 21
-1328.149999999998
 31
0.0
  0
LINE
  5
1006
330
B3B
100
AcDbEntity
  8
Visible (ISO)
100
AcDbLine
 10
812.4999999999964
 20
-1328.149999999998
 30
0.0
 11
822.4999999999964
 21
-1328.149999999998
 31
0.0
  0
LINE
  5
1007
330
B3B
100
AcDbEntity
  8
Visible (ISO)
100
AcDbLine
 10
812.4999999999964
 20
-1328.149999999998
 30
0.0
 11
812.4999999999964
 21
-1333.149999999999
 31
0.0
  0
LINE
  5
1008
330
B3B
100
AcDbEntity
  8
Visible (ISO)
100
AcDbLine
 10
877.4999999999927
 20
-1328.149999999998
 30
0.0
 11
822.4999999999964
 21
-1328.149999999998
 31
0.0
  0
LINE
  5
1009
330
B3B
100
AcDbEntity
  8
Visible (ISO)
100
AcDbLine
 10
-795.0
 20
-1410.65
 30
0.0
 11
-795.0
 21
-1420.65
 31
0.0
  0
LINE
  5
100A
330
B3B
100
AcDbEntity
  8
Visible (ISO)
100
AcDbLine
 10
-800.0
 20
-1420.65
 30
0.0
 11
-795.0
 21
-1420.65
 31
0.0
  0
LINE
  5
100B
330
B3B
100
AcDbEntity
  8
Visible (ISO)
100
AcDbLine
 10
-795.0
 20
-1345.650000000001
 30
0.0
 11
-795.0
 21
-1355.650000000001
 31
0.0
  0
LINE
  5
100C
330
B3B
100
AcDbEntity
  8
Visible (ISO)
100
AcDbLine
 10
-795.0
 20
-1345.650000000001
 30
0.0
 11
-800.0
 21
-1345.650000000001
 31
0.0
  0
LINE
  5
100D
330
B3B
100
AcDbEntity
  8
Visible (ISO)
100
AcDbLine
 10
-795.0
 20
-1410.65
 30
0.0
 11
-795.0
 21
-1355.650000000001
 31
0.0
  0
LINE
  5
100E
330
B3B
100
AcDbEntity
  8
Visible (ISO)
100
AcDbLine
 10
794.9999999999963
 20
-1355.65
 30
0.0
 11
794.9999999999963
 21
-1345.65
 31
0.0
  0
LINE
  5
100F
330
B3B
100
AcDbEntity
  8
Visible (ISO)
100
AcDbLine
 10
799.9999999999927
 20
-1345.65
 30
0.0
 11
794.9999999999963
 21
-1345.65
 31
0.0
  0
LINE
  5
1010
330
B3B
100
AcDbEntity
  8
Visible (ISO)
100
AcDbLine
 10
794.9999999999963
 20
-1420.649999999999
 30
0.0
 11
794.9999999999963
 21
-1410.649999999999
 31
0.0
  0
LINE
  5
1011
330
B3B
100
AcDbEntity
  8
Visible (ISO)
100
AcDbLine
 10
794.9999999999963
 20
-1420.649999999999
 30
0.0
 11
799.9999999999927
 21
-1420.649999999999
 31
0.0
  0
LINE
  5
1012
330
B3B
100
AcDbEntity
  8
Visible (ISO)
100
AcDbLine
 10
794.9999999999963
 20
-1355.65
 30
0.0
 11
794.9999999999963
 21
-1410.649999999999
 31
0.0
  0
LINE
  5
1013
330
B3B
100
AcDbEntity
  8
Visible (ISO)
100
AcDbLine
 10
-877.5
 20
-38.14999999999964
 30
0.0
 11
-887.5
 21
-38.14999999999964
 31
0.0
  0
LINE
  5
1014
330
B3B
100
AcDbEntity
  8
Visible (ISO)
100
AcDbLine
 10
-887.5
 20
-33.14999999999873
 30
0.0
 11
-887.5
 21
-38.14999999999964
 31
0.0
  0
LINE
  5
1015
330
B3B
100
AcDbEntity
  8
Visible (ISO)
100
AcDbLine
 10
-812.5
 20
-38.14999999999964
 30
0.0
 11
-822.4999999999999
 21
-38.14999999999964
 31
0.0
  0
LINE
  5
1016
330
B3B
100
AcDbEntity
  8
Visible (ISO)
100
AcDbLine
 10
-812.5
 20
-38.14999999999964
 30
0.0
 11
-812.5
 21
-33.14999999999873
 31
0.0
  0
LINE
  5
1017
330
B3B
100
AcDbEntity
  8
Visible (ISO)
100
AcDbLine
 10
-877.5
 20
-38.14999999999964
 30
0.0
 11
-822.4999999999999
 21
-38.14999999999964
 31
0.0
  0
LINE
  5
1018
330
B3B
100
AcDbEntity
  8
Visible (ISO)
100
AcDbLine
 10
-822.4999999999999
 20
-1328.150000000001
 30
0.0
 11
-812.5
 21
-1328.150000000001
 31
0.0
  0
LINE
  5
1019
330
B3B
100
AcDbEntity
  8
Visible (ISO)
100
AcDbLine
 10
-812.5
 20
-1333.150000000001
 30
0.0
 11
-812.5
 21
-1328.150000000001
 31
0.0
  0
LINE
  5
101A
330
B3B
100
AcDbEntity
  8
Visible (ISO)
100
AcDbLine
 10
-887.5
 20
-1328.150000000001
 30
0.0
 11
-877.5
 21
-1328.150000000001
 31
0.0
  0
LINE
  5
101B
330
B3B
100
AcDbEntity
  8
Visible (ISO)
100
AcDbLine
 10
-887.5
 20
-1328.150000000001
 30
0.0
 11
-887.5
 21
-1333.150000000001
 31
0.0
  0
LINE
  5
101C
330
B3B
100
AcDbEntity
  8
Visible (ISO)
100
AcDbLine
 10
-822.4999999999999
 20
-1328.150000000001
 30
0.0
 11
-877.5
 21
-1328.150000000001
 31
0.0
  0
LINE
  5
101D
330
B3B
100
AcDbEntity
  8
Visible (ISO)
100
AcDbLine
 10
866.8499999999985
 20
-43.92132034355745
 30
0.0
 11
866.849999999995
 21
-1322.378679656434
 31
0.0
  0
LINE
  5
101E
330
B3B
100
AcDbEntity
  8
Visible (ISO)
100
AcDbLine
 10
833.1499999999941
 20
-43.92132034355927
 30
0.0
 11
833.1499999999941
 21
-1322.37867965644
 31
0.0
  0
LINE
  5
101F
330
B3B
100
AcDbEntity
  8
Visible (ISO)
100
AcDbLine
 10
-833.1500000000014
 20
-43.92132034355836
 30
0.0
 11
-833.1500000000014
 21
-1322.378679656442
 31
0.0
  0
LINE
  5
1020
330
B3B
100
AcDbEntity
  8
Visible (ISO)
100
AcDbLine
 10
-866.8499999999985
 20
-43.92132034355745
 30
0.0
 11
-866.8499999999985
 21
-1322.378679656443
 31
0.0
  0
ARC
  5
1021
330
B3B
100
AcDbEntity
  8
Visible (ISO)
100
AcDbCircle
 10
802.9999999999926
 20
-1336.149999999999
 30
0.0
 40
3.000000000000013
100
AcDbArc
 50
90.0
 51
180.0
  0
ARC
  5
1022
330
B3B
100
AcDbEntity
  8
Visible (ISO)
100
AcDbCircle
 10
896.9999999999963
 20
-1336.149999999999
 30
0.0
 40
3.000000000000013
100
AcDbArc
 50
0.0
 51
90.0
  0
LINE
  5
1023
330
B3B
100
AcDbEntity
  8
Visible (ISO)
100
AcDbLine
 10
896.9999999999963
 20
-1333.149999999999
 30
0.0
 11
802.9999999999926
 21
-1333.149999999999
 31
0.0
  0
ARC
  5
1024
330
B3B
100
AcDbEntity
  8
Visible (ISO)
100
AcDbCircle
 10
802.9999999999926
 20
-1430.149999999998
 30
0.0
 40
2.999999999999996
100
AcDbArc
 50
180.0
 51
270.0
  0
ARC
  5
1025
330
B3B
100
AcDbEntity
  8
Visible (ISO)
100
AcDbCircle
 10
896.9999999999963
 20
-1430.149999999998
 30
0.0
 40
3.000000000000013
100
AcDbArc
 50
270.0
 51
0.0
  0
LINE
  5
1026
330
B3B
100
AcDbEntity
  8
Visible (ISO)
100
AcDbLine
 10
899.9999999999964
 20
-1430.149999999998
 30
0.0
 11
899.9999999999964
 21
-1336.149999999999
 31
0.0
  0
LINE
  5
1027
330
B3B
100
AcDbEntity
  8
Visible (ISO)
100
AcDbLine
 10
802.9999999999926
 20
-1433.149999999998
 30
0.0
 11
896.9999999999963
 21
-1433.149999999998
 31
0.0
  0
LINE
  5
1028
330
B3B
100
AcDbEntity
  8
Visible (ISO)
100
AcDbLine
 10
799.9999999999927
 20
-1336.149999999999
 30
0.0
 11
799.9999999999927
 21
-1430.149999999998
 31
0.0
  0
ARC
  5
1029
330
B3B
100
AcDbEntity
  8
Visible (ISO)
100
AcDbCircle
 10
802.9999999999926
 20
63.85000000000037
 30
0.0
 40
3.000000000000007
100
AcDbArc
 50
90.0
 51
180.0
  0
ARC
  5
102A
330
B3B
100
AcDbEntity
  8
Visible (ISO)
100
AcDbCircle
 10
896.9999999999963
 20
63.85000000000037
 30
0.0
 40
3.000000000000007
100
AcDbArc
 50
0.0
 51
90.0
  0
LINE
  5
102B
330
B3B
100
AcDbEntity
  8
Visible (ISO)
100
AcDbLine
 10
896.9999999999963
 20
66.85000000000127
 30
0.0
 11
802.9999999999926
 21
66.85000000000127
 31
0.0
  0
ARC
  5
102C
330
B3B
100
AcDbEntity
  8
Visible (ISO)
100
AcDbCircle
 10
802.9999999999926
 20
-30.14999999999873
 30
0.0
 40
2.99999999999999
100
AcDbArc
 50
180.0
 51
270.0
  0
ARC
  5
102D
330
B3B
100
AcDbEntity
  8
Visible (ISO)
100
AcDbCircle
 10
896.9999999999963
 20
-30.14999999999873
 30
0.0
 40
3.000000000000007
100
AcDbArc
 50
270.0
 51
0.0
  0
LINE
  5
102E
330
B3B
100
AcDbEntity
  8
Visible (ISO)
100
AcDbLine
 10
899.9999999999964
 20
-30.14999999999873
 30
0.0
 11
899.9999999999964
 21
63.85000000000037
 31
0.0
  0
LINE
  5
102F
330
B3B
100
AcDbEntity
  8
Visible (ISO)
100
AcDbLine
 10
802.9999999999926
 20
-33.14999999999873
 30
0.0
 11
896.9999999999963
 21
-33.14999999999873
 31
0.0
  0
LINE
  5
1030
330
B3B
100
AcDbEntity
  8
Visible (ISO)
100
AcDbLine
 10
799.9999999999927
 20
63.85000000000037
 30
0.0
 11
799.9999999999927
 21
-30.14999999999873
 31
0.0
  0
ARC
  5
1031
330
B3B
100
AcDbEntity
  8
Visible (ISO)
100
AcDbCircle
 10
-897.0
 20
-1336.150000000001
 30
0.0
 40
3.000000000000008
100
AcDbArc
 50
90.0
 51
180.0
  0
ARC
  5
1032
330
B3B
100
AcDbEntity
  8
Visible (ISO)
100
AcDbCircle
 10
-803.0
 20
-1336.150000000001
 30
0.0
 40
3.000000000000008
100
AcDbArc
 50
0.0
 51
90.0
  0
LINE
  5
1033
330
B3B
100
AcDbEntity
  8
Visible (ISO)
100
AcDbLine
 10
-803.0
 20
-1333.15
 30
0.0
 11
-897.0
 21
-1333.15
 31
0.0
  0
ARC
  5
1034
330
B3B
100
AcDbEntity
  8
Visible (ISO)
100
AcDbCircle
 10
-897.0
 20
-1430.15
 30
0.0
 40
2.999999999999991
100
AcDbArc
 50
180.0
 51
270.0
  0
ARC
  5
1035
330
B3B
100
AcDbEntity
  8
Visible (ISO)
100
AcDbCircle
 10
-803.0
 20
-1430.15
 30
0.0
 40
3.000000000000008
100
AcDbArc
 50
270.0
 51
0.0
  0
LINE
  5
1036
330
B3B
100
AcDbEntity
  8
Visible (ISO)
100
AcDbLine
 10
-800.0
 20
-1430.15
 30
0.0
 11
-800.0
 21
-1336.150000000001
 31
0.0
  0
LINE
  5
1037
330
B3B
100
AcDbEntity
  8
Visible (ISO)
100
AcDbLine
 10
-897.0
 20
-1433.149999999999
 30
0.0
 11
-803.0
 21
-1433.149999999999
 31
0.0
  0
LINE
  5
1038
330
B3B
100
AcDbEntity
  8
Visible (ISO)
100
AcDbLine
 10
-900.0
 20
-1336.150000000001
 30
0.0
 11
-900.0
 21
-1430.15
 31
0.0
  0
ARC
  5
1039
330
B3B
100
AcDbEntity
  8
Visible (ISO)
100
AcDbCircle
 10
-897.0
 20
63.85000000000037
 30
0.0
 40
3.000000000000007
100
AcDbArc
 50
90.0
 51
180.0
  0
ARC
  5
103A
330
B3B
100
AcDbEntity
  8
Visible (ISO)
100
AcDbCircle
 10
-803.0
 20
63.85000000000037
 30
0.0
 40
3.000000000000007
100
AcDbArc
 50
0.0
 51
90.0
  0
LINE
  5
103B
330
B3B
100
AcDbEntity
  8
Visible (ISO)
100
AcDbLine
 10
-803.0
 20
66.85000000000127
 30
0.0
 11
-897.0
 21
66.85000000000127
 31
0.0
  0
ARC
  5
103C
330
B3B
100
AcDbEntity
  8
Visible (ISO)
100
AcDbCircle
 10
-897.0
 20
-30.14999999999873
 30
0.0
 40
2.999999999999989
100
AcDbArc
 50
180.0
 51
270.0
  0
ARC
  5
103D
330
B3B
100
AcDbEntity
  8
Visible (ISO)
100
AcDbCircle
 10
-803.0
 20
-30.14999999999873
 30
0.0
 40
3.000000000000007
100
AcDbArc
 50
270.0
 51
0.0
  0
LINE
  5
103E
330
B3B
100
AcDbEntity
  8
Visible (ISO)
100
AcDbLine
 10
-800.0
 20
-30.14999999999873
 30
0.0
 11
-800.0
 21
63.85000000000037
 31
0.0
  0
LINE
  5
103F
330
B3B
100
AcDbEntity
  8
Visible (ISO)
100
AcDbLine
 10
-897.0
 20
-33.14999999999873
 30
0.0
 11
-803.0
 21
-33.14999999999873
 31
0.0
  0
LINE
  5
1040
330
B3B
100
AcDbEntity
  8
Visible (ISO)
100
AcDbLine
 10
-900.0
 20
63.85000000000037
 30
0.0
 11
-900.0
 21
-30.14999999999873
 31
0.0
  0
ELLIPSE
  5
1041
330
B3B
100
AcDbEntity
  8
Visible (ISO)
100
AcDbEllipse
 10
795.7621023553293
 20
-8.149999999999636
 30
0.0
 11
15.6750598084983
 21
-0.0000000000000032
 31
0.0
210
0.0
220
0.0
230
1.0
 40
0.5773502691896271
 41
1.619434285796929
 42
1.760908579289812
  0
ELLIPSE
  5
1042
330
B3B
100
AcDbEntity
  8
Visible (ISO)
100
AcDbEllipse
 10
794.2378976446707
 20
-8.149999999999636
 30
0.0
 11
15.67505980849831
 21
-0.0000000000000032
 31
0.0
210
0.0
220
0.0
230
1.0
 40
0.5773502691896267
 41
1.522158367792864
 42
1.662657022136204
  0
LINE
  5
1043
330
B3B
100
AcDbEntity
  8
Visible (ISO)
100
AcDbLine
 10
792.7999999999992
 20
0.7369464128869368
 30
0.0
 11
792.7999999999992
 21
0.8618431404365765
 31
0.0
  0
LINE
  5
1044
330
B3B
100
AcDbEntity
  8
Visible (ISO)
100
AcDbLine
 10
792.7999999999992
 20
-17.19999999999982
 30
0.0
 11
792.7999999999992
 21
0.7369464128869368
 31
0.0
  0
LINE
  5
1045
330
B3B
100
AcDbEntity
  8
Visible (ISO)
100
AcDbLine
 10
792.7999999999992
 20
0.8618431404365765
 30
0.0
 11
792.7999999999992
 21
0.9000000000005456
 31
0.0
  0
LINE
  5
1046
330
B3B
100
AcDbEntity
  8
Visible (ISO)
100
AcDbLine
 10
795.0
 20
-17.19999999999982
 30
0.0
 11
792.7999999999992
 21
-17.19999999999982
 31
0.0
  0
LINE
  5
1047
330
B3B
100
AcDbEntity
  8
Visible (ISO)
100
AcDbLine
 10
794.2378976446707
 20
0.9000000000005456
 30
0.0
 11
792.7999999999992
 21
0.9000000000005456
 31
0.0
  0
ELLIPSE
  5
1048
330
B3B
100
AcDbEntity
  8
Visible (ISO)
100
AcDbEllipse
 10
795.7621023553293
 20
41.84999999999945
 30
0.0
 11
15.67505980849829
 21
-0.0000000000000015
 31
0.0
210
0.0
220
0.0
230
1.0
 40
0.5773502691896272
 41
1.619434285796928
 42
1.760908579289812
  0
ELLIPSE
  5
1049
330
B3B
100
AcDbEntity
  8
Visible (ISO)
100
AcDbEllipse
 10
794.2378976446707
 20
41.84999999999945
 30
0.0
 11
15.67505980849831
 21
-0.0000000000000015
 31
0.0
210
0.0
220
0.0
230
1.0
 40
0.5773502691896267
 41
1.522158367792864
 42
1.662657022136204
  0
LINE
  5
104A
330
B3B
100
AcDbEntity
  8
Visible (ISO)
100
AcDbLine
 10
792.8000000000029
 20
50.73694641288603
 30
0.0
 11
792.8000000000029
 21
50.86184314043567
 31
0.0
  0
LINE
  5
104B
330
B3B
100
AcDbEntity
  8
Visible (ISO)
100
AcDbLine
 10
792.8000000000029
 20
32.79999999999927
 30
0.0
 11
792.8000000000029
 21
50.73694641288603
 31
0.0
  0
LINE
  5
104C
330
B3B
100
AcDbEntity
  8
Visible (ISO)
100
AcDbLine
 10
792.8000000000029
 20
50.86184314043567
 30
0.0
 11
792.8000000000029
 21
50.89999999999964
 31
0.0
  0
LINE
  5
104D
330
B3B
100
AcDbEntity
  8
Visible (ISO)
100
AcDbLine
 10
795.0
 20
32.79999999999927
 30
0.0
 11
792.8000000000029
 21
32.79999999999927
 31
0.0
  0
LINE
  5
104E
330
B3B
100
AcDbEntity
  8
Visible (ISO)
100
AcDbLine
 10
794.2378976446707
 20
50.89999999999964
 30
0.0
 11
792.8000000000029
 21
50.89999999999964
 31
0.0
  0
ELLIPSE
  5
104F
330
B3B
100
AcDbEntity
  8
Visible (ISO)
100
AcDbEllipse
 10
-795.7621023553293
 20
41.85000000000036
 30
0.0
 11
-15.67505980849832
 21
-0.0000000000000012
 31
0.0
210
0.0
220
0.0
230
1.0
 40
0.5773502691896273
 41
1.619434285796985
 42
1.760908579289868
  0
ELLIPSE
  5
1050
330
B3B
100
AcDbEntity
  8
Visible (ISO)
100
AcDbEllipse
 10
-794.237897644667
 20
41.85000000000036
 30
0.0
 11
-15.67505980849834
 21
-0.0000000000000012
 31
0.0
210
0.0
220
0.0
230
1.0
 40
0.5773502691896269
 41
1.522158367792808
 42
1.662657022136261
  0
LINE
  5
1051
330
B3B
100
AcDbEntity
  8
Visible (ISO)
100
AcDbLine
 10
-792.7999999999992
 20
32.9630535871147
 30
0.0
 11
-792.7999999999992
 21
32.83815685956506
 31
0.0
  0
LINE
  5
1052
330
B3B
100
AcDbEntity
  8
Visible (ISO)
100
AcDbLine
 10
-792.7999999999992
 20
50.90000000000054
 30
0.0
 11
-792.7999999999992
 21
32.9630535871147
 31
0.0
  0
LINE
  5
1053
330
B3B
100
AcDbEntity
  8
Visible (ISO)
100
AcDbLine
 10
-792.7999999999992
 20
32.83815685956506
 30
0.0
 11
-792.7999999999992
 21
32.80000000000018
 31
0.0
  0
LINE
  5
1054
330
B3B
100
AcDbEntity
  8
Visible (ISO)
100
AcDbLine
 10
-795.0
 20
50.90000000000054
 30
0.0
 11
-792.7999999999992
 21
50.90000000000054
 31
0.0
  0
LINE
  5
1055
330
B3B
100
AcDbEntity
  8
Visible (ISO)
100
AcDbLine
 10
-794.237897644667
 20
32.80000000000018
 30
0.0
 11
-792.7999999999992
 21
32.80000000000018
 31
0.0
  0
ELLIPSE
  5
1056
330
B3B
100
AcDbEntity
  8
Visible (ISO)
100
AcDbEllipse
 10
-795.7621023553293
 20
-8.149999999999636
 30
0.0
 11
-15.67505980849832
 21
-0.0000000000000014
 31
0.0
210
0.0
220
0.0
230
1.0
 40
0.5773502691896273
 41
1.619434285796985
 42
1.760908579289868
  0
ELLIPSE
  5
1057
330
B3B
100
AcDbEntity
  8
Visible (ISO)
100
AcDbEllipse
 10
-794.237897644667
 20
-8.149999999999636
 30
0.0
 11
-15.67505980849834
 21
-0.0000000000000014
 31
0.0
210
0.0
220
0.0
230
1.0
 40
0.5773502691896269
 41
1.522158367792808
 42
1.662657022136261
  0
LINE
  5
1058
330
B3B
100
AcDbEntity
  8
Visible (ISO)
100
AcDbLine
 10
-792.7999999999992
 20
-17.0369464128853
 30
0.0
 11
-792.7999999999992
 21
-17.16184314043494
 31
0.0
  0
LINE
  5
1059
330
B3B
100
AcDbEntity
  8
Visible (ISO)
100
AcDbLine
 10
-792.7999999999992
 20
0.9000000000005456
 30
0.0
 11
-792.7999999999992
 21
-17.0369464128853
 31
0.0
  0
LINE
  5
105A
330
B3B
100
AcDbEntity
  8
Visible (ISO)
100
AcDbLine
 10
-792.7999999999992
 20
-17.16184314043494
 30
0.0
 11
-792.7999999999992
 21
-17.19999999999982
 31
0.0
  0
LINE
  5
105B
330
B3B
100
AcDbEntity
  8
Visible (ISO)
100
AcDbLine
 10
-795.0
 20
0.9000000000005456
 30
0.0
 11
-792.7999999999992
 21
0.9000000000005456
 31
0.0
  0
LINE
  5
105C
330
B3B
100
AcDbEntity
  8
Visible (ISO)
100
AcDbLine
 10
-794.237897644667
 20
-17.19999999999982
 30
0.0
 11
-792.7999999999992
 21
-17.19999999999982
 31
0.0
  0
ELLIPSE
  5
105D
330
B3B
100
AcDbEntity
  8
Visible (ISO)
100
AcDbEllipse
 10
874.9999999999927
 20
-1328.912102355326
 30
0.0
 11
0.0000000000000004
 21
-15.67505980849831
 31
0.0
210
0.0
220
0.0
230
1.0
 40
0.5773502691896272
 41
1.619434285796985
 42
1.760908579289868
  0
ELLIPSE
  5
105E
330
B3B
100
AcDbEntity
  8
Visible (ISO)
100
AcDbEllipse
 10
874.9999999999927
 20
-1327.387897644666
 30
0.0
 11
0.0000000000000004
 21
-15.67505980849832
 31
0.0
210
0.0
220
0.0
230
1.0
 40
0.5773502691896267
 41
1.522158367792808
 42
1.662657022136269
  0
LINE
  5
105F
330
B3B
100
AcDbEntity
  8
Visible (ISO)
100
AcDbLine
 10
883.8869464128801
 20
-1325.949999999996
 30
0.0
 11
884.0118431404262
 21
-1325.949999999996
 31
0.0
  0
LINE
  5
1060
330
B3B
100
AcDbEntity
  8
Visible (ISO)
100
AcDbLine
 10
865.9499999999935
 20
-1325.949999999996
 30
0.0
 11
883.8869464128801
 21
-1325.949999999996
 31
0.0
  0
LINE
  5
1061
330
B3B
100
AcDbEntity
  8
Visible (ISO)
100
AcDbLine
 10
884.0118431404299
 20
-1325.949999999996
 30
0.0
 11
884.0499999999956
 21
-1325.949999999996
 31
0.0
  0
LINE
  5
1062
330
B3B
100
AcDbEntity
  8
Visible (ISO)
100
AcDbLine
 10
865.9499999999935
 20
-1328.149999999996
 30
0.0
 11
865.9499999999935
 21
-1325.949999999996
 31
0.0
  0
LINE
  5
1063
330
B3B
100
AcDbEntity
  8
Visible (ISO)
100
AcDbLine
 10
884.0499999999956
 20
-1327.387897644666
 30
0.0
 11
884.0499999999956
 21
-1325.949999999996
 31
0.0
  0
ELLIPSE
  5
1064
330
B3B
100
AcDbEntity
  8
Visible (ISO)
100
AcDbEllipse
 10
824.9999999999927
 20
-1328.912102355328
 30
0.0
 11
0.0000000000000003
 21
-15.67505980849831
 31
0.0
210
0.0
220
0.0
230
1.0
 40
0.5773502691896272
 41
1.619434285796985
 42
1.760908579289868
  0
ELLIPSE
  5
1065
330
B3B
100
AcDbEntity
  8
Visible (ISO)
100
AcDbEllipse
 10
824.9999999999927
 20
-1327.387897644668
 30
0.0
 11
0.0000000000000003
 21
-15.67505980849832
 31
0.0
210
0.0
220
0.0
230
1.0
 40
0.5773502691896267
 41
1.522158367792808
 42
1.662657022136269
  0
LINE
  5
1066
330
B3B
100
AcDbEntity
  8
Visible (ISO)
100
AcDbLine
 10
833.8869464128801
 20
-1325.949999999998
 30
0.0
 11
834.0118431404299
 21
-1325.949999999998
 31
0.0
  0
LINE
  5
1067
330
B3B
100
AcDbEntity
  8
Visible (ISO)
100
AcDbLine
 10
815.9499999999971
 20
-1325.949999999998
 30
0.0
 11
833.8869464128801
 21
-1325.949999999998
 31
0.0
  0
LINE
  5
1068
330
B3B
100
AcDbEntity
  8
Visible (ISO)
100
AcDbLine
 10
834.0118431404334
 20
-1325.949999999998
 30
0.0
 11
834.0499999999956
 21
-1325.949999999998
 31
0.0
  0
LINE
  5
1069
330
B3B
100
AcDbEntity
  8
Visible (ISO)
100
AcDbLine
 10
815.9499999999971
 20
-1328.149999999998
 30
0.0
 11
815.9499999999971
 21
-1325.949999999998
 31
0.0
  0
LINE
  5
106A
330
B3B
100
AcDbEntity
  8
Visible (ISO)
100
AcDbLine
 10
834.0499999999956
 20
-1327.387897644668
 30
0.0
 11
834.0499999999956
 21
-1325.949999999998
 31
0.0
  0
ELLIPSE
  5
106B
330
B3B
100
AcDbEntity
  8
Visible (ISO)
100
AcDbEllipse
 10
824.9999999999964
 20
-37.38789764466856
 30
0.0
 11
-0.0000000000000032
 21
15.67505980849831
 31
0.0
210
0.0
220
0.0
230
1.0
 40
0.5773502691896272
 41
1.619434285796985
 42
1.760908579289868
  0
ELLIPSE
  5
106C
330
B3B
100
AcDbEntity
  8
Visible (ISO)
100
AcDbEllipse
 10
824.9999999999964
 20
-38.9121023553289
 30
0.0
 11
-0.0000000000000032
 21
15.67505980849832
 31
0.0
210
0.0
220
0.0
230
1.0
 40
0.5773502691896267
 41
1.522158367792808
 42
1.662657022136269
  0
LINE
  5
106D
330
B3B
100
AcDbEntity
  8
Visible (ISO)
100
AcDbLine
 10
816.1130535871125
 20
-40.34999999999854
 30
0.0
 11
815.9881568595592
 21
-40.34999999999854
 31
0.0
  0
LINE
  5
106E
330
B3B
100
AcDbEntity
  8
Visible (ISO)
100
AcDbLine
 10
834.0499999999956
 20
-40.34999999999854
 30
0.0
 11
816.1130535871125
 21
-40.34999999999854
 31
0.0
  0
LINE
  5
106F
330
B3B
100
AcDbEntity
  8
Visible (ISO)
100
AcDbLine
 10
815.9881568595592
 20
-40.34999999999854
 30
0.0
 11
815.9499999999971
 21
-40.34999999999854
 31
0.0
  0
LINE
  5
1070
330
B3B
100
AcDbEntity
  8
Visible (ISO)
100
AcDbLine
 10
834.0499999999956
 20
-38.14999999999873
 30
0.0
 11
834.0499999999956
 21
-40.34999999999854
 31
0.0
  0
LINE
  5
1071
330
B3B
100
AcDbEntity
  8
Visible (ISO)
100
AcDbLine
 10
815.9499999999971
 20
-38.9121023553289
 30
0.0
 11
815.9499999999971
 21
-40.34999999999854
 31
0.0
  0
ELLIPSE
  5
1072
330
B3B
100
AcDbEntity
  8
Visible (ISO)
100
AcDbEllipse
 10
874.9999999999964
 20
-37.38789764466856
 30
0.0
 11
-0.000000000000003
 21
15.67505980849831
 31
0.0
210
0.0
220
0.0
230
1.0
 40
0.5773502691896272
 41
1.619434285796985
 42
1.760908579289868
  0
ELLIPSE
  5
1073
330
B3B
100
AcDbEntity
  8
Visible (ISO)
100
AcDbEllipse
 10
874.9999999999964
 20
-38.9121023553289
 30
0.0
 11
-0.000000000000003
 21
15.67505980849832
 31
0.0
210
0.0
220
0.0
230
1.0
 40
0.5773502691896267
 41
1.522158367792808
 42
1.662657022136269
  0
LINE
  5
1074
330
B3B
100
AcDbEntity
  8
Visible (ISO)
100
AcDbLine
 10
866.1130535871089
 20
-40.34999999999854
 30
0.0
 11
865.9881568595592
 21
-40.34999999999854
 31
0.0
  0
LINE
  5
1075
330
B3B
100
AcDbEntity
  8
Visible (ISO)
100
AcDbLine
 10
884.0499999999956
 20
-40.34999999999854
 30
0.0
 11
866.1130535871089
 21
-40.34999999999854
 31
0.0
  0
LINE
  5
1076
330
B3B
100
AcDbEntity
  8
Visible (ISO)
100
AcDbLine
 10
865.9881568595592
 20
-40.34999999999854
 30
0.0
 11
865.9499999999971
 21
-40.34999999999854
 31
0.0
  0
LINE
  5
1077
330
B3B
100
AcDbEntity
  8
Visible (ISO)
100
AcDbLine
 10
884.0499999999956
 20
-38.14999999999873
 30
0.0
 11
884.0499999999956
 21
-40.34999999999854
 31
0.0
  0
LINE
  5
1078
330
B3B
100
AcDbEntity
  8
Visible (ISO)
100
AcDbLine
 10
865.9499999999971
 20
-38.9121023553289
 30
0.0
 11
865.9499999999971
 21
-40.34999999999854
 31
0.0
  0
ELLIPSE
  5
1079
330
B3B
100
AcDbEntity
  8
Visible (ISO)
100
AcDbEllipse
 10
-795.7621023553293
 20
-1358.149999999999
 30
0.0
 11
-15.67505980849829
 21
0.0000000000000025
 31
0.0
210
0.0
220
0.0
230
1.0
 40
0.5773502691896275
 41
1.619434285796985
 42
1.760908579289868
  0
ELLIPSE
  5
107A
330
B3B
100
AcDbEntity
  8
Visible (ISO)
100
AcDbEllipse
 10
-794.2378976446707
 20
-1358.149999999999
 30
0.0
 11
-15.67505980849832
 21
0.0000000000000025
 31
0.0
210
0.0
220
0.0
230
1.0
 40
0.5773502691896267
 41
1.522158367792808
 42
1.662657022136261
  0
LINE
  5
107B
330
B3B
100
AcDbEntity
  8
Visible (ISO)
100
AcDbLine
 10
-792.7999999999992
 20
-1367.036946412886
 30
0.0
 11
-792.7999999999992
 21
-1367.161843140436
 31
0.0
  0
LINE
  5
107C
330
B3B
100
AcDbEntity
  8
Visible (ISO)
100
AcDbLine
 10
-792.7999999999992
 20
-1349.099999999999
 30
0.0
 11
-792.7999999999992
 21
-1367.036946412886
 31
0.0
  0
LINE
  5
107D
330
B3B
100
AcDbEntity
  8
Visible (ISO)
100
AcDbLine
 10
-792.7999999999992
 20
-1367.161843140436
 30
0.0
 11
-792.7999999999992
 21
-1367.2
 31
0.0
  0
LINE
  5
107E
330
B3B
100
AcDbEntity
  8
Visible (ISO)
100
AcDbLine
 10
-795.0
 20
-1349.099999999999
 30
0.0
 11
-792.7999999999992
 21
-1349.099999999999
 31
0.0
  0
LINE
  5
107F
330
B3B
100
AcDbEntity
  8
Visible (ISO)
100
AcDbLine
 10
-794.2378976446707
 20
-1367.2
 30
0.0
 11
-792.7999999999992
 21
-1367.2
 31
0.0
  0
ELLIPSE
  5
1080
330
B3B
100
AcDbEntity
  8
Visible (ISO)
100
AcDbEllipse
 10
-795.7621023553293
 20
-1408.15
 30
0.0
 11
-15.67505980849829
 21
0.0000000000000022
 31
0.0
210
0.0
220
0.0
230
1.0
 40
0.5773502691896275
 41
1.619434285796985
 42
1.760908579289868
  0
ELLIPSE
  5
1081
330
B3B
100
AcDbEntity
  8
Visible (ISO)
100
AcDbEllipse
 10
-794.2378976446707
 20
-1408.15
 30
0.0
 11
-15.67505980849832
 21
0.0000000000000022
 31
0.0
210
0.0
220
0.0
230
1.0
 40
0.5773502691896267
 41
1.522158367792808
 42
1.662657022136261
  0
LINE
  5
1082
330
B3B
100
AcDbEntity
  8
Visible (ISO)
100
AcDbLine
 10
-792.7999999999992
 20
-1417.036946412886
 30
0.0
 11
-792.7999999999992
 21
-1417.161843140435
 31
0.0
  0
LINE
  5
1083
330
B3B
100
AcDbEntity
  8
Visible (ISO)
100
AcDbLine
 10
-792.7999999999992
 20
-1399.099999999999
 30
0.0
 11
-792.7999999999992
 21
-1417.036946412886
 31
0.0
  0
LINE
  5
1084
330
B3B
100
AcDbEntity
  8
Visible (ISO)
100
AcDbLine
 10
-792.7999999999992
 20
-1417.161843140435
 30
0.0
 11
-792.7999999999992
 21
-1417.2
 31
0.0
  0
LINE
  5
1085
330
B3B
100
AcDbEntity
  8
Visible (ISO)
100
AcDbLine
 10
-795.0
 20
-1399.099999999999
 30
0.0
 11
-792.7999999999992
 21
-1399.099999999999
 31
0.0
  0
LINE
  5
1086
330
B3B
100
AcDbEntity
  8
Visible (ISO)
100
AcDbLine
 10
-794.2378976446707
 20
-1417.2
 30
0.0
 11
-792.7999999999992
 21
-1417.2
 31
0.0
  0
ELLIPSE
  5
1087
330
B3B
100
AcDbEntity
  8
Visible (ISO)
100
AcDbEllipse
 10
795.7621023553256
 20
-1408.149999999999
 30
0.0
 11
15.67505980849833
 21
-0.0000000000000122
 31
0.0
210
0.0
220
0.0
230
1.0
 40
0.577350269189627
 41
1.619434285796929
 42
1.760908579289812
  0
ELLIPSE
  5
1088
330
B3B
100
AcDbEntity
  8
Visible (ISO)
100
AcDbEllipse
 10
794.237897644667
 20
-1408.149999999999
 30
0.0
 11
15.67505980849834
 21
-0.0000000000000122
 31
0.0
210
0.0
220
0.0
230
1.0
 40
0.5773502691896267
 41
1.522158367792865
 42
1.662657022136205
  0
LINE
  5
1089
330
B3B
100
AcDbEntity
  8
Visible (ISO)
100
AcDbLine
 10
792.7999999999956
 20
-1399.263053587112
 30
0.0
 11
792.7999999999956
 21
-1399.138156859563
 31
0.0
  0
LINE
  5
108A
330
B3B
100
AcDbEntity
  8
Visible (ISO)
100
AcDbLine
 10
792.7999999999956
 20
-1417.199999999999
 30
0.0
 11
792.7999999999956
 21
-1399.263053587112
 31
0.0
  0
LINE
  5
108B
330
B3B
100
AcDbEntity
  8
Visible (ISO)
100
AcDbLine
 10
792.7999999999956
 20
-1399.138156859563
 30
0.0
 11
792.7999999999956
 21
-1399.099999999998
 31
0.0
  0
LINE
  5
108C
330
B3B
100
AcDbEntity
  8
Visible (ISO)
100
AcDbLine
 10
794.9999999999963
 20
-1417.199999999999
 30
0.0
 11
792.7999999999956
 21
-1417.199999999999
 31
0.0
  0
LINE
  5
108D
330
B3B
100
AcDbEntity
  8
Visible (ISO)
100
AcDbLine
 10
794.237897644667
 20
-1399.099999999998
 30
0.0
 11
792.7999999999956
 21
-1399.099999999998
 31
0.0
  0
ELLIPSE
  5
108E
330
B3B
100
AcDbEntity
  8
Visible (ISO)
100
AcDbEllipse
 10
795.7621023553256
 20
-1358.149999999999
 30
0.0
 11
15.67505980849833
 21
-0.0000000000000142
 31
0.0
210
0.0
220
0.0
230
1.0
 40
0.577350269189627
 41
1.619434285796929
 42
1.760908579289812
  0
ELLIPSE
  5
108F
330
B3B
100
AcDbEntity
  8
Visible (ISO)
100
AcDbEllipse
 10
794.237897644667
 20
-1358.149999999999
 30
0.0
 11
15.67505980849835
 21
-0.0000000000000142
 31
0.0
210
0.0
220
0.0
230
1.0
 40
0.5773502691896267
 41
1.522158367792865
 42
1.662657022136205
  0
LINE
  5
1090
330
B3B
100
AcDbEntity
  8
Visible (ISO)
100
AcDbLine
 10
792.7999999999956
 20
-1349.263053587113
 30
0.0
 11
792.7999999999956
 21
-1349.138156859563
 31
0.0
  0
LINE
  5
1091
330
B3B
100
AcDbEntity
  8
Visible (ISO)
100
AcDbLine
 10
792.7999999999956
 20
-1367.199999999999
 30
0.0
 11
792.7999999999956
 21
-1349.263053587113
 31
0.0
  0
LINE
  5
1092
330
B3B
100
AcDbEntity
  8
Visible (ISO)
100
AcDbLine
 10
792.7999999999956
 20
-1349.138156859563
 30
0.0
 11
792.7999999999956
 21
-1349.099999999998
 31
0.0
  0
LINE
  5
1093
330
B3B
100
AcDbEntity
  8
Visible (ISO)
100
AcDbLine
 10
794.9999999999963
 20
-1367.199999999999
 30
0.0
 11
792.7999999999956
 21
-1367.199999999999
 31
0.0
  0
LINE
  5
1094
330
B3B
100
AcDbEntity
  8
Visible (ISO)
100
AcDbLine
 10
794.2378976446634
 20
-1349.099999999998
 30
0.0
 11
792.7999999999956
 21
-1349.099999999998
 31
0.0
  0
ELLIPSE
  5
1095
330
B3B
100
AcDbEntity
  8
Visible (ISO)
100
AcDbEllipse
 10
-825.0
 20
-1328.91210235533
 30
0.0
 11
0.0000000000000029
 21
-15.6750598084983
 31
0.0
210
0.0
220
0.0
230
1.0
 40
0.5773502691896275
 41
1.619434285796985
 42
1.760908579289868
  0
ELLIPSE
  5
1096
330
B3B
100
AcDbEntity
  8
Visible (ISO)
100
AcDbEllipse
 10
-825.0
 20
-1327.38789764467
 30
0.0
 11
0.0000000000000029
 21
-15.67505980849832
 31
0.0
210
0.0
220
0.0
230
1.0
 40
0.5773502691896267
 41
1.522158367792808
 42
1.66265702213626
  0
LINE
  5
1097
330
B3B
100
AcDbEntity
  8
Visible (ISO)
100
AcDbLine
 10
-816.1130535871125
 20
-1325.950000000001
 30
0.0
 11
-815.9881568595629
 21
-1325.950000000001
 31
0.0
  0
LINE
  5
1098
330
B3B
100
AcDbEntity
  8
Visible (ISO)
100
AcDbLine
 10
-834.0499999999993
 20
-1325.950000000001
 30
0.0
 11
-816.1130535871125
 21
-1325.950000000001
 31
0.0
  0
LINE
  5
1099
330
B3B
100
AcDbEntity
  8
Visible (ISO)
100
AcDbLine
 10
-815.9881568595629
 20
-1325.950000000001
 30
0.0
 11
-815.9499999999971
 21
-1325.950000000001
 31
0.0
  0
LINE
  5
109A
330
B3B
100
AcDbEntity
  8
Visible (ISO)
100
AcDbLine
 10
-834.0499999999993
 20
-1328.150000000001
 30
0.0
 11
-834.0499999999993
 21
-1325.950000000001
 31
0.0
  0
LINE
  5
109B
330
B3B
100
AcDbEntity
  8
Visible (ISO)
100
AcDbLine
 10
-815.9499999999971
 20
-1327.38789764467
 30
0.0
 11
-815.9499999999971
 21
-1325.950000000001
 31
0.0
  0
ELLIPSE
  5
109C
330
B3B
100
AcDbEntity
  8
Visible (ISO)
100
AcDbEllipse
 10
-875.0
 20
-1328.912102355332
 30
0.0
 11
0.0000000000000031
 21
-15.6750598084983
 31
0.0
210
0.0
220
0.0
230
1.0
 40
0.5773502691896275
 41
1.619434285796985
 42
1.760908579289868
  0
ELLIPSE
  5
109D
330
B3B
100
AcDbEntity
  8
Visible (ISO)
100
AcDbEllipse
 10
-875.0
 20
-1327.387897644671
 30
0.0
 11
0.0000000000000031
 21
-15.67505980849832
 31
0.0
210
0.0
220
0.0
230
1.0
 40
0.5773502691896267
 41
1.522158367792808
 42
1.66265702213626
  0
LINE
  5
109E
330
B3B
100
AcDbEntity
  8
Visible (ISO)
100
AcDbLine
 10
-866.1130535871125
 20
-1325.950000000001
 30
0.0
 11
-865.9881568595629
 21
-1325.950000000001
 31
0.0
  0
LINE
  5
109F
330
B3B
100
AcDbEntity
  8
Visible (ISO)
100
AcDbLine
 10
-884.0499999999993
 20
-1325.950000000001
 30
0.0
 11
-866.1130535871125
 21
-1325.950000000001
 31
0.0
  0
LINE
  5
10A0
330
B3B
100
AcDbEntity
  8
Visible (ISO)
100
AcDbLine
 10
-865.9881568595629
 20
-1325.950000000001
 30
0.0
 11
-865.9500000000006
 21
-1325.950000000001
 31
0.0
  0
LINE
  5
10A1
330
B3B
100
AcDbEntity
  8
Visible (ISO)
100
AcDbLine
 10
-884.0499999999993
 20
-1328.150000000001
 30
0.0
 11
-884.0499999999993
 21
-1325.950000000001
 31
0.0
  0
LINE
  5
10A2
330
B3B
100
AcDbEntity
  8
Visible (ISO)
100
AcDbLine
 10
-865.9500000000006
 20
-1327.387897644671
 30
0.0
 11
-865.9500000000006
 21
-1325.950000000001
 31
0.0
  0
ELLIPSE
  5
10A3
330
B3B
100
AcDbEntity
  8
Visible (ISO)
100
AcDbEllipse
 10
-875.0
 20
-37.38789764466856
 30
0.0
 11
-0.0000000000000101
 21
15.67505980849831
 31
0.0
210
0.0
220
0.0
230
1.0
 40
0.5773502691896271
 41
1.619434285796984
 42
1.760908579289867
  0
ELLIPSE
  5
10A4
330
B3B
100
AcDbEntity
  8
Visible (ISO)
100
AcDbEllipse
 10
-875.0
 20
-38.9121023553289
 30
0.0
 11
-0.0000000000000101
 21
15.67505980849832
 31
0.0
210
0.0
220
0.0
230
1.0
 40
0.5773502691896264
 41
1.522158367792808
 42
1.66265702213626
  0
LINE
  5
10A5
330
B3B
100
AcDbEntity
  8
Visible (ISO)
100
AcDbLine
 10
-883.8869464128839
 20
-40.34999999999854
 30
0.0
 11
-884.0118431404334
 21
-40.34999999999854
 31
0.0
  0
LINE
  5
10A6
330
B3B
100
AcDbEntity
  8
Visible (ISO)
100
AcDbLine
 10
-865.9499999999971
 20
-40.34999999999854
 30
0.0
 11
-883.8869464128839
 21
-40.34999999999854
 31
0.0
  0
LINE
  5
10A7
330
B3B
100
AcDbEntity
  8
Visible (ISO)
100
AcDbLine
 10
-884.0118431404334
 20
-40.34999999999854
 30
0.0
 11
-884.0499999999993
 21
-40.34999999999854
 31
0.0
  0
LINE
  5
10A8
330
B3B
100
AcDbEntity
  8
Visible (ISO)
100
AcDbLine
 10
-865.9499999999971
 20
-38.14999999999873
 30
0.0
 11
-865.9499999999971
 21
-40.34999999999854
 31
0.0
  0
LINE
  5
10A9
330
B3B
100
AcDbEntity
  8
Visible (ISO)
100
AcDbLine
 10
-884.0499999999993
 20
-38.9121023553289
 30
0.0
 11
-884.0499999999993
 21
-40.34999999999854
 31
0.0
  0
ELLIPSE
  5
10AA
330
B3B
100
AcDbEntity
  8
Visible (ISO)
100
AcDbEllipse
 10
-825.0
 20
-37.38789764466856
 30
0.0
 11
-0.0000000000000095
 21
15.6750598084983
 31
0.0
210
0.0
220
0.0
230
1.0
 40
0.5773502691896271
 41
1.619434285796984
 42
1.760908579289867
  0
ELLIPSE
  5
10AB
330
B3B
100
AcDbEntity
  8
Visible (ISO)
100
AcDbEllipse
 10
-825.0
 20
-38.9121023553289
 30
0.0
 11
-0.0000000000000095
 21
15.67505980849831
 31
0.0
210
0.0
220
0.0
230
1.0
 40
0.5773502691896267
 41
1.522158367792808
 42
1.66265702213626
  0
LINE
  5
10AC
330
B3B
100
AcDbEntity
  8
Visible (ISO)
100
AcDbLine
 10
-833.8869464128874
 20
-40.34999999999854
 30
0.0
 11
-834.0118431404334
 21
-40.34999999999854
 31
0.0
  0
LINE
  5
10AD
330
B3B
100
AcDbEntity
  8
Visible (ISO)
100
AcDbLine
 10
-815.9499999999971
 20
-40.34999999999854
 30
0.0
 11
-833.8869464128874
 21
-40.34999999999854
 31
0.0
  0
LINE
  5
10AE
330
B3B
100
AcDbEntity
  8
Visible (ISO)
100
AcDbLine
 10
-834.0118431404334
 20
-40.34999999999854
 30
0.0
 11
-834.0499999999993
 21
-40.34999999999854
 31
0.0
  0
LINE
  5
10AF
330
B3B
100
AcDbEntity
  8
Visible (ISO)
100
AcDbLine
 10
-815.9499999999971
 20
-38.14999999999873
 30
0.0
 11
-815.9499999999971
 21
-40.34999999999854
 31
0.0
  0
LINE
  5
10B0
330
B3B
100
AcDbEntity
  8
Visible (ISO)
100
AcDbLine
 10
-834.0499999999993
 20
-38.9121023553289
 30
0.0
 11
-834.0499999999993
 21
-40.34999999999854
 31
0.0
  0
LINE
  5
10B1
330
B3B
100
AcDbEntity
  8
Visible (ISO)
100
AcDbLine
 10
787.2999999999993
 20
-12.84999999999945
 30
0.0
 11
787.2999999999993
 21
-3.449999999999818
 31
0.0
  0
ARC
  5
10B2
330
B3B
100
AcDbEntity
  8
Visible (ISO)
100
AcDbCircle
 10
791.3499999999985
 20
-12.84999999999945
 30
0.0
 40
4.049999999999998
100
AcDbArc
 50
180.0
 51
270.0
  0
ARC
  5
10B3
330
B3B
100
AcDbEntity
  8
Visible (ISO)
100
AcDbCircle
 10
791.3499999999985
 20
-3.449999999999818
 30
0.0
 40
4.049999999999998
100
AcDbArc
 50
90.0
 51
180.0
  0
LINE
  5
10B4
330
B3B
100
AcDbEntity
  8
Visible (ISO)
100
AcDbLine
 10
791.3499999999985
 20
0.6000000000003638
 30
0.0
 11
792.7999999999992
 21
0.6000000000003638
 31
0.0
  0
LINE
  5
10B5
330
B3B
100
AcDbEntity
  8
Visible (ISO)
100
AcDbLine
 10
791.3499999999985
 20
-16.89999999999963
 30
0.0
 11
792.7999999999992
 21
-16.89999999999963
 31
0.0
  0
LINE
  5
10B6
330
B3B
100
AcDbEntity
  8
Visible (ISO)
100
AcDbLine
 10
787.3000000000029
 20
37.14999999999964
 30
0.0
 11
787.3000000000029
 21
46.54999999999927
 31
0.0
  0
ARC
  5
10B7
330
B3B
100
AcDbEntity
  8
Visible (ISO)
100
AcDbCircle
 10
791.3499999999985
 20
37.14999999999964
 30
0.0
 40
4.049999999999998
100
AcDbArc
 50
180.0
 51
270.0
  0
ARC
  5
10B8
330
B3B
100
AcDbEntity
  8
Visible (ISO)
100
AcDbCircle
 10
791.3499999999985
 20
46.54999999999927
 30
0.0
 40
4.049999999999998
100
AcDbArc
 50
90.0
 51
180.0
  0
LINE
  5
10B9
330
B3B
100
AcDbEntity
  8
Visible (ISO)
100
AcDbLine
 10
791.3499999999985
 20
50.59999999999945
 30
0.0
 11
792.8000000000029
 21
50.59999999999945
 31
0.0
  0
LINE
  5
10BA
330
B3B
100
AcDbEntity
  8
Visible (ISO)
100
AcDbLine
 10
791.3499999999985
 20
33.09999999999945
 30
0.0
 11
792.8000000000029
 21
33.09999999999945
 31
0.0
  0
LINE
  5
10BB
330
B3B
100
AcDbEntity
  8
Visible (ISO)
100
AcDbLine
 10
-787.2999999999993
 20
46.55000000000018
 30
0.0
 11
-787.2999999999993
 21
37.15000000000055
 31
0.0
  0
ARC
  5
10BC
330
B3B
100
AcDbEntity
  8
Visible (ISO)
100
AcDbCircle
 10
-791.3499999999985
 20
46.55000000000018
 30
0.0
 40
4.050000000000006
100
AcDbArc
 50
0.0
 51
90.0
  0
ARC
  5
10BD
330
B3B
100
AcDbEntity
  8
Visible (ISO)
100
AcDbCircle
 10
-791.3499999999985
 20
37.15000000000055
 30
0.0
 40
4.050000000000006
100
AcDbArc
 50
270.0
 51
0.0
  0
LINE
  5
10BE
330
B3B
100
AcDbEntity
  8
Visible (ISO)
100
AcDbLine
 10
-791.3499999999985
 20
33.10000000000036
 30
0.0
 11
-792.7999999999992
 21
33.10000000000036
 31
0.0
  0
LINE
  5
10BF
330
B3B
100
AcDbEntity
  8
Visible (ISO)
100
AcDbLine
 10
-791.3499999999985
 20
50.60000000000036
 30
0.0
 11
-792.7999999999992
 21
50.60000000000036
 31
0.0
  0
LINE
  5
10C0
330
B3B
100
AcDbEntity
  8
Visible (ISO)
100
AcDbLine
 10
-787.2999999999993
 20
-3.449999999999818
 30
0.0
 11
-787.2999999999993
 21
-12.84999999999945
 31
0.0
  0
ARC
  5
10C1
330
B3B
100
AcDbEntity
  8
Visible (ISO)
100
AcDbCircle
 10
-791.3499999999985
 20
-3.449999999999818
 30
0.0
 40
4.050000000000006
100
AcDbArc
 50
0.0
 51
90.0
  0
ARC
  5
10C2
330
B3B
100
AcDbEntity
  8
Visible (ISO)
100
AcDbCircle
 10
-791.3499999999985
 20
-12.84999999999945
 30
0.0
 40
4.050000000000006
100
AcDbArc
 50
270.0
 51
0.0
  0
LINE
  5
10C3
330
B3B
100
AcDbEntity
  8
Visible (ISO)
100
AcDbLine
 10
-791.3499999999985
 20
-16.89999999999963
 30
0.0
 11
-792.7999999999992
 21
-16.89999999999963
 31
0.0
  0
LINE
  5
10C4
330
B3B
100
AcDbEntity
  8
Visible (ISO)
100
AcDbLine
 10
-791.3499999999985
 20
0.6000000000003638
 30
0.0
 11
-792.7999999999992
 21
0.6000000000003638
 31
0.0
  0
LINE
  5
10C5
330
B3B
100
AcDbEntity
  8
Visible (ISO)
100
AcDbLine
 10
870.2999999999956
 20
-1320.449999999997
 30
0.0
 11
879.6999999999934
 21
-1320.449999999997
 31
0.0
  0
ARC
  5
10C6
330
B3B
100
AcDbEntity
  8
Visible (ISO)
100
AcDbCircle
 10
870.2999999999956
 20
-1324.499999999996
 30
0.0
 40
4.05
100
AcDbArc
 50
90.0
 51
180.0
  0
ARC
  5
10C7
330
B3B
100
AcDbEntity
  8
Visible (ISO)
100
AcDbCircle
 10
879.6999999999934
 20
-1324.499999999996
 30
0.0
 40
4.05
100
AcDbArc
 50
0.0
 51
90.0
  0
LINE
  5
10C8
330
B3B
100
AcDbEntity
  8
Visible (ISO)
100
AcDbLine
 10
883.7499999999927
 20
-1324.499999999996
 30
0.0
 11
883.7499999999927
 21
-1325.949999999997
 31
0.0
  0
LINE
  5
10C9
330
B3B
100
AcDbEntity
  8
Visible (ISO)
100
AcDbLine
 10
866.2499999999926
 20
-1324.499999999996
 30
0.0
 11
866.2499999999926
 21
-1325.949999999997
 31
0.0
  0
LINE
  5
10CA
330
B3B
100
AcDbEntity
  8
Visible (ISO)
100
AcDbLine
 10
820.2999999999956
 20
-1320.449999999998
 30
0.0
 11
829.699999999997
 21
-1320.449999999998
 31
0.0
  0
ARC
  5
10CB
330
B3B
100
AcDbEntity
  8
Visible (ISO)
100
AcDbCircle
 10
820.2999999999956
 20
-1324.499999999997
 30
0.0
 40
4.05
100
AcDbArc
 50
90.0
 51
180.0
  0
ARC
  5
10CC
330
B3B
100
AcDbEntity
  8
Visible (ISO)
100
AcDbCircle
 10
829.699999999997
 20
-1324.499999999997
 30
0.0
 40
4.05
100
AcDbArc
 50
0.0
 51
90.0
  0
LINE
  5
10CD
330
B3B
100
AcDbEntity
  8
Visible (ISO)
100
AcDbLine
 10
833.7499999999927
 20
-1324.499999999997
 30
0.0
 11
833.7499999999927
 21
-1325.949999999998
 31
0.0
  0
LINE
  5
10CE
330
B3B
100
AcDbEntity
  8
Visible (ISO)
100
AcDbLine
 10
816.2499999999964
 20
-1324.499999999997
 30
0.0
 11
816.2499999999964
 21
-1325.949999999998
 31
0.0
  0
LINE
  5
10CF
330
B3B
100
AcDbEntity
  8
Visible (ISO)
100
AcDbLine
 10
829.699999999997
 20
-45.84999999999854
 30
0.0
 11
820.2999999999956
 21
-45.84999999999854
 31
0.0
  0
ARC
  5
10D0
330
B3B
100
AcDbEntity
  8
Visible (ISO)
100
AcDbCircle
 10
829.699999999997
 20
-41.79999999999927
 30
0.0
 40
4.05
100
AcDbArc
 50
270.0
 51
0.0
  0
ARC
  5
10D1
330
B3B
100
AcDbEntity
  8
Visible (ISO)
100
AcDbCircle
 10
820.2999999999956
 20
-41.79999999999927
 30
0.0
 40
4.05
100
AcDbArc
 50
180.0
 51
270.0
  0
LINE
  5
10D2
330
B3B
100
AcDbEntity
  8
Visible (ISO)
100
AcDbLine
 10
816.2499999999999
 20
-41.79999999999927
 30
0.0
 11
816.2499999999999
 21
-40.34999999999854
 31
0.0
  0
LINE
  5
10D3
330
B3B
100
AcDbEntity
  8
Visible (ISO)
100
AcDbLine
 10
833.7499999999963
 20
-41.79999999999927
 30
0.0
 11
833.7499999999963
 21
-40.34999999999854
 31
0.0
  0
LINE
  5
10D4
330
B3B
100
AcDbEntity
  8
Visible (ISO)
100
AcDbLine
 10
879.699999999997
 20
-45.84999999999763
 30
0.0
 11
870.2999999999956
 21
-45.84999999999763
 31
0.0
  0
ARC
  5
10D5
330
B3B
100
AcDbEntity
  8
Visible (ISO)
100
AcDbCircle
 10
879.699999999997
 20
-41.79999999999836
 30
0.0
 40
4.05
100
AcDbArc
 50
270.0
 51
0.0
  0
ARC
  5
10D6
330
B3B
100
AcDbEntity
  8
Visible (ISO)
100
AcDbCircle
 10
870.2999999999956
 20
-41.79999999999836
 30
0.0
 40
4.05
100
AcDbArc
 50
180.0
 51
270.0
  0
LINE
  5
10D7
330
B3B
100
AcDbEntity
  8
Visible (ISO)
100
AcDbLine
 10
866.2499999999964
 20
-41.79999999999836
 30
0.0
 11
866.2499999999964
 21
-40.34999999999763
 31
0.0
  0
LINE
  5
10D8
330
B3B
100
AcDbEntity
  8
Visible (ISO)
100
AcDbLine
 10
883.7499999999963
 20
-41.79999999999836
 30
0.0
 11
883.7499999999963
 21
-40.34999999999763
 31
0.0
  0
LINE
  5
10D9
330
B3B
100
AcDbEntity
  8
Visible (ISO)
100
AcDbLine
 10
-787.2999999999993
 20
-1353.45
 30
0.0
 11
-787.2999999999993
 21
-1362.849999999999
 31
0.0
  0
ARC
  5
10DA
330
B3B
100
AcDbEntity
  8
Visible (ISO)
100
AcDbCircle
 10
-791.3499999999985
 20
-1353.45
 30
0.0
 40
4.049999999999999
100
AcDbArc
 50
0.0
 51
90.0
  0
ARC
  5
10DB
330
B3B
100
AcDbEntity
  8
Visible (ISO)
100
AcDbCircle
 10
-791.3499999999985
 20
-1362.849999999999
 30
0.0
 40
4.049999999999999
100
AcDbArc
 50
270.0
 51
0.0
  0
LINE
  5
10DC
330
B3B
100
AcDbEntity
  8
Visible (ISO)
100
AcDbLine
 10
-791.3499999999985
 20
-1366.9
 30
0.0
 11
-792.7999999999992
 21
-1366.9
 31
0.0
  0
LINE
  5
10DD
330
B3B
100
AcDbEntity
  8
Visible (ISO)
100
AcDbLine
 10
-791.3499999999985
 20
-1349.399999999999
 30
0.0
 11
-792.7999999999992
 21
-1349.399999999999
 31
0.0
  0
LINE
  5
10DE
330
B3B
100
AcDbEntity
  8
Visible (ISO)
100
AcDbLine
 10
-787.3000000000029
 20
-1403.45
 30
0.0
 11
-787.3000000000029
 21
-1412.849999999999
 31
0.0
  0
ARC
  5
10DF
330
B3B
100
AcDbEntity
  8
Visible (ISO)
100
AcDbCircle
 10
-791.3499999999985
 20
-1403.45
 30
0.0
 40
4.049999999999999
100
AcDbArc
 50
0.0
 51
90.0
  0
ARC
  5
10E0
330
B3B
100
AcDbEntity
  8
Visible (ISO)
100
AcDbCircle
 10
-791.3499999999985
 20
-1412.849999999999
 30
0.0
 40
4.049999999999999
100
AcDbArc
 50
270.0
 51
0.0
  0
LINE
  5
10E1
330
B3B
100
AcDbEntity
  8
Visible (ISO)
100
AcDbLine
 10
-791.3499999999985
 20
-1416.9
 30
0.0
 11
-792.7999999999992
 21
-1416.9
 31
0.0
  0
LINE
  5
10E2
330
B3B
100
AcDbEntity
  8
Visible (ISO)
100
AcDbLine
 10
-791.3499999999985
 20
-1399.399999999999
 30
0.0
 11
-792.7999999999992
 21
-1399.399999999999
 31
0.0
  0
LINE
  5
10E3
330
B3B
100
AcDbEntity
  8
Visible (ISO)
100
AcDbLine
 10
787.2999999999956
 20
-1412.849999999999
 30
0.0
 11
787.2999999999956
 21
-1403.449999999999
 31
0.0
  0
ARC
  5
10E4
330
B3B
100
AcDbEntity
  8
Visible (ISO)
100
AcDbCircle
 10
791.3499999999949
 20
-1412.849999999999
 30
0.0
 40
4.050000000000006
100
AcDbArc
 50
180.0
 51
270.0
  0
ARC
  5
10E5
330
B3B
100
AcDbEntity
  8
Visible (ISO)
100
AcDbCircle
 10
791.3499999999949
 20
-1403.449999999999
 30
0.0
 40
4.050000000000006
100
AcDbArc
 50
90.0
 51
180.0
  0
LINE
  5
10E6
330
B3B
100
AcDbEntity
  8
Visible (ISO)
100
AcDbLine
 10
791.3499999999949
 20
-1399.399999999999
 30
0.0
 11
792.7999999999956
 21
-1399.399999999999
 31
0.0
  0
LINE
  5
10E7
330
B3B
100
AcDbEntity
  8
Visible (ISO)
100
AcDbLine
 10
791.3499999999949
 20
-1416.899999999999
 30
0.0
 11
792.7999999999956
 21
-1416.899999999999
 31
0.0
  0
LINE
  5
10E8
330
B3B
100
AcDbEntity
  8
Visible (ISO)
100
AcDbLine
 10
787.2999999999956
 20
-1362.849999999999
 30
0.0
 11
787.2999999999956
 21
-1353.449999999999
 31
0.0
  0
ARC
  5
10E9
330
B3B
100
AcDbEntity
  8
Visible (ISO)
100
AcDbCircle
 10
791.3499999999949
 20
-1362.849999999999
 30
0.0
 40
4.050000000000006
100
AcDbArc
 50
180.0
 51
270.0
  0
ARC
  5
10EA
330
B3B
100
AcDbEntity
  8
Visible (ISO)
100
AcDbCircle
 10
791.3499999999949
 20
-1353.449999999999
 30
0.0
 40
4.050000000000006
100
AcDbArc
 50
90.0
 51
180.0
  0
LINE
  5
10EB
330
B3B
100
AcDbEntity
  8
Visible (ISO)
100
AcDbLine
 10
791.3499999999949
 20
-1349.399999999999
 30
0.0
 11
792.7999999999956
 21
-1349.399999999999
 31
0.0
  0
LINE
  5
10EC
330
B3B
100
AcDbEntity
  8
Visible (ISO)
100
AcDbLine
 10
791.3499999999949
 20
-1366.899999999999
 30
0.0
 11
792.7999999999956
 21
-1366.899999999999
 31
0.0
  0
LINE
  5
10ED
330
B3B
100
AcDbEntity
  8
Visible (ISO)
100
AcDbLine
 10
-829.699999999997
 20
-1320.450000000001
 30
0.0
 11
-820.2999999999992
 21
-1320.450000000001
 31
0.0
  0
ARC
  5
10EE
330
B3B
100
AcDbEntity
  8
Visible (ISO)
100
AcDbCircle
 10
-829.699999999997
 20
-1324.5
 30
0.0
 40
4.05
100
AcDbArc
 50
90.0
 51
180.0
  0
ARC
  5
10EF
330
B3B
100
AcDbEntity
  8
Visible (ISO)
100
AcDbCircle
 10
-820.2999999999992
 20
-1324.5
 30
0.0
 40
4.05
100
AcDbArc
 50
0.0
 51
90.0
  0
LINE
  5
10F0
330
B3B
100
AcDbEntity
  8
Visible (ISO)
100
AcDbLine
 10
-816.2499999999999
 20
-1324.5
 30
0.0
 11
-816.2499999999999
 21
-1325.950000000001
 31
0.0
  0
LINE
  5
10F1
330
B3B
100
AcDbEntity
  8
Visible (ISO)
100
AcDbLine
 10
-833.75
 20
-1324.5
 30
0.0
 11
-833.75
 21
-1325.950000000001
 31
0.0
  0
LINE
  5
10F2
330
B3B
100
AcDbEntity
  8
Visible (ISO)
100
AcDbLine
 10
-879.7000000000007
 20
-1320.450000000002
 30
0.0
 11
-870.2999999999992
 21
-1320.450000000002
 31
0.0
  0
ARC
  5
10F3
330
B3B
100
AcDbEntity
  8
Visible (ISO)
100
AcDbCircle
 10
-879.7000000000007
 20
-1324.500000000001
 30
0.0
 40
4.05
100
AcDbArc
 50
90.0
 51
180.0
  0
ARC
  5
10F4
330
B3B
100
AcDbEntity
  8
Visible (ISO)
100
AcDbCircle
 10
-870.2999999999992
 20
-1324.500000000001
 30
0.0
 40
4.05
100
AcDbArc
 50
0.0
 51
90.0
  0
LINE
  5
10F5
330
B3B
100
AcDbEntity
  8
Visible (ISO)
100
AcDbLine
 10
-866.2499999999999
 20
-1324.500000000001
 30
0.0
 11
-866.2499999999999
 21
-1325.950000000001
 31
0.0
  0
LINE
  5
10F6
330
B3B
100
AcDbEntity
  8
Visible (ISO)
100
AcDbLine
 10
-883.75
 20
-1324.500000000001
 30
0.0
 11
-883.75
 21
-1325.950000000001
 31
0.0
  0
LINE
  5
10F7
330
B3B
100
AcDbEntity
  8
Visible (ISO)
100
AcDbLine
 10
-870.2999999999992
 20
-45.84999999999854
 30
0.0
 11
-879.699999999997
 21
-45.84999999999854
 31
0.0
  0
ARC
  5
10F8
330
B3B
100
AcDbEntity
  8
Visible (ISO)
100
AcDbCircle
 10
-870.2999999999992
 20
-41.79999999999927
 30
0.0
 40
4.05
100
AcDbArc
 50
270.0
 51
0.0
  0
ARC
  5
10F9
330
B3B
100
AcDbEntity
  8
Visible (ISO)
100
AcDbCircle
 10
-879.699999999997
 20
-41.79999999999927
 30
0.0
 40
4.05
100
AcDbArc
 50
180.0
 51
270.0
  0
LINE
  5
10FA
330
B3B
100
AcDbEntity
  8
Visible (ISO)
100
AcDbLine
 10
-883.75
 20
-41.79999999999927
 30
0.0
 11
-883.75
 21
-40.34999999999854
 31
0.0
  0
LINE
  5
10FB
330
B3B
100
AcDbEntity
  8
Visible (ISO)
100
AcDbLine
 10
-866.2499999999999
 20
-41.79999999999927
 30
0.0
 11
-866.2499999999999
 21
-40.34999999999854
 31
0.0
  0
LINE
  5
10FC
330
B3B
100
AcDbEntity
  8
Visible (ISO)
100
AcDbLine
 10
-820.2999999999992
 20
-45.84999999999854
 30
0.0
 11
-829.699999999997
 21
-45.84999999999854
 31
0.0
  0
ARC
  5
10FD
330
B3B
100
AcDbEntity
  8
Visible (ISO)
100
AcDbCircle
 10
-820.2999999999992
 20
-41.79999999999927
 30
0.0
 40
4.049999999999998
100
AcDbArc
 50
270.0
 51
0.0
  0
ARC
  5
10FE
330
B3B
100
AcDbEntity
  8
Visible (ISO)
100
AcDbCircle
 10
-829.699999999997
 20
-41.79999999999927
 30
0.0
 40
4.049999999999998
100
AcDbArc
 50
180.0
 51
270.0
  0
LINE
  5
10FF
330
B3B
100
AcDbEntity
  8
Visible (ISO)
100
AcDbLine
 10
-833.75
 20
-41.79999999999927
 30
0.0
 11
-833.75
 21
-40.34999999999854
 31
0.0
  0
LINE
  5
1100
330
B3B
100
AcDbEntity
  8
Visible (ISO)
100
AcDbLine
 10
-816.2499999999999
 20
-41.79999999999927
 30
0.0
 11
-816.2499999999999
 21
-40.34999999999854
 31
0.0
  0
ARC
  5
1101
330
B3B
100
AcDbEntity
  8
Visible (ISO)
100
AcDbCircle
 10
-900.0000000000037
 20
66.85000000000309
 30
0.0
 40
1500.0
100
AcDbArc
 50
90.0
 51
180.0
  0
LINE
  5
1102
330
B3B
100
AcDbEntity
  8
Visible (ISO)
100
AcDbLine
 10
-2400.000000000004
 20
66.85000000000309
 30
0.0
 11
-2400.000000000004
 21
-1433.149999999998
 31
0.0
  0
ARC
  5
1103
330
B3B
100
AcDbEntity
  8
Visible (ISO)
100
AcDbCircle
 10
-900.0000000000037
 20
-1433.149999999999
 30
0.0
 40
1500.000000000001
100
AcDbArc
 50
180.0
 51
270.0
  0
LINE
  5
1104
330
B3B
100
AcDbEntity
  8
Visible (ISO)
100
AcDbLine
 10
-900.0000000000037
 20
-2933.149999999999
 30
0.0
 11
899.9999999999927
 21
-2933.15
 31
0.0
  0
ARC
  5
1105
330
B3B
100
AcDbEntity
  8
Visible (ISO)
100
AcDbCircle
 10
899.9999999999927
 20
-1433.15
 30
0.0
 40
1500.0
100
AcDbArc
 50
270.0
 51
0.0
  0
LINE
  5
1106
330
B3B
100
AcDbEntity
  8
Visible (ISO)
100
AcDbLine
 10
2399.999999999993
 20
-1433.15
 30
0.0
 11
2399.999999999993
 21
66.85000000000218
 31
0.0
  0
ARC
  5
1107
330
B3B
100
AcDbEntity
  8
Visible (ISO)
100
AcDbCircle
 10
899.9999999999927
 20
66.85000000000218
 30
0.0
 40
1500.000000000001
100
AcDbArc
 50
0.0
 51
90.0
  0
LINE
  5
1108
330
B3B
100
AcDbEntity
  8
Visible (ISO)
100
AcDbLine
 10
899.9999999999927
 20
1566.850000000001
 30
0.0
 11
-900.0000000000037
 21
1566.850000000001
 31
0.0
  0
ENDBLK
  5
B3D
330
B3B
100
AcDbEntity
  8
0
100
AcDbBlockEnd
  0
BLOCK
  5
CFE
330
CFD
100
AcDbEntity
  8
0
100
AcDbBlockBegin
  2
*D11
 70
     1
 10
0.0
 20
0.0
 30
0.0
  3
*D11
  1

  0
LINE
  5
CFF
330
CFD
100
AcDbEntity
  8
Dimension (ISO)
100
AcDbLine
 10
5803.398317755146
 20
6178.445364192152
 30
0.0
 11
5803.398317755146
 21
4003.44536419215
 31
0.0
  0
LINE
  5
D00
330
CFD
100
AcDbEntity
  8
Dimension (ISO)
100
AcDbLine
 10
10603.39831775514
 20
6178.44536419215
 30
0.0
 11
10603.39831775514
 21
4003.44536419215
 31
0.0
  0
LINE
  5
D01
330
CFD
100
AcDbEntity
  8
Dimension (ISO)
100
AcDbLine
 10
5928.398317755146
 20
4053.44536419215
 30
0.0
 11
10478.39831775514
 21
4053.44536419215
 31
0.0
  0
SOLID
  5
D02
330
CFD
100
AcDbEntity
  8
Dimension (ISO)
100
AcDbTrace
 10
5928.398317755146
 20
4074.278697525484
 30
0.0
 11
5928.398317755146
 21
4032.612030858817
 31
0.0
 12
5803.398317755146
 22
4053.44536419215
 32
0.0
 13
5803.398317755146
 23
4053.44536419215
 33
0.0
  0
SOLID
  5
D03
330
CFD
100
AcDbEntity
  8
Dimension (ISO)
100
AcDbTrace
 10
10478.39831775514
 20
4074.278697525484
 30
0.0
 11
10478.39831775514
 21
4032.612030858817
 31
0.0
 12
10603.39831775514
 22
4053.44536419215
 32
0.0
 13
10603.39831775514
 23
4053.44536419215
 33
0.0
  0
MTEXT
  5
D04
330
CFD
100
AcDbEntity
  8
Dimension (ISO)
100
AcDbMText
 10
8203.398317755146
 20
4274.537303909762
 30
0.0
 40
175.0
 41
0.0
 71
     2
 72
     1
  1
\A1;4800
  7
Label Text (ISO)
 73
     1
 44
1.0
1001
ACAD
1000
MTEXTBEGIN
1070
    73
1070
     1
1070
    44
1040
1.0
1070
    74
1070
     0
1000
MTEXTEND
  0
POINT
  5
D05
330
CFD
100
AcDbEntity
  8
Defpoints
 62
     0
100
AcDbPoint
 10
5803.398317755146
 20
6203.445364192152
 30
0.0
  0
POINT
  5
D06
330
CFD
100
AcDbEntity
  8
Defpoints
 62
     0
100
AcDbPoint
 10
10603.39831775514
 20
6203.44536419215
 30
0.0
  0
POINT
  5
D07
330
CFD
100
AcDbEntity
  8
Defpoints
 62
     0
100
AcDbPoint
 10
10603.39831775514
 20
4053.44536419215
 30
0.0
  0
ENDBLK
  5
D08
330
CFD
100
AcDbEntity
  8
0
100
AcDbBlockEnd
  0
BLOCK
  5
D0A
330
D09
100
AcDbEntity
  8
0
100
AcDbBlockBegin
  2
*D12
 70
     1
 10
0.0
 20
0.0
 30
0.0
  3
*D12
  1

  0
LINE
  5
D0B
330
D09
100
AcDbEntity
  8
Dimension (ISO)
100
AcDbLine
 10
9128.398317755141
 20
4703.445364192151
 30
0.0
 11
11205.78734598308
 21
4703.44536419215
 31
0.0
  0
LINE
  5
D0C
330
D09
100
AcDbEntity
  8
Dimension (ISO)
100
AcDbLine
 10
9128.398317755143
 20
9203.445364192152
 30
0.0
 11
11205.78734598308
 21
9203.445364192152
 31
0.0
  0
LINE
  5
D0D
330
D09
100
AcDbEntity
  8
Dimension (ISO)
100
AcDbLine
 10
11155.78734598308
 20
4828.44536419215
 30
0.0
 11
11155.78734598308
 21
9078.445364192152
 31
0.0
  0
SOLID
  5
D0E
330
D09
100
AcDbEntity
  8
Dimension (ISO)
100
AcDbTrace
 10
11134.95401264975
 20
4828.44536419215
 30
0.0
 11
11176.62067931642
 21
4828.44536419215
 31
0.0
 12
11155.78734598308
 22
4703.44536419215
 32
0.0
 13
11155.78734598308
 23
4703.44536419215
 33
0.0
  0
SOLID
  5
D0F
330
D09
100
AcDbEntity
  8
Dimension (ISO)
100
AcDbTrace
 10
11134.95401264975
 20
9078.445364192152
 30
0.0
 11
11176.62067931642
 21
9078.445364192152
 31
0.0
 12
11155.78734598308
 22
9203.445364192152
 32
0.0
 13
11155.78734598308
 23
9203.445364192152
 33
0.0
  0
MTEXT
  5
D10
330
D09
100
AcDbEntity
  8
Dimension (ISO)
100
AcDbMText
 10
10935.51810605867
 20
6953.445364192152
 30
0.0
 40
175.0
 41
0.0
 71
     2
 72
     1
  1
\A1;4500
  7
Label Text (ISO)
 11
0.0000000000000001
 21
1.0
 31
0.0
 73
     1
 44
1.0
1001
ACAD
1000
MTEXTBEGIN
1070
    73
1070
     1
1070
    44
1040
1.0
1070
    74
1070
     0
1000
MTEXTEND
  0
POINT
  5
D11
330
D09
100
AcDbEntity
  8
Defpoints
 62
     0
100
AcDbPoint
 10
9103.398317755141
 20
4703.445364192151
 30
0.0
  0
POINT
  5
D12
330
D09
100
AcDbEntity
  8
Defpoints
 62
     0
100
AcDbPoint
 10
9103.398317755143
 20
9203.445364192152
 30
0.0
  0
POINT
  5
D13
330
D09
100
AcDbEntity
  8
Defpoints
 62
     0
100
AcDbPoint
 10
11155.78734598308
 20
9203.445364192152
 30
0.0
  0
ENDBLK
  5
D14
330
D09
100
AcDbEntity
  8
0
100
AcDbBlockEnd
  0
BLOCK
  5
D16
330
D15
100
AcDbEntity
  8
0
100
AcDbBlockBegin
  2
*D13
 70
     1
 10
0.0
 20
0.0
 30
0.0
  3
*D13
  1

  0
LINE
  5
D17
330
D15
100
AcDbEntity
  8
Dimension (ISO)
100
AcDbLine
 10
9103.398317755143
 20
6181.445364192153
 30
0.0
 11
9103.398317755143
 21
5656.445364192153
 31
0.0
  0
LINE
  5
D18
330
D15
100
AcDbEntity
  8
Dimension (ISO)
100
AcDbLine
 10
7303.398317755149
 20
6181.445364192151
 30
0.0
 11
7303.398317755149
 21
5656.445364192153
 31
0.0
  0
LINE
  5
D19
330
D15
100
AcDbEntity
  8
Dimension (ISO)
100
AcDbLine
 10
8978.398317755143
 20
5706.445364192153
 30
0.0
 11
7428.398317755149
 21
5706.445364192153
 31
0.0
  0
SOLID
  5
D1A
330
D15
100
AcDbEntity
  8
Dimension (ISO)
100
AcDbTrace
 10
8978.398317755143
 20
5727.278697525486
 30
0.0
 11
8978.398317755143
 21
5685.61203085882
 31
0.0
 12
9103.398317755143
 22
5706.445364192153
 32
0.0
 13
9103.398317755143
 23
5706.445364192153
 33
0.0
  0
SOLID
  5
D1B
330
D15
100
AcDbEntity
  8
Dimension (ISO)
100
AcDbTrace
 10
7428.398317755149
 20
5727.278697525486
 30
0.0
 11
7428.398317755149
 21
5685.61203085882
 31
0.0
 12
7303.398317755149
 22
5706.445364192153
 32
0.0
 13
7303.398317755149
 23
5706.445364192153
 33
0.0
  0
MTEXT
  5
D1C
330
D15
100
AcDbEntity
  8
Dimension (ISO)
100
AcDbMText
 10
8203.398317755148
 20
5927.537303909765
 30
0.0
 40
175.0
 41
0.0
 71
     2
 72
     1
  1
\A1;1800
  7
Label Text (ISO)
 73
     1
 44
1.0
1001
ACAD
1000
MTEXTBEGIN
1070
    73
1070
     1
1070
    44
1040
1.0
1070
    74
1070
     0
1000
MTEXTEND
  0
POINT
  5
D1D
330
D15
100
AcDbEntity
  8
Defpoints
 62
     0
100
AcDbPoint
 10
9103.398317755143
 20
6206.445364192153
 30
0.0
  0
POINT
  5
D1E
330
D15
100
AcDbEntity
  8
Defpoints
 62
     0
100
AcDbPoint
 10
7303.398317755149
 20
6206.445364192151
 30
0.0
  0
POINT
  5
D1F
330
D15
100
AcDbEntity
  8
Defpoints
 62
     0
100
AcDbPoint
 10
7303.398317755149
 20
5706.445364192153
 30
0.0
  0
ENDBLK
  5
D20
330
D15
100
AcDbEntity
  8
0
100
AcDbBlockEnd
  0
BLOCK
  5
D22
330
D21
100
AcDbEntity
  8
0
100
AcDbBlockBegin
  2
*D14
 70
     1
 10
0.0
 20
0.0
 30
0.0
  3
*D14
  1

  0
LINE
  5
D23
330
D21
100
AcDbEntity
  8
Dimension (ISO)
100
AcDbLine
 10
9125.398317755143
 20
6203.445364192153
 30
0.0
 11
9768.378154161947
 21
6203.445364192153
 31
0.0
  0
LINE
  5
D24
330
D21
100
AcDbEntity
  8
Dimension (ISO)
100
AcDbLine
 10
9125.398317755147
 20
7703.445364192153
 30
0.0
 11
9768.378154161947
 21
7703.445364192153
 31
0.0
  0
LINE
  5
D25
330
D21
100
AcDbEntity
  8
Dimension (ISO)
100
AcDbLine
 10
9718.378154161946
 20
6328.445364192153
 30
0.0
 11
9718.378154161946
 21
7578.445364192153
 31
0.0
  0
SOLID
  5
D26
330
D21
100
AcDbEntity
  8
Dimension (ISO)
100
AcDbTrace
 10
9697.544820828612
 20
6328.445364192153
 30
0.0
 11
9739.211487495282
 21
6328.445364192153
 31
0.0
 12
9718.378154161946
 22
6203.445364192153
 32
0.0
 13
9718.378154161946
 23
6203.445364192153
 33
0.0
  0
SOLID
  5
D27
330
D21
100
AcDbEntity
  8
Dimension (ISO)
100
AcDbTrace
 10
9697.544820828612
 20
7578.445364192153
 30
0.0
 11
9739.211487495282
 21
7578.445364192153
 31
0.0
 12
9718.378154161946
 22
7703.445364192153
 32
0.0
 13
9718.378154161946
 23
7703.445364192153
 33
0.0
  0
MTEXT
  5
D28
330
D21
100
AcDbEntity
  8
Dimension (ISO)
100
AcDbMText
 10
9498.108914237539
 20
6953.445364192153
 30
0.0
 40
175.0
 41
0.0
 71
     2
 72
     1
  1
\A1;1500
  7
Label Text (ISO)
 11
0.0000000000000001
 21
1.0
 31
0.0
 73
     1
 44
1.0
1001
ACAD
1000
MTEXTBEGIN
1070
    73
1070
     1
1070
    44
1040
1.0
1070
    74
1070
     0
1000
MTEXTEND
  0
POINT
  5
D29
330
D21
100
AcDbEntity
  8
Defpoints
 62
     0
100
AcDbPoint
 10
9100.398317755143
 20
6203.445364192153
 30
0.0
  0
POINT
  5
D2A
330
D21
100
AcDbEntity
  8
Defpoints
 62
     0
100
AcDbPoint
 10
9100.398317755146
 20
7703.445364192153
 30
0.0
  0
POINT
  5
D2B
330
D21
100
AcDbEntity
  8
Defpoints
 62
     0
100
AcDbPoint
 10
9718.378154161946
 20
7703.445364192153
 30
0.0
  0
ENDBLK
  5
D2C
330
D21
100
AcDbEntity
  8
0
100
AcDbBlockEnd
  0
BLOCK
  5
F6A
330
F69
100
AcDbEntity
  8
0
100
AcDbBlockBegin
  2
*D16
 70
     1
 10
0.0
 20
0.0
 30
0.0
  3
*D16
  1

  0
LINE
  5
FC5
330
F69
100
AcDbEntity
  8
Dimension (ISO)
100
AcDbLine
 10
20526.58363325564
 20
3647.761480256623
 30
0.0
 11
20526.58363325564
 21
1462.761480256621
 31
0.0
  0
LINE
  5
FC6
330
F69
100
AcDbEntity
  8
Dimension (ISO)
100
AcDbLine
 10
25326.58363325563
 20
3647.761480256622
 30
0.0
 11
25326.58363325563
 21
1462.761480256621
 31
0.0
  0
LINE
  5
FC7
330
F69
100
AcDbEntity
  8
Dimension (ISO)
100
AcDbLine
 10
20701.58363325564
 20
1532.761480256621
 30
0.0
 11
25151.58363325564
 21
1532.761480256621
 31
0.0
  0
SOLID
  5
FC8
330
F69
100
AcDbEntity
  8
Dimension (ISO)
100
AcDbTrace
 10
20701.58363325564
 20
1561.928146923288
 30
0.0
 11
20701.58363325564
 21
1503.594813589954
 31
0.0
 12
20526.58363325564
 22
1532.761480256621
 32
0.0
 13
20526.58363325564
 23
1532.761480256621
 33
0.0
  0
SOLID
  5
FC9
330
F69
100
AcDbEntity
  8
Dimension (ISO)
100
AcDbTrace
 10
25151.58363325564
 20
1561.928146923288
 30
0.0
 11
25151.58363325564
 21
1503.594813589954
 31
0.0
 12
25326.58363325563
 22
1532.761480256621
 32
0.0
 13
25326.58363325563
 23
1532.761480256621
 33
0.0
  0
MTEXT
  5
FCA
330
F69
100
AcDbEntity
  8
Dimension (ISO)
100
AcDbMText
 10
22926.58363325564
 20
1842.290197516527
 30
0.0
 40
245.0
 41
0.0
 71
     2
 72
     1
  1
\A1;4800
  7
Label Text (ISO)
 73
     1
 44
1.0
1001
ACAD
1000
MTEXTBEGIN
1070
    73
1070
     1
1070
    44
1040
1.0
1070
    74
1070
     0
1000
MTEXTEND
  0
POINT
  5
FCB
330
F69
100
AcDbEntity
  8
Defpoints
 62
     0
100
AcDbPoint
 10
20526.58363325564
 20
3682.761480256623
 30
0.0
  0
POINT
  5
FCC
330
F69
100
AcDbEntity
  8
Defpoints
 62
     0
100
AcDbPoint
 10
25326.58363325563
 20
3682.761480256622
 30
0.0
  0
POINT
  5
FCD
330
F69
100
AcDbEntity
  8
Defpoints
 62
     0
100
AcDbPoint
 10
25326.58363325563
 20
1532.761480256621
 30
0.0
  0
ENDBLK
  5
F6B
330
F69
100
AcDbEntity
  8
0
100
AcDbBlockEnd
  0
BLOCK
  5
F76
330
F75
100
AcDbEntity
  8
0
100
AcDbBlockBegin
  2
*D17
 70
     1
 10
0.0
 20
0.0
 30
0.0
  3
*D17
  1

  0
LINE
  5
FCE
330
F75
100
AcDbEntity
  8
Dimension (ISO)
100
AcDbLine
 10
23861.58363325564
 20
2182.761480256623
 30
0.0
 11
25948.97266148358
 21
2182.761480256622
 31
0.0
  0
LINE
  5
FCF
330
F75
100
AcDbEntity
  8
Dimension (ISO)
100
AcDbLine
 10
23861.58363325564
 20
6682.761480256623
 30
0.0
 11
25948.97266148358
 21
6682.761480256623
 31
0.0
  0
LINE
  5
FD0
330
F75
100
AcDbEntity
  8
Dimension (ISO)
100
AcDbLine
 10
25878.97266148357
 20
2357.761480256622
 30
0.0
 11
25878.97266148357
 21
6507.761480256623
 31
0.0
  0
SOLID
  5
FD1
330
F75
100
AcDbEntity
  8
Dimension (ISO)
100
AcDbTrace
 10
25849.80599481691
 20
2357.761480256622
 30
0.0
 11
25908.13932815024
 21
2357.761480256622
 31
0.0
 12
25878.97266148357
 22
2182.761480256622
 32
0.0
 13
25878.97266148357
 23
2182.761480256622
 33
0.0
  0
SOLID
  5
FD2
330
F75
100
AcDbEntity
  8
Dimension (ISO)
100
AcDbTrace
 10
25849.80599481691
 20
6507.761480256623
 30
0.0
 11
25908.13932815024
 21
6507.761480256623
 31
0.0
 12
25878.97266148357
 22
6682.761480256623
 32
0.0
 13
25878.97266148357
 23
6682.761480256623
 33
0.0
  0
MTEXT
  5
FD3
330
F75
100
AcDbEntity
  8
Dimension (ISO)
100
AcDbMText
 10
25570.5957239416
 20
4432.761480256622
 30
0.0
 40
245.0
 41
0.0
 71
     2
 72
     1
  1
\A1;4500
  7
Label Text (ISO)
 11
0.0000000000000001
 21
1.0
 31
0.0
 73
     1
 44
1.0
1001
ACAD
1000
MTEXTBEGIN
1070
    73
1070
     1
1070
    44
1040
1.0
1070
    74
1070
     0
1000
MTEXTEND
  0
POINT
  5
FD4
330
F75
100
AcDbEntity
  8
Defpoints
 62
     0
100
AcDbPoint
 10
23826.58363325564
 20
2182.761480256623
 30
0.0
  0
POINT
  5
FD5
330
F75
100
AcDbEntity
  8
Defpoints
 62
     0
100
AcDbPoint
 10
23826.58363325564
 20
6682.761480256623
 30
0.0
  0
POINT
  5
FD6
330
F75
100
AcDbEntity
  8
Defpoints
 62
     0
100
AcDbPoint
 10
25878.97266148357
 20
6682.761480256623
 30
0.0
  0
ENDBLK
  5
F77
330
F75
100
AcDbEntity
  8
0
100
AcDbBlockEnd
  0
BLOCK
  5
F82
330
F81
100
AcDbEntity
  8
0
100
AcDbBlockBegin
  2
*D18
 70
     1
 10
0.0
 20
0.0
 30
0.0
  3
*D18
  1

  0
LINE
  5
FD7
330
F81
100
AcDbEntity
  8
Dimension (ISO)
100
AcDbLine
 10
23826.58363325564
 20
3650.761480256625
 30
0.0
 11
23826.58363325564
 21
3115.761480256624
 31
0.0
  0
LINE
  5
FD8
330
F81
100
AcDbEntity
  8
Dimension (ISO)
100
AcDbLine
 10
22026.58363325564
 20
3650.761480256623
 30
0.0
 11
22026.58363325564
 21
3115.761480256624
 31
0.0
  0
LINE
  5
FD9
330
F81
100
AcDbEntity
  8
Dimension (ISO)
100
AcDbLine
 10
23651.58363325563
 20
3185.761480256624
 30
0.0
 11
22201.58363325564
 21
3185.761480256624
 31
0.0
  0
SOLID
  5
FDA
330
F81
100
AcDbEntity
  8
Dimension (ISO)
100
AcDbTrace
 10
23651.58363325563
 20
3214.92814692329
 30
0.0
 11
23651.58363325563
 21
3156.594813589958
 31
0.0
 12
23826.58363325564
 22
3185.761480256624
 32
0.0
 13
23826.58363325564
 23
3185.761480256624
 33
0.0
  0
SOLID
  5
FDB
330
F81
100
AcDbEntity
  8
Dimension (ISO)
100
AcDbTrace
 10
22201.58363325564
 20
3214.92814692329
 30
0.0
 11
22201.58363325564
 21
3156.594813589958
 31
0.0
 12
22026.58363325564
 22
3185.761480256624
 32
0.0
 13
22026.58363325564
 23
3185.761480256624
 33
0.0
  0
MTEXT
  5
FDC
330
F81
100
AcDbEntity
  8
Dimension (ISO)
100
AcDbMText
 10
22926.58363325565
 20
3495.29019751653
 30
0.0
 40
245.0
 41
0.0
 71
     2
 72
     1
  1
\A1;1800
  7
Label Text (ISO)
 73
     1
 44
1.0
1001
ACAD
1000
MTEXTBEGIN
1070
    73
1070
     1
1070
    44
1040
1.0
1070
    74
1070
     0
1000
MTEXTEND
  0
POINT
  5
FDD
330
F81
100
AcDbEntity
  8
Defpoints
 62
     0
100
AcDbPoint
 10
23826.58363325564
 20
3685.761480256624
 30
0.0
  0
POINT
  5
FDE
330
F81
100
AcDbEntity
  8
Defpoints
 62
     0
100
AcDbPoint
 10
22026.58363325564
 20
3685.761480256623
 30
0.0
  0
POINT
  5
FDF
330
F81
100
AcDbEntity
  8
Defpoints
 62
     0
100
AcDbPoint
 10
22026.58363325564
 20
3185.761480256624
 30
0.0
  0
ENDBLK
  5
F83
330
F81
100
AcDbEntity
  8
0
100
AcDbBlockEnd
  0
BLOCK
  5
F8E
330
F8D
100
AcDbEntity
  8
0
100
AcDbBlockBegin
  2
*D19
 70
     1
 10
0.0
 20
0.0
 30
0.0
  3
*D19
  1

  0
LINE
  5
FE0
330
F8D
100
AcDbEntity
  8
Dimension (ISO)
100
AcDbLine
 10
23858.58363325564
 20
3682.761480256624
 30
0.0
 11
24511.56346966244
 21
3682.761480256624
 31
0.0
  0
LINE
  5
FE1
330
F8D
100
AcDbEntity
  8
Dimension (ISO)
100
AcDbLine
 10
23858.58363325564
 20
5182.761480256624
 30
0.0
 11
24511.56346966244
 21
5182.761480256624
 31
0.0
  0
LINE
  5
FE2
330
F8D
100
AcDbEntity
  8
Dimension (ISO)
100
AcDbLine
 10
24441.56346966244
 20
3857.761480256624
 30
0.0
 11
24441.56346966244
 21
5007.761480256625
 31
0.0
  0
SOLID
  5
FE3
330
F8D
100
AcDbEntity
  8
Dimension (ISO)
100
AcDbTrace
 10
24412.39680299577
 20
3857.761480256624
 30
0.0
 11
24470.73013632911
 21
3857.761480256624
 31
0.0
 12
24441.56346966244
 22
3682.761480256624
 32
0.0
 13
24441.56346966244
 23
3682.761480256624
 33
0.0
  0
SOLID
  5
FE4
330
F8D
100
AcDbEntity
  8
Dimension (ISO)
100
AcDbTrace
 10
24412.39680299577
 20
5007.761480256625
 30
0.0
 11
24470.73013632911
 21
5007.761480256625
 31
0.0
 12
24441.56346966244
 22
5182.761480256624
 32
0.0
 13
24441.56346966244
 23
5182.761480256624
 33
0.0
  0
MTEXT
  5
FE5
330
F8D
100
AcDbEntity
  8
Dimension (ISO)
100
AcDbMText
 10
24133.18653212046
 20
4432.761480256623
 30
0.0
 40
245.0
 41
0.0
 71
     2
 72
     1
  1
\A1;1500
  7
Label Text (ISO)
 11
0.0000000000000001
 21
1.0
 31
0.0
 73
     1
 44
1.0
1001
ACAD
1000
MTEXTBEGIN
1070
    73
1070
     1
1070
    44
1040
1.0
1070
    74
1070
     0
1000
MTEXTEND
  0
POINT
  5
FE6
330
F8D
100
AcDbEntity
  8
Defpoints
 62
     0
100
AcDbPoint
 10
23823.58363325564
 20
3682.761480256624
 30
0.0
  0
POINT
  5
FE7
330
F8D
100
AcDbEntity
  8
Defpoints
 62
     0
100
AcDbPoint
 10
23823.58363325564
 20
5182.761480256624
 30
0.0
  0
POINT
  5
FE8
330
F8D
100
AcDbEntity
  8
Defpoints
 62
     0
100
AcDbPoint
 10
24441.56346966244
 20
5182.761480256624
 30
0.0
  0
ENDBLK
  5
F8F
330
F8D
100
AcDbEntity
  8
0
100
AcDbBlockEnd
  0
ENDSEC
  0
SECTION
  2
ENTITIES
  0
INSERT
  5
114
330
6C
100
AcDbEntity
  8
0
100
AcDbBlockReference
 66
     1
  2
Tabelki rysunkowe Rzut
 10
8415.622859197148
 20
-751.8913797223119
 30
0.0
 41
70.0
 42
70.0
 43
70.0
  0
ATTRIB
  5
117
102
{ACAD_XDICTIONARY
360
ADA
102
}
330
114
100
AcDbEntity
  8
Title (ISO)
100
AcDbText
 10
20912.60577574458
 20
517.0080602565691
 30
0.0
 40
175.0
  1
88115
  7
Note Text (ISO)
100
AcDbAttribute
  2
Numer_katalogowy_001
 70
     0
  0
ATTRIB
  5
118
102
{ACAD_XDICTIONARY
360
ADD
102
}
330
114
100
AcDbEntity
  8
Title (ISO)
100
AcDbText
 10
21744.37877778593
 20
27.71323151016733
 30
0.0
 40
175.0
  1
2017-07-10
  7
Note Text (ISO)
100
AcDbAttribute
  2
DATA_UTWORZENIA_001
 70
     0
  0
ATTRIB
  5
119
102
{ACAD_XDICTIONARY
360
AE0
102
}
330
114
100
AcDbEntity
  8
Title (ISO)
100
AcDbText
 10
20915.89657492803
 20
236.044326323053
 30
0.0
 40
175.0
  1
Zestaw drążków
  7
Note Text (ISO)
100
AcDbAttribute
  2
Nazwa_001
 70
     0
  0
SEQEND
  5
116
330
114
100
AcDbEntity
  8
0
  0
LINE
  5
232
330
6C
100
AcDbEntity
  8
Visible (ISO)
100
AcDbLine
 10
21877.5886838895
 20
7288.840149638621
 30
0.0
 11
21874.65975170137
 21
7288.840149638623
 31
0.0
  0
LINE
  5
233
330
6C
100
AcDbEntity
  8
Visible (ISO)
100
AcDbLine
 10
21874.65975170137
 20
7293.840149638622
 30
0.0
 11
21877.5886838895
 21
7293.840149638619
 31
0.0
  0
LINE
  5
234
330
6C
100
AcDbEntity
  8
Visible (ISO)
100
AcDbLine
 10
21969.51256544375
 20
7293.840149638592
 30
0.0
 11
21983.65470106748
 21
7293.840149638592
 31
0.0
  0
LINE
  5
235
330
6C
100
AcDbEntity
  8
Visible (ISO)
100
AcDbLine
 10
22075.57858262174
 20
7293.840149638619
 30
0.0
 11
22078.50751480987
 21
7293.840149638622
 31
0.0
  0
LINE
  5
236
330
6C
100
AcDbEntity
  8
Visible (ISO)
100
AcDbLine
 10
21983.65470106748
 20
7288.840149638594
 30
0.0
 11
21969.51256544375
 21
7288.840149638594
 31
0.0
  0
LINE
  5
237
330
6C
100
AcDbEntity
  8
Visible (ISO)
100
AcDbLine
 10
22078.50751480987
 20
7288.840149638623
 30
0.0
 11
22075.57858262174
 21
7288.840149638621
 31
0.0
  0
LINE
  5
238
330
6C
100
AcDbEntity
  8
Visible (ISO)
100
AcDbLine
 10
21874.65975170137
 20
7293.840149638622
 30
0.0
 11
21874.65975170137
 21
7288.840149638623
 31
0.0
  0
LINE
  5
239
330
6C
100
AcDbEntity
  8
Visible (ISO)
100
AcDbLine
 10
22078.50751480987
 20
7288.840149638623
 30
0.0
 11
22078.50751480987
 21
7293.840149638622
 31
0.0
  0
LINE
  5
23A
330
6C
100
AcDbEntity
  8
Visible (ISO)
100
AcDbLine
 10
21969.51256544375
 20
7293.840149638594
 30
0.0
 11
21877.5886838895
 21
7293.840149638622
 31
0.0
  0
LINE
  5
23B
330
6C
100
AcDbEntity
  8
Visible (ISO)
100
AcDbLine
 10
22075.57858262174
 20
7293.840149638622
 30
0.0
 11
21983.65470106748
 21
7293.840149638594
 31
0.0
  0
LINE
  5
23C
330
6C
100
AcDbEntity
  8
Visible (ISO)
100
AcDbLine
 10
21983.65470106748
 20
7288.840149638594
 30
0.0
 11
22075.57858262174
 21
7288.840149638621
 31
0.0
  0
LINE
  5
23D
330
6C
100
AcDbEntity
  8
Visible (ISO)
100
AcDbLine
 10
21877.5886838895
 20
7288.840149638621
 30
0.0
 11
21969.51256544375
 21
7288.840149638594
 31
0.0
  0
LINE
  5
23E
330
6C
100
AcDbEntity
  8
Visible (ISO)
100
AcDbLine
 10
23577.5886838895
 20
7288.840149638611
 30
0.0
 11
23574.65975170136
 21
7288.840149638613
 31
0.0
  0
LINE
  5
23F
330
6C
100
AcDbEntity
  8
Visible (ISO)
100
AcDbLine
 10
23574.65975170136
 20
7293.840149638612
 30
0.0
 11
23577.5886838895
 21
7293.840149638609
 31
0.0
  0
LINE
  5
240
330
6C
100
AcDbEntity
  8
Visible (ISO)
100
AcDbLine
 10
23669.51256544375
 20
7293.840149638582
 30
0.0
 11
23683.65470106748
 21
7293.840149638582
 31
0.0
  0
LINE
  5
241
330
6C
100
AcDbEntity
  8
Visible (ISO)
100
AcDbLine
 10
23775.57858262173
 20
7293.840149638609
 30
0.0
 11
23778.50751480986
 21
7293.840149638612
 31
0.0
  0
LINE
  5
242
330
6C
100
AcDbEntity
  8
Visible (ISO)
100
AcDbLine
 10
23683.65470106748
 20
7288.840149638584
 30
0.0
 11
23669.51256544375
 21
7288.840149638584
 31
0.0
  0
LINE
  5
243
330
6C
100
AcDbEntity
  8
Visible (ISO)
100
AcDbLine
 10
23778.50751480986
 20
7288.840149638613
 30
0.0
 11
23775.57858262173
 21
7288.840149638611
 31
0.0
  0
LINE
  5
244
330
6C
100
AcDbEntity
  8
Visible (ISO)
100
AcDbLine
 10
23574.65975170136
 20
7293.840149638612
 30
0.0
 11
23574.65975170136
 21
7288.840149638613
 31
0.0
  0
LINE
  5
245
330
6C
100
AcDbEntity
  8
Visible (ISO)
100
AcDbLine
 10
23778.50751480986
 20
7288.840149638613
 30
0.0
 11
23778.50751480986
 21
7293.840149638612
 31
0.0
  0
LINE
  5
246
330
6C
100
AcDbEntity
  8
Visible (ISO)
100
AcDbLine
 10
23669.51256544375
 20
7293.840149638583
 30
0.0
 11
23577.5886838895
 21
7293.840149638612
 31
0.0
  0
LINE
  5
247
330
6C
100
AcDbEntity
  8
Visible (ISO)
100
AcDbLine
 10
23775.57858262173
 20
7293.840149638612
 30
0.0
 11
23683.65470106748
 21
7293.840149638583
 31
0.0
  0
LINE
  5
248
330
6C
100
AcDbEntity
  8
Visible (ISO)
100
AcDbLine
 10
23683.65470106748
 20
7288.840149638584
 30
0.0
 11
23775.57858262173
 21
7288.840149638611
 31
0.0
  0
LINE
  5
249
330
6C
100
AcDbEntity
  8
Visible (ISO)
100
AcDbLine
 10
23577.5886838895
 20
7288.840149638611
 30
0.0
 11
23669.51256544375
 21
7288.840149638584
 31
0.0
  0
LINE
  5
24A
330
6C
100
AcDbEntity
  8
Visible (ISO)
100
AcDbLine
 10
21876.58363325562
 20
7535.961469982588
 30
0.0
 11
21876.58363325562
 21
7533.840149639029
 31
0.0
  0
LINE
  5
24B
330
6C
100
AcDbEntity
  8
Visible (ISO)
100
AcDbLine
 10
21876.58363325562
 20
7556.467566637003
 30
0.0
 11
21876.58363325562
 21
7535.961469982588
 31
0.0
  0
LINE
  5
24C
330
6C
100
AcDbEntity
  8
Visible (ISO)
100
AcDbLine
 10
21876.58363325562
 20
7533.840149639029
 30
0.0
 11
21926.58363325562
 21
7533.840149639029
 31
0.0
  0
LINE
  5
24D
330
6C
100
AcDbEntity
  8
Visible (ISO)
100
AcDbLine
 10
21876.58363325562
 20
7535.961469982588
 30
0.0
 11
21926.58363325562
 21
7535.961469982588
 31
0.0
  0
LINE
  5
24E
330
6C
100
AcDbEntity
  8
Visible (ISO)
100
AcDbLine
 10
21876.58363325562
 20
7556.467566637005
 30
0.0
 11
21876.58363325562
 21
7558.224925949886
 31
0.0
  0
LINE
  5
24F
330
6C
100
AcDbEntity
  8
Visible (ISO)
100
AcDbLine
 10
21876.58363325562
 20
7558.224925949886
 30
0.0
 11
21926.58363325562
 21
7558.224925949886
 31
0.0
  0
LINE
  5
250
330
6C
100
AcDbEntity
  8
Visible (ISO)
100
AcDbLine
 10
22076.58363325562
 20
7558.224925949886
 30
0.0
 11
22076.58363325562
 21
7556.467566637005
 31
0.0
  0
LINE
  5
251
330
6C
100
AcDbEntity
  8
Visible (ISO)
100
AcDbLine
 10
22076.58363325562
 20
7558.224925949886
 30
0.0
 11
22026.58363325562
 21
7558.224925949886
 31
0.0
  0
LINE
  5
252
330
6C
100
AcDbEntity
  8
Visible (ISO)
100
AcDbLine
 10
22026.58363325562
 20
7533.840149639029
 30
0.0
 11
22076.58363325562
 21
7533.840149639029
 31
0.0
  0
LINE
  5
253
330
6C
100
AcDbEntity
  8
Visible (ISO)
100
AcDbLine
 10
22076.58363325562
 20
7535.961469982588
 30
0.0
 11
22076.58363325562
 21
7556.467566637003
 31
0.0
  0
LINE
  5
254
330
6C
100
AcDbEntity
  8
Visible (ISO)
100
AcDbLine
 10
22076.58363325562
 20
7535.961469982588
 30
0.0
 11
22076.58363325562
 21
7533.840149639029
 31
0.0
  0
LINE
  5
255
330
6C
100
AcDbEntity
  8
Visible (ISO)
100
AcDbLine
 10
22076.58363325562
 20
7535.961469982588
 30
0.0
 11
22026.58363325562
 21
7535.961469982588
 31
0.0
  0
ARC
  5
256
330
6C
100
AcDbEntity
  8
Visible (ISO)
100
AcDbCircle
 10
21976.58363325562
 20
7552.224925949443
 30
0.0
 40
5.999999999999999
100
AcDbArc
 50
45.00000000000838
 51
134.9999999999916
  0
ARC
  5
257
330
6C
100
AcDbEntity
  8
Visible (ISO)
100
AcDbCircle
 10
21976.58363325562
 20
7552.224925949443
 30
0.0
 40
2.999999999999998
100
AcDbArc
 50
45.0
 51
135.0
  0
LINE
  5
258
330
6C
100
AcDbEntity
  8
Visible (ISO)
100
AcDbLine
 10
21953.95621625765
 20
7533.840149638592
 30
0.0
 11
21974.46231291206
 21
7554.346246293002
 31
0.0
  0
LINE
  5
259
330
6C
100
AcDbEntity
  8
Visible (ISO)
100
AcDbLine
 10
21978.70495359918
 20
7554.346246293002
 30
0.0
 11
21999.21105025359
 21
7533.840149638592
 31
0.0
  0
LINE
  5
25A
330
6C
100
AcDbEntity
  8
Visible (ISO)
100
AcDbLine
 10
21972.3409925685
 20
7556.467566636563
 30
0.0
 11
21951.83489591409
 21
7535.961469982152
 31
0.0
  0
LINE
  5
25B
330
6C
100
AcDbEntity
  8
Visible (ISO)
100
AcDbLine
 10
21951.83489591409
 20
7535.961469982152
 30
0.0
 11
21953.95621625765
 21
7533.840149638592
 31
0.0
  0
LINE
  5
25C
330
6C
100
AcDbEntity
  8
Visible (ISO)
100
AcDbLine
 10
22001.33237059715
 20
7535.961469982152
 30
0.0
 11
21999.21105025359
 21
7533.840149638592
 31
0.0
  0
LINE
  5
25D
330
6C
100
AcDbEntity
  8
Visible (ISO)
100
AcDbLine
 10
22001.33237059715
 20
7535.961469982152
 30
0.0
 11
21980.82627394274
 21
7556.467566636563
 31
0.0
  0
LINE
  5
25E
330
6C
100
AcDbEntity
  8
Visible (ISO)
100
AcDbLine
 10
23776.58363325561
 20
7556.467566636581
 30
0.0
 11
23776.58363325561
 21
7558.224925949464
 31
0.0
  0
LINE
  5
25F
330
6C
100
AcDbEntity
  8
Visible (ISO)
100
AcDbLine
 10
23726.58363325562
 20
7558.224925949464
 30
0.0
 11
23776.58363325561
 21
7558.224925949464
 31
0.0
  0
LINE
  5
260
330
6C
100
AcDbEntity
  8
Visible (ISO)
100
AcDbLine
 10
23726.58363325562
 20
7533.840149638606
 30
0.0
 11
23776.58363325561
 21
7533.840149638606
 31
0.0
  0
LINE
  5
261
330
6C
100
AcDbEntity
  8
Visible (ISO)
100
AcDbLine
 10
23776.58363325561
 20
7556.467566636581
 30
0.0
 11
23776.58363325561
 21
7535.961469982166
 31
0.0
  0
LINE
  5
262
330
6C
100
AcDbEntity
  8
Visible (ISO)
100
AcDbLine
 10
23776.58363325561
 20
7535.961469982166
 30
0.0
 11
23776.58363325561
 21
7533.840149638606
 31
0.0
  0
LINE
  5
263
330
6C
100
AcDbEntity
  8
Visible (ISO)
100
AcDbLine
 10
23726.58363325562
 20
7535.961469982166
 30
0.0
 11
23776.58363325561
 21
7535.961469982166
 31
0.0
  0
LINE
  5
264
330
6C
100
AcDbEntity
  8
Visible (ISO)
100
AcDbLine
 10
23576.58363325561
 20
7558.224925949464
 30
0.0
 11
23576.58363325561
 21
7556.467566636581
 31
0.0
  0
LINE
  5
265
330
6C
100
AcDbEntity
  8
Visible (ISO)
100
AcDbLine
 10
23626.58363325561
 20
7558.224925949464
 30
0.0
 11
23576.58363325561
 21
7558.224925949464
 31
0.0
  0
LINE
  5
266
330
6C
100
AcDbEntity
  8
Visible (ISO)
100
AcDbLine
 10
23576.58363325561
 20
7533.840149638606
 30
0.0
 11
23626.58363325561
 21
7533.840149638606
 31
0.0
  0
LINE
  5
267
330
6C
100
AcDbEntity
  8
Visible (ISO)
100
AcDbLine
 10
23576.58363325561
 20
7535.961469982166
 30
0.0
 11
23576.58363325561
 21
7533.840149638606
 31
0.0
  0
LINE
  5
268
330
6C
100
AcDbEntity
  8
Visible (ISO)
100
AcDbLine
 10
23576.58363325561
 20
7535.961469982166
 30
0.0
 11
23576.58363325561
 21
7556.467566636581
 31
0.0
  0
LINE
  5
269
330
6C
100
AcDbEntity
  8
Visible (ISO)
100
AcDbLine
 10
23626.58363325561
 20
7535.961469982166
 30
0.0
 11
23576.58363325561
 21
7535.961469982166
 31
0.0
  0
LINE
  5
26A
330
6C
100
AcDbEntity
  8
Visible (ISO)
100
AcDbLine
 10
22021.58363325562
 20
10143.8401496386
 30
0.0
 11
21931.58363325562
 21
10143.8401496386
 31
0.0
  0
LINE
  5
26B
330
6C
100
AcDbEntity
  8
Visible (ISO)
100
AcDbLine
 10
21926.58363325562
 20
10143.84014963861
 30
0.0
 11
21926.58363325562
 21
7843.840149638606
 31
0.0
  0
LINE
  5
26C
330
6C
100
AcDbEntity
  8
Visible (ISO)
100
AcDbLine
 10
21926.58363325562
 20
7833.840149638607
 30
0.0
 11
21926.58363325562
 21
7293.840149638609
 31
0.0
  0
LINE
  5
26D
330
6C
100
AcDbEntity
  8
Visible (ISO)
100
AcDbLine
 10
22026.58363325562
 20
7293.840149638609
 30
0.0
 11
22026.58363325562
 21
7833.840149638607
 31
0.0
  0
LINE
  5
26E
330
6C
100
AcDbEntity
  8
Visible (ISO)
100
AcDbLine
 10
22026.58363325562
 20
7843.840149638606
 30
0.0
 11
22026.58363325562
 21
10143.84014963861
 31
0.0
  0
LINE
  5
26F
330
6C
100
AcDbEntity
  8
Visible (ISO)
100
AcDbLine
 10
23726.58363325561
 20
7293.840149638599
 30
0.0
 11
23726.58363325561
 21
7833.840149638604
 31
0.0
  0
LINE
  5
270
330
6C
100
AcDbEntity
  8
Visible (ISO)
100
AcDbLine
 10
23726.58363325561
 20
7843.840149638605
 30
0.0
 11
23726.58363325561
 21
10143.8401496386
 31
0.0
  0
LINE
  5
271
330
6C
100
AcDbEntity
  8
Visible (ISO)
100
AcDbLine
 10
23626.58363325561
 20
10143.8401496386
 30
0.0
 11
23626.58363325561
 21
7843.840149638605
 31
0.0
  0
LINE
  5
272
330
6C
100
AcDbEntity
  8
Visible (ISO)
100
AcDbLine
 10
23626.58363325561
 20
7833.840149638604
 30
0.0
 11
23626.58363325561
 21
7293.840149638599
 31
0.0
  0
LINE
  5
273
330
6C
100
AcDbEntity
  8
Visible (ISO)
100
AcDbLine
 10
23721.58363325561
 20
10143.8401496386
 30
0.0
 11
23631.58363325561
 21
10143.8401496386
 31
0.0
  0
LINE
  5
274
330
6C
100
AcDbEntity
  8
Visible (ISO)
100
AcDbLine
 10
23621.58363325562
 20
9461.990149639039
 30
0.0
 11
22031.58363325562
 21
9461.990149639039
 31
0.0
  0
LINE
  5
275
330
6C
100
AcDbEntity
  8
Visible (ISO)
100
AcDbLine
 10
23621.58363325562
 20
9495.690149639036
 30
0.0
 11
22031.58363325562
 21
9495.690149639036
 31
0.0
  0
LINE
  5
276
330
6C
100
AcDbEntity
  8
Visible (ISO)
100
AcDbLine
 10
22031.58363325562
 20
10095.69014963862
 30
0.0
 11
23621.58363325561
 21
10095.69014963862
 31
0.0
  0
LINE
  5
277
330
6C
100
AcDbEntity
  8
Visible (ISO)
100
AcDbLine
 10
22031.58363325562
 20
10061.99014963862
 30
0.0
 11
23621.58363325561
 21
10061.99014963862
 31
0.0
  0
LINE
  5
278
330
6C
100
AcDbEntity
  8
Visible (ISO)
100
AcDbLine
 10
23621.58363325562
 20
9431.340149639028
 30
0.0
 11
23621.58363325562
 21
9441.340149639028
 31
0.0
  0
LINE
  5
279
330
6C
100
AcDbEntity
  8
Visible (ISO)
100
AcDbLine
 10
23621.58363325562
 20
9431.340149639028
 30
0.0
 11
23626.58363325562
 21
9431.340149639028
 31
0.0
  0
LINE
  5
27A
330
6C
100
AcDbEntity
  8
Visible (ISO)
100
AcDbLine
 10
23626.58363325562
 20
9526.340149639029
 30
0.0
 11
23621.58363325562
 21
9526.340149639029
 31
0.0
  0
LINE
  5
27B
330
6C
100
AcDbEntity
  8
Visible (ISO)
100
AcDbLine
 10
23621.58363325562
 20
9516.340149639026
 30
0.0
 11
23621.58363325562
 21
9526.340149639029
 31
0.0
  0
LINE
  5
27C
330
6C
100
AcDbEntity
  8
Visible (ISO)
100
AcDbLine
 10
23621.58363325562
 20
9516.340149639026
 30
0.0
 11
23621.58363325562
 21
9441.340149639025
 31
0.0
  0
LINE
  5
27D
330
6C
100
AcDbEntity
  8
Visible (ISO)
100
AcDbLine
 10
22026.58363325562
 20
9431.340149639028
 30
0.0
 11
22031.58363325562
 21
9431.340149639028
 31
0.0
  0
LINE
  5
27E
330
6C
100
AcDbEntity
  8
Visible (ISO)
100
AcDbLine
 10
22031.58363325562
 20
9441.340149639028
 30
0.0
 11
22031.58363325562
 21
9431.340149639028
 31
0.0
  0
LINE
  5
27F
330
6C
100
AcDbEntity
  8
Visible (ISO)
100
AcDbLine
 10
22031.58363325562
 20
9526.340149639029
 30
0.0
 11
22031.58363325562
 21
9516.340149639026
 31
0.0
  0
LINE
  5
280
330
6C
100
AcDbEntity
  8
Visible (ISO)
100
AcDbLine
 10
22031.58363325562
 20
9526.340149639029
 30
0.0
 11
22026.58363325562
 21
9526.340149639029
 31
0.0
  0
LINE
  5
281
330
6C
100
AcDbEntity
  8
Visible (ISO)
100
AcDbLine
 10
22031.58363325562
 20
9441.340149639025
 30
0.0
 11
22031.58363325562
 21
9516.340149639026
 31
0.0
  0
LINE
  5
282
330
6C
100
AcDbEntity
  8
Visible (ISO)
100
AcDbLine
 10
22026.58363325562
 20
10031.34014963861
 30
0.0
 11
22031.58363325562
 21
10031.34014963861
 31
0.0
  0
LINE
  5
283
330
6C
100
AcDbEntity
  8
Visible (ISO)
100
AcDbLine
 10
22031.58363325562
 20
10041.34014963861
 30
0.0
 11
22031.58363325562
 21
10031.34014963861
 31
0.0
  0
LINE
  5
284
330
6C
100
AcDbEntity
  8
Visible (ISO)
100
AcDbLine
 10
22031.58363325562
 20
10126.34014963861
 30
0.0
 11
22031.58363325562
 21
10116.34014963861
 31
0.0
  0
LINE
  5
285
330
6C
100
AcDbEntity
  8
Visible (ISO)
100
AcDbLine
 10
22031.58363325562
 20
10126.34014963861
 30
0.0
 11
22026.58363325562
 21
10126.34014963861
 31
0.0
  0
LINE
  5
286
330
6C
100
AcDbEntity
  8
Visible (ISO)
100
AcDbLine
 10
22031.58363325562
 20
10041.34014963861
 30
0.0
 11
22031.58363325562
 21
10116.34014963861
 31
0.0
  0
LINE
  5
287
330
6C
100
AcDbEntity
  8
Visible (ISO)
100
AcDbLine
 10
23621.58363325562
 20
10031.34014963861
 30
0.0
 11
23621.58363325562
 21
10041.34014963861
 31
0.0
  0
LINE
  5
288
330
6C
100
AcDbEntity
  8
Visible (ISO)
100
AcDbLine
 10
23621.58363325562
 20
10031.34014963861
 30
0.0
 11
23626.58363325561
 21
10031.34014963861
 31
0.0
  0
LINE
  5
289
330
6C
100
AcDbEntity
  8
Visible (ISO)
100
AcDbLine
 10
23626.58363325561
 20
10126.34014963861
 30
0.0
 11
23621.58363325562
 21
10126.34014963861
 31
0.0
  0
LINE
  5
28A
330
6C
100
AcDbEntity
  8
Visible (ISO)
100
AcDbLine
 10
23621.58363325562
 20
10116.34014963861
 30
0.0
 11
23621.58363325562
 21
10126.34014963861
 31
0.0
  0
LINE
  5
28B
330
6C
100
AcDbEntity
  8
Visible (ISO)
100
AcDbLine
 10
23621.58363325562
 20
10116.34014963861
 30
0.0
 11
23621.58363325562
 21
10041.34014963861
 31
0.0
  0
LINE
  5
28C
330
6C
100
AcDbEntity
  8
Visible (ISO)
100
AcDbLine
 10
23726.58363325561
 20
10143.8401496386
 30
0.0
 11
23723.58363325561
 21
10143.8401496386
 31
0.0
  0
LINE
  5
28D
330
6C
100
AcDbEntity
  8
Visible (ISO)
100
AcDbLine
 10
23629.58363325561
 20
10143.8401496386
 30
0.0
 11
23626.58363325561
 21
10143.8401496386
 31
0.0
  0
ARC
  5
28E
330
6C
100
AcDbEntity
  8
Visible (ISO)
100
AcDbCircle
 10
23629.58363325561
 20
10145.8401496386
 30
0.0
 40
3.000000000000007
100
AcDbArc
 50
90.0
 51
180.0
  0
LINE
  5
28F
330
6C
100
AcDbEntity
  8
Visible (ISO)
100
AcDbLine
 10
23626.58363325561
 20
10145.8401496386
 30
0.0
 11
23626.58363325561
 21
10143.8401496386
 31
0.0
  0
ARC
  5
290
330
6C
100
AcDbEntity
  8
Visible (ISO)
100
AcDbCircle
 10
23723.58363325561
 20
10145.8401496386
 30
0.0
 40
3.000000000000012
100
AcDbArc
 50
0.0
 51
90.0
  0
LINE
  5
291
330
6C
100
AcDbEntity
  8
Visible (ISO)
100
AcDbLine
 10
23726.58363325561
 20
10143.8401496386
 30
0.0
 11
23726.58363325561
 21
10145.8401496386
 31
0.0
  0
LINE
  5
292
330
6C
100
AcDbEntity
  8
Visible (ISO)
100
AcDbLine
 10
23723.58363325561
 20
10148.8401496386
 30
0.0
 11
23629.58363325561
 21
10148.8401496386
 31
0.0
  0
LINE
  5
293
330
6C
100
AcDbEntity
  8
Visible (ISO)
100
AcDbLine
 10
23723.58363325561
 20
10143.8401496386
 30
0.0
 11
23629.58363325561
 21
10143.8401496386
 31
0.0
  0
LINE
  5
294
330
6C
100
AcDbEntity
  8
Visible (ISO)
100
AcDbLine
 10
22026.58363325562
 20
10143.84014963861
 30
0.0
 11
22023.58363325562
 21
10143.8401496386
 31
0.0
  0
LINE
  5
295
330
6C
100
AcDbEntity
  8
Visible (ISO)
100
AcDbLine
 10
21929.58363325562
 20
10143.8401496386
 30
0.0
 11
21926.58363325562
 21
10143.84014963861
 31
0.0
  0
ARC
  5
296
330
6C
100
AcDbEntity
  8
Visible (ISO)
100
AcDbCircle
 10
21929.58363325562
 20
10145.8401496386
 30
0.0
 40
3.000000000000002
100
AcDbArc
 50
90.0
 51
180.0
  0
LINE
  5
297
330
6C
100
AcDbEntity
  8
Visible (ISO)
100
AcDbLine
 10
21926.58363325562
 20
10145.8401496386
 30
0.0
 11
21926.58363325562
 21
10143.84014963861
 31
0.0
  0
ARC
  5
298
330
6C
100
AcDbEntity
  8
Visible (ISO)
100
AcDbCircle
 10
22023.58363325562
 20
10145.8401496386
 30
0.0
 40
3.000000000000008
100
AcDbArc
 50
0.0
 51
90.0
  0
LINE
  5
299
330
6C
100
AcDbEntity
  8
Visible (ISO)
100
AcDbLine
 10
22026.58363325562
 20
10143.84014963861
 30
0.0
 11
22026.58363325562
 21
10145.8401496386
 31
0.0
  0
LINE
  5
29A
330
6C
100
AcDbEntity
  8
Visible (ISO)
100
AcDbLine
 10
22023.58363325562
 20
10148.8401496386
 30
0.0
 11
21929.58363325562
 21
10148.8401496386
 31
0.0
  0
LINE
  5
29B
330
6C
100
AcDbEntity
  8
Visible (ISO)
100
AcDbLine
 10
22023.58363325562
 20
10143.8401496386
 30
0.0
 11
21929.58363325562
 21
10143.8401496386
 31
0.0
  0
LINE
  5
29C
330
6C
100
AcDbEntity
  8
Visible (ISO)
100
AcDbLine
 10
23619.38363325562
 20
9434.790149639029
 30
0.0
 11
23619.38363325562
 21
9452.890149639028
 31
0.0
  0
LINE
  5
29D
330
6C
100
AcDbEntity
  8
Visible (ISO)
100
AcDbLine
 10
23621.58363325562
 20
9434.790149639029
 30
0.0
 11
23619.38363325562
 21
9434.790149639029
 31
0.0
  0
LINE
  5
29E
330
6C
100
AcDbEntity
  8
Visible (ISO)
100
AcDbLine
 10
23621.58363325562
 20
9452.890149639028
 30
0.0
 11
23619.38363325562
 21
9452.890149639028
 31
0.0
  0
LINE
  5
29F
330
6C
100
AcDbEntity
  8
Visible (ISO)
100
AcDbLine
 10
23619.38363325562
 20
9504.790149639029
 30
0.0
 11
23619.38363325562
 21
9522.890149639028
 31
0.0
  0
LINE
  5
2A0
330
6C
100
AcDbEntity
  8
Visible (ISO)
100
AcDbLine
 10
23621.58363325562
 20
9504.790149639029
 30
0.0
 11
23619.38363325562
 21
9504.790149639029
 31
0.0
  0
LINE
  5
2A1
330
6C
100
AcDbEntity
  8
Visible (ISO)
100
AcDbLine
 10
23621.58363325562
 20
9522.890149639028
 30
0.0
 11
23619.38363325562
 21
9522.890149639028
 31
0.0
  0
LINE
  5
2A2
330
6C
100
AcDbEntity
  8
Visible (ISO)
100
AcDbLine
 10
22033.78363325562
 20
9445.550320231243
 30
0.0
 11
22031.58363325562
 21
9444.280149639025
 31
0.0
  0
LINE
  5
2A3
330
6C
100
AcDbEntity
  8
Visible (ISO)
100
AcDbLine
 10
22031.58363325562
 20
9443.400149639026
 30
0.0
 11
22033.78363325562
 21
9444.670320231244
 31
0.0
  0
LINE
  5
2A4
330
6C
100
AcDbEntity
  8
Visible (ISO)
100
AcDbLine
 10
22033.78363325562
 20
9452.890149639028
 30
0.0
 11
22033.78363325562
 21
9445.550320231243
 31
0.0
  0
LINE
  5
2A5
330
6C
100
AcDbEntity
  8
Visible (ISO)
100
AcDbLine
 10
22033.78363325562
 20
9444.670320231244
 30
0.0
 11
22033.78363325562
 21
9434.790149639029
 31
0.0
  0
LINE
  5
2A6
330
6C
100
AcDbEntity
  8
Visible (ISO)
100
AcDbLine
 10
22031.58363325562
 20
9452.890149639028
 30
0.0
 11
22033.78363325562
 21
9452.890149639028
 31
0.0
  0
LINE
  5
2A7
330
6C
100
AcDbEntity
  8
Visible (ISO)
100
AcDbLine
 10
22031.58363325562
 20
9434.790149639029
 30
0.0
 11
22033.78363325562
 21
9434.790149639029
 31
0.0
  0
LINE
  5
2A8
330
6C
100
AcDbEntity
  8
Visible (ISO)
100
AcDbLine
 10
22033.78363325562
 20
9515.550320231245
 30
0.0
 11
22031.58363325562
 21
9514.280149639027
 31
0.0
  0
LINE
  5
2A9
330
6C
100
AcDbEntity
  8
Visible (ISO)
100
AcDbLine
 10
22031.58363325562
 20
9513.400149639029
 30
0.0
 11
22033.78363325562
 21
9514.670320231244
 31
0.0
  0
LINE
  5
2AA
330
6C
100
AcDbEntity
  8
Visible (ISO)
100
AcDbLine
 10
22033.78363325562
 20
9522.89014963903
 30
0.0
 11
22033.78363325562
 21
9515.550320231245
 31
0.0
  0
LINE
  5
2AB
330
6C
100
AcDbEntity
  8
Visible (ISO)
100
AcDbLine
 10
22033.78363325562
 20
9514.670320231244
 30
0.0
 11
22033.78363325562
 21
9504.790149639029
 31
0.0
  0
LINE
  5
2AC
330
6C
100
AcDbEntity
  8
Visible (ISO)
100
AcDbLine
 10
22031.58363325562
 20
9522.89014963903
 30
0.0
 11
22033.78363325562
 21
9522.89014963903
 31
0.0
  0
LINE
  5
2AD
330
6C
100
AcDbEntity
  8
Visible (ISO)
100
AcDbLine
 10
22031.58363325562
 20
9504.790149639029
 30
0.0
 11
22033.78363325562
 21
9504.790149639029
 31
0.0
  0
LINE
  5
2AE
330
6C
100
AcDbEntity
  8
Visible (ISO)
100
AcDbLine
 10
22033.78363325562
 20
10045.55032023083
 30
0.0
 11
22031.58363325562
 21
10044.28014963861
 31
0.0
  0
LINE
  5
2AF
330
6C
100
AcDbEntity
  8
Visible (ISO)
100
AcDbLine
 10
22031.58363325562
 20
10043.40014963861
 30
0.0
 11
22033.78363325562
 21
10044.67032023083
 31
0.0
  0
LINE
  5
2B0
330
6C
100
AcDbEntity
  8
Visible (ISO)
100
AcDbLine
 10
22033.78363325562
 20
10052.89014963861
 30
0.0
 11
22033.78363325562
 21
10045.55032023083
 31
0.0
  0
LINE
  5
2B1
330
6C
100
AcDbEntity
  8
Visible (ISO)
100
AcDbLine
 10
22033.78363325562
 20
10044.67032023083
 30
0.0
 11
22033.78363325562
 21
10034.79014963861
 31
0.0
  0
LINE
  5
2B2
330
6C
100
AcDbEntity
  8
Visible (ISO)
100
AcDbLine
 10
22031.58363325562
 20
10052.89014963861
 30
0.0
 11
22033.78363325562
 21
10052.89014963861
 31
0.0
  0
LINE
  5
2B3
330
6C
100
AcDbEntity
  8
Visible (ISO)
100
AcDbLine
 10
22031.58363325562
 20
10034.79014963861
 30
0.0
 11
22033.78363325562
 21
10034.79014963861
 31
0.0
  0
LINE
  5
2B4
330
6C
100
AcDbEntity
  8
Visible (ISO)
100
AcDbLine
 10
22033.78363325562
 20
10115.55032023083
 30
0.0
 11
22031.58363325562
 21
10114.28014963861
 31
0.0
  0
LINE
  5
2B5
330
6C
100
AcDbEntity
  8
Visible (ISO)
100
AcDbLine
 10
22031.58363325562
 20
10113.40014963861
 30
0.0
 11
22033.78363325562
 21
10114.67032023083
 31
0.0
  0
LINE
  5
2B6
330
6C
100
AcDbEntity
  8
Visible (ISO)
100
AcDbLine
 10
22033.78363325562
 20
10122.89014963861
 30
0.0
 11
22033.78363325562
 21
10115.55032023083
 31
0.0
  0
LINE
  5
2B7
330
6C
100
AcDbEntity
  8
Visible (ISO)
100
AcDbLine
 10
22033.78363325562
 20
10114.67032023083
 30
0.0
 11
22033.78363325562
 21
10104.79014963861
 31
0.0
  0
LINE
  5
2B8
330
6C
100
AcDbEntity
  8
Visible (ISO)
100
AcDbLine
 10
22031.58363325562
 20
10122.89014963861
 30
0.0
 11
22033.78363325562
 21
10122.89014963861
 31
0.0
  0
LINE
  5
2B9
330
6C
100
AcDbEntity
  8
Visible (ISO)
100
AcDbLine
 10
22031.58363325562
 20
10104.79014963861
 30
0.0
 11
22033.78363325562
 21
10104.79014963861
 31
0.0
  0
LINE
  5
2BA
330
6C
100
AcDbEntity
  8
Visible (ISO)
100
AcDbLine
 10
23619.38363325561
 20
10034.79014963861
 30
0.0
 11
23619.38363325561
 21
10052.89014963861
 31
0.0
  0
LINE
  5
2BB
330
6C
100
AcDbEntity
  8
Visible (ISO)
100
AcDbLine
 10
23621.58363325561
 20
10034.79014963861
 30
0.0
 11
23619.38363325561
 21
10034.79014963861
 31
0.0
  0
LINE
  5
2BC
330
6C
100
AcDbEntity
  8
Visible (ISO)
100
AcDbLine
 10
23621.58363325561
 20
10052.89014963861
 30
0.0
 11
23619.38363325561
 21
10052.89014963861
 31
0.0
  0
LINE
  5
2BD
330
6C
100
AcDbEntity
  8
Visible (ISO)
100
AcDbLine
 10
23619.38363325561
 20
10104.79014963861
 30
0.0
 11
23619.38363325561
 21
10122.89014963861
 31
0.0
  0
LINE
  5
2BE
330
6C
100
AcDbEntity
  8
Visible (ISO)
100
AcDbLine
 10
23621.58363325561
 20
10104.79014963861
 30
0.0
 11
23619.38363325561
 21
10104.79014963861
 31
0.0
  0
LINE
  5
2BF
330
6C
100
AcDbEntity
  8
Visible (ISO)
100
AcDbLine
 10
23621.58363325561
 20
10122.89014963861
 30
0.0
 11
23619.38363325561
 21
10122.89014963861
 31
0.0
  0
LINE
  5
2C0
330
6C
100
AcDbEntity
  8
Visible (ISO)
100
AcDbLine
 10
23613.88363325562
 20
9439.140149639028
 30
0.0
 11
23613.88363325562
 21
9448.540149639029
 31
0.0
  0
ARC
  5
2C1
330
6C
100
AcDbEntity
  8
Visible (ISO)
100
AcDbCircle
 10
23617.93363325562
 20
9439.140149639028
 30
0.0
 40
4.049999999999999
100
AcDbArc
 50
180.0
 51
270.0
  0
ARC
  5
2C2
330
6C
100
AcDbEntity
  8
Visible (ISO)
100
AcDbCircle
 10
23617.93363325562
 20
9448.540149639029
 30
0.0
 40
4.049999999999999
100
AcDbArc
 50
90.0
 51
180.0
  0
LINE
  5
2C3
330
6C
100
AcDbEntity
  8
Visible (ISO)
100
AcDbLine
 10
23617.93363325562
 20
9452.590149639028
 30
0.0
 11
23619.38363325562
 21
9452.590149639028
 31
0.0
  0
LINE
  5
2C4
330
6C
100
AcDbEntity
  8
Visible (ISO)
100
AcDbLine
 10
23617.93363325562
 20
9435.090149639028
 30
0.0
 11
23619.38363325562
 21
9435.090149639028
 31
0.0
  0
LINE
  5
2C5
330
6C
100
AcDbEntity
  8
Visible (ISO)
100
AcDbLine
 10
23613.88363325562
 20
9509.140149639028
 30
0.0
 11
23613.88363325562
 21
9518.540149639029
 31
0.0
  0
ARC
  5
2C6
330
6C
100
AcDbEntity
  8
Visible (ISO)
100
AcDbCircle
 10
23617.93363325562
 20
9509.140149639028
 30
0.0
 40
4.049999999999999
100
AcDbArc
 50
180.0
 51
270.0
  0
ARC
  5
2C7
330
6C
100
AcDbEntity
  8
Visible (ISO)
100
AcDbCircle
 10
23617.93363325562
 20
9518.540149639029
 30
0.0
 40
4.049999999999999
100
AcDbArc
 50
90.0
 51
180.0
  0
LINE
  5
2C8
330
6C
100
AcDbEntity
  8
Visible (ISO)
100
AcDbLine
 10
23617.93363325562
 20
9522.590149639027
 30
0.0
 11
23619.38363325562
 21
9522.590149639027
 31
0.0
  0
LINE
  5
2C9
330
6C
100
AcDbEntity
  8
Visible (ISO)
100
AcDbLine
 10
23617.93363325562
 20
9505.090149639029
 30
0.0
 11
23619.38363325562
 21
9505.090149639029
 31
0.0
  0
LINE
  5
2CA
330
6C
100
AcDbEntity
  8
Visible (ISO)
100
AcDbLine
 10
22033.78363325562
 20
9445.550320231243
 30
0.0
 11
22033.78363325562
 21
9444.670320231244
 31
0.0
  0
LINE
  5
2CB
330
6C
100
AcDbEntity
  8
Visible (ISO)
100
AcDbLine
 10
22035.23363325562
 20
9435.090149639028
 30
0.0
 11
22033.78363325562
 21
9435.090149639028
 31
0.0
  0
LINE
  5
2CC
330
6C
100
AcDbEntity
  8
Visible (ISO)
100
AcDbLine
 10
22035.23363325562
 20
9452.590149639028
 30
0.0
 11
22033.78363325562
 21
9452.590149639028
 31
0.0
  0
LINE
  5
2CD
330
6C
100
AcDbEntity
  8
Visible (ISO)
100
AcDbLine
 10
22039.28363325562
 20
9448.540149639029
 30
0.0
 11
22039.28363325562
 21
9439.140149639028
 31
0.0
  0
ARC
  5
2CE
330
6C
100
AcDbEntity
  8
Visible (ISO)
100
AcDbCircle
 10
22035.23363325562
 20
9448.540149639029
 30
0.0
 40
4.050000000000005
100
AcDbArc
 50
0.0
 51
90.0
  0
ARC
  5
2CF
330
6C
100
AcDbEntity
  8
Visible (ISO)
100
AcDbCircle
 10
22035.23363325562
 20
9439.140149639028
 30
0.0
 40
4.050000000000005
100
AcDbArc
 50
270.0
 51
0.0
  0
LINE
  5
2D0
330
6C
100
AcDbEntity
  8
Visible (ISO)
100
AcDbLine
 10
22033.78363325562
 20
9515.550320231245
 30
0.0
 11
22033.78363325562
 21
9514.670320231244
 31
0.0
  0
LINE
  5
2D1
330
6C
100
AcDbEntity
  8
Visible (ISO)
100
AcDbLine
 10
22035.23363325562
 20
9505.09014963903
 30
0.0
 11
22033.78363325562
 21
9505.09014963903
 31
0.0
  0
LINE
  5
2D2
330
6C
100
AcDbEntity
  8
Visible (ISO)
100
AcDbLine
 10
22035.23363325562
 20
9522.590149639029
 30
0.0
 11
22033.78363325562
 21
9522.590149639029
 31
0.0
  0
LINE
  5
2D3
330
6C
100
AcDbEntity
  8
Visible (ISO)
100
AcDbLine
 10
22039.28363325562
 20
9518.540149639029
 30
0.0
 11
22039.28363325562
 21
9509.140149639028
 31
0.0
  0
ARC
  5
2D4
330
6C
100
AcDbEntity
  8
Visible (ISO)
100
AcDbCircle
 10
22035.23363325562
 20
9518.540149639029
 30
0.0
 40
4.050000000000005
100
AcDbArc
 50
0.0
 51
90.0
  0
ARC
  5
2D5
330
6C
100
AcDbEntity
  8
Visible (ISO)
100
AcDbCircle
 10
22035.23363325562
 20
9509.140149639028
 30
0.0
 40
4.050000000000005
100
AcDbArc
 50
270.0
 51
0.0
  0
LINE
  5
2D6
330
6C
100
AcDbEntity
  8
Visible (ISO)
100
AcDbLine
 10
22033.78363325562
 20
10045.55032023083
 30
0.0
 11
22033.78363325562
 21
10044.67032023083
 31
0.0
  0
LINE
  5
2D7
330
6C
100
AcDbEntity
  8
Visible (ISO)
100
AcDbLine
 10
22035.23363325562
 20
10035.09014963861
 30
0.0
 11
22033.78363325562
 21
10035.09014963861
 31
0.0
  0
LINE
  5
2D8
330
6C
100
AcDbEntity
  8
Visible (ISO)
100
AcDbLine
 10
22035.23363325562
 20
10052.59014963861
 30
0.0
 11
22033.78363325562
 21
10052.59014963861
 31
0.0
  0
LINE
  5
2D9
330
6C
100
AcDbEntity
  8
Visible (ISO)
100
AcDbLine
 10
22039.28363325562
 20
10048.54014963861
 30
0.0
 11
22039.28363325562
 21
10039.14014963861
 31
0.0
  0
ARC
  5
2DA
330
6C
100
AcDbEntity
  8
Visible (ISO)
100
AcDbCircle
 10
22035.23363325562
 20
10048.54014963861
 30
0.0
 40
4.050000000000002
100
AcDbArc
 50
0.0
 51
90.0
  0
ARC
  5
2DB
330
6C
100
AcDbEntity
  8
Visible (ISO)
100
AcDbCircle
 10
22035.23363325562
 20
10039.14014963861
 30
0.0
 40
4.050000000000002
100
AcDbArc
 50
270.0
 51
0.0
  0
LINE
  5
2DC
330
6C
100
AcDbEntity
  8
Visible (ISO)
100
AcDbLine
 10
22033.78363325562
 20
10115.55032023083
 30
0.0
 11
22033.78363325562
 21
10114.67032023083
 31
0.0
  0
LINE
  5
2DD
330
6C
100
AcDbEntity
  8
Visible (ISO)
100
AcDbLine
 10
22035.23363325562
 20
10105.09014963861
 30
0.0
 11
22033.78363325562
 21
10105.09014963861
 31
0.0
  0
LINE
  5
2DE
330
6C
100
AcDbEntity
  8
Visible (ISO)
100
AcDbLine
 10
22035.23363325562
 20
10122.59014963861
 30
0.0
 11
22033.78363325562
 21
10122.59014963861
 31
0.0
  0
LINE
  5
2DF
330
6C
100
AcDbEntity
  8
Visible (ISO)
100
AcDbLine
 10
22039.28363325562
 20
10118.54014963861
 30
0.0
 11
22039.28363325562
 21
10109.14014963861
 31
0.0
  0
ARC
  5
2E0
330
6C
100
AcDbEntity
  8
Visible (ISO)
100
AcDbCircle
 10
22035.23363325562
 20
10118.54014963861
 30
0.0
 40
4.049999999999999
100
AcDbArc
 50
0.0
 51
90.0
  0
ARC
  5
2E1
330
6C
100
AcDbEntity
  8
Visible (ISO)
100
AcDbCircle
 10
22035.23363325562
 20
10109.14014963861
 30
0.0
 40
4.049999999999999
100
AcDbArc
 50
270.0
 51
0.0
  0
LINE
  5
2E2
330
6C
100
AcDbEntity
  8
Visible (ISO)
100
AcDbLine
 10
23613.88363325561
 20
10039.14014963861
 30
0.0
 11
23613.88363325561
 21
10048.54014963861
 31
0.0
  0
ARC
  5
2E3
330
6C
100
AcDbEntity
  8
Visible (ISO)
100
AcDbCircle
 10
23617.93363325562
 20
10039.14014963861
 30
0.0
 40
4.050000000000004
100
AcDbArc
 50
180.0
 51
270.0
  0
ARC
  5
2E4
330
6C
100
AcDbEntity
  8
Visible (ISO)
100
AcDbCircle
 10
23617.93363325562
 20
10048.54014963861
 30
0.0
 40
4.050000000000005
100
AcDbArc
 50
90.0
 51
180.0
  0
LINE
  5
2E5
330
6C
100
AcDbEntity
  8
Visible (ISO)
100
AcDbLine
 10
23617.93363325562
 20
10052.59014963861
 30
0.0
 11
23619.38363325561
 21
10052.59014963861
 31
0.0
  0
LINE
  5
2E6
330
6C
100
AcDbEntity
  8
Visible (ISO)
100
AcDbLine
 10
23617.93363325562
 20
10035.09014963861
 30
0.0
 11
23619.38363325561
 21
10035.09014963861
 31
0.0
  0
LINE
  5
2E7
330
6C
100
AcDbEntity
  8
Visible (ISO)
100
AcDbLine
 10
23613.88363325561
 20
10109.14014963861
 30
0.0
 11
23613.88363325561
 21
10118.54014963861
 31
0.0
  0
ARC
  5
2E8
330
6C
100
AcDbEntity
  8
Visible (ISO)
100
AcDbCircle
 10
23617.93363325562
 20
10109.14014963861
 30
0.0
 40
4.050000000000004
100
AcDbArc
 50
180.0
 51
270.0
  0
ARC
  5
2E9
330
6C
100
AcDbEntity
  8
Visible (ISO)
100
AcDbCircle
 10
23617.93363325562
 20
10118.54014963861
 30
0.0
 40
4.050000000000005
100
AcDbArc
 50
90.0
 51
180.0
  0
LINE
  5
2EA
330
6C
100
AcDbEntity
  8
Visible (ISO)
100
AcDbLine
 10
23617.93363325562
 20
10122.59014963861
 30
0.0
 11
23619.38363325561
 21
10122.59014963861
 31
0.0
  0
LINE
  5
2EB
330
6C
100
AcDbEntity
  8
Visible (ISO)
100
AcDbLine
 10
23617.93363325562
 20
10105.09014963861
 30
0.0
 11
23619.38363325561
 21
10105.09014963861
 31
0.0
  0
SPLINE
  5
2EC
330
6C
100
AcDbEntity
  8
Visible (ISO)
100
AcDbSpline
210
0.0
220
0.0
230
1.0
 70
    12
 71
     3
 72
    16
 73
    12
 74
     0
 42
0.0000000001
 43
0.0000000001
 40
-3.21920367780631
 40
-3.21920367780631
 40
-3.21920367780631
 40
-3.21920367780631
 40
-3.144907213975396
 40
-3.144907213975396
 40
-2.787539367331071
 40
-2.787539367331071
 40
-2.424347457857939
 40
-2.424347457857939
 40
-2.066653533424752
 40
-2.066653533424752
 40
-1.787238537295991
 40
-1.787238537295991
 40
-1.787238537295991
 40
-1.787238537295991
 10
23586.84780726363
 20
7288.38718862164
 30
0.0
 41
1.0
 10
23586.93255114009
 20
7288.39087634711
 30
0.0
 41
1.0
 10
23587.03432685198
 20
7288.395287981799
 30
0.0
 41
1.0
 10
23587.71841432649
 20
7288.424711382231
 30
0.0
 41
1.0
 10
23588.66507794766
 20
7288.464596186155
 30
0.0
 41
1.0
 10
23590.90809719589
 20
7288.550853646959
 30
0.0
 41
1.0
 10
23592.2009007072
 20
7288.596460921218
 30
0.0
 41
1.0
 10
23594.49092136275
 20
7288.668826181771
 30
0.0
 41
1.0
 10
23595.48330255279
 20
7288.695889666176
 30
0.0
 41
1.0
 10
23596.59260400311
 20
7288.724415201719
 30
0.0
 41
1.0
 10
23596.85065960228
 20
7288.730545845843
 30
0.0
 41
1.0
 10
23596.8531451139
 20
7288.730527014511
 30
0.0
 41
1.0
  0
SPLINE
  5
2ED
330
6C
100
AcDbEntity
  8
Visible (ISO)
100
AcDbSpline
210
0.0
220
0.0
230
1.0
 70
    12
 71
     3
 72
    10
 73
     6
 74
     0
 42
0.0000000001
 43
0.0000000001
 40
-0.1776365713640118
 40
-0.1776365713640118
 40
-0.1776365713640118
 40
-0.1776365713640118
 40
-0.1711659271061255
 40
-0.1711659271061255
 40
-0.0000000000000377
 40
-0.0000000000000377
 40
-0.0000000000000377
 40
-0.0000000000000377
 10
23586.5407617934
 20
7288.373749751162
 30
0.0
 41
1.0
 10
23586.5407558233
 20
7288.373749351433
 30
0.0
 41
1.0
 10
23586.54088978625
 20
7288.37375517492
 30
0.0
 41
1.0
 10
23586.54842093002
 20
7288.37408669971
 30
0.0
 41
1.0
 10
23586.65257234351
 20
7288.378692753649
 30
0.0
 41
1.0
 10
23586.84780726363
 20
7288.38718862164
 30
0.0
 41
1.0
  0
SPLINE
  5
2EE
330
6C
100
AcDbEntity
  8
Visible (ISO)
100
AcDbSpline
210
0.0
220
0.0
230
1.0
 70
    12
 71
     3
 72
    20
 73
    16
 74
     0
 42
0.0000000001
 43
0.0000000001
 40
-2.593825353815921
 40
-2.593825353815921
 40
-2.593825353815921
 40
-2.593825353815921
 40
-2.444876729396556
 40
-2.444876729396556
 40
-2.081458385646629
 40
-2.081458385646629
 40
-1.720207435399889
 40
-1.720207435399889
 40
-1.371840256717066
 40
-1.371840256717066
 40
-1.030725615518616
 40
-1.030725615518616
 40
-0.7218612798990212
 40
-0.7218612798990212
 40
-0.6662270921109883
 40
-0.6662270921109883
 40
-0.6662270921109883
 40
-0.6662270921109883
 10
23671.58660088175
 20
7288.626834096358
 30
0.0
 41
1.0
 10
23671.44493759939
 20
7288.611536518345
 30
0.0
 41
1.0
 10
23671.37066409478
 20
7288.594957666346
 30
0.0
 41
1.0
 10
23671.37108199245
 20
7288.534984455016
 30
0.0
 41
1.0
 10
23671.81383835808
 20
7288.4878362103
 30
0.0
 41
1.0
 10
23673.37798166109
 20
7288.411594312861
 30
0.0
 41
1.0
 10
23674.48960511885
 20
7288.383249393767
 30
0.0
 41
1.0
 10
23676.83123097136
 20
7288.365113789035
 30
0.0
 41
1.0
 10
23678.0475837706
 20
7288.374137018147
 30
0.0
 41
1.0
 10
23680.07677346716
 20
7288.421745401291
 30
0.0
 41
1.0
 10
23680.89183868726
 20
7288.459203862749
 30
0.0
 41
1.0
 10
23681.77027862293
 20
7288.536608296189
 30
0.0
 41
1.0
 10
23681.89735371663
 20
7288.57555503633
 30
0.0
 41
1.0
 10
23681.67940930291
 20
7288.615343776406
 30
0.0
 41
1.0
 10
23681.63610369415
 20
7288.621246555493
 30
0.0
 41
1.0
 10
23681.58321487821
 20
7288.626961506138
 30
0.0
 41
1.0
  0
SPLINE
  5
2EF
330
6C
100
AcDbEntity
  8
Visible (ISO)
100
AcDbSpline
210
0.0
220
0.0
230
1.0
 70
    12
 71
     3
 72
    18
 73
    14
 74
     0
 42
0.0000000001
 43
0.0000000001
 40
-3.260051491272619
 40
-3.260051491272619
 40
-3.260051491272619
 40
-3.260051491272619
 40
-3.179955838887736
 40
-3.179955838887736
 40
-2.812782097510741
 40
-2.812782097510741
 40
-2.444876729396952
 40
-2.444876729396952
 40
-2.08145838564839
 40
-2.08145838564839
 40
-1.720207435400531
 40
-1.720207435400531
 40
-1.630024975632523
 40
-1.630024975632523
 40
-1.630024975632523
 40
-1.630024975632523
 10
23756.24872460022
 20
7288.731953551199
 30
0.0
 41
1.0
 10
23756.24872460022
 20
7288.731953551199
 30
0.0
 41
1.0
 10
23756.26952215618
 20
7288.731458637498
 30
0.0
 41
1.0
 10
23756.50045493181
 20
7288.72591350496
 30
0.0
 41
1.0
 10
23757.13737048831
 20
7288.710796674459
 30
0.0
 41
1.0
 10
23759.0104841085
 20
7288.658429563681
 30
0.0
 41
1.0
 10
23760.23994972798
 20
7288.620586834285
 30
0.0
 41
1.0
 10
23762.69310032027
 20
7288.53498445504
 30
0.0
 41
1.0
 10
23763.90713027587
 20
7288.487836210324
 30
0.0
 41
1.0
 10
23765.76558449921
 20
7288.411594312885
 30
0.0
 41
1.0
 10
23766.40649248787
 20
7288.383249393795
 30
0.0
 41
1.0
 10
23766.66862443242
 20
7288.371712177433
 30
0.0
 41
1.0
 10
23766.69408809537
 20
7288.37060872881
 30
0.0
 41
1.0
 10
23766.69338570229
 20
7288.370656387454
 30
0.0
 41
1.0
  0
LINE
  5
2F0
330
6C
100
AcDbEntity
  8
Visible (ISO)
100
AcDbLine
 10
23926.58363325561
 20
7138.840149638612
 30
0.0
 11
23426.58363325561
 21
7138.840149638612
 31
0.0
  0
SPLINE
  5
2F1
330
6C
100
AcDbEntity
  8
Visible (ISO)
100
AcDbSpline
210
0.0
220
0.0
230
1.0
 70
     8
 71
     3
 72
    16
 73
    12
 74
     0
 42
0.0000000001
 43
0.0000000001
 40
1.570796326794896
 40
1.570796326794896
 40
1.570796326794896
 40
1.570796326794896
 40
1.581611661120144
 40
1.581611661120144
 40
1.592426995445392
 40
1.592426995445392
 40
1.603242329770639
 40
1.603242329770639
 40
1.614057664095887
 40
1.614057664095887
 40
1.624872998421134
 40
1.624872998421134
 40
1.624872998421134
 40
1.624872998421134
 10
23606.58363325561
 20
7288.840149638611
 30
0.0
 10
23605.9347131961
 20
7288.840149638611
 30
0.0
 10
23605.28579313673
 20
7288.838687481153
 30
0.0
 10
23603.98802892209
 20
7288.832839022344
 30
0.0
 10
23603.3391847671
 20
7288.828452720995
 30
0.0
 10
23602.04164825673
 20
7288.81675648747
 30
0.0
 10
23601.39295590164
 20
7288.809446555299
 30
0.0
 10
23600.0957988688
 20
7288.791903915175
 30
0.0
 10
23599.44733419136
 20
7288.781671207225
 30
0.0
 10
23598.15070836491
 20
7288.758284212467
 30
0.0
 10
23597.50254721622
 20
7288.745129925665
 30
0.0
 10
23596.85457573957
 20
7288.730515618759
 30
0.0
  0
SPLINE
  5
2F2
330
6C
100
AcDbEntity
  8
Visible (ISO)
100
AcDbSpline
210
0.0
220
0.0
230
1.0
 70
     8
 71
     3
 72
    18
 73
    14
 74
     0
 42
0.0000000001
 43
0.0000000001
 40
1.682377054421392
 40
1.682377054421392
 40
1.682377054421392
 40
1.682377054421392
 40
1.974220174255072
 40
1.974220174255072
 40
2.266063294088752
 40
2.266063294088752
 40
2.557906413922432
 40
2.557906413922432
 40
2.849749533756113
 40
2.849749533756113
 40
3.035621581656529
 40
3.035621581656529
 40
3.141592653589793
 40
3.141592653589793
 40
3.141592653589793
 40
3.141592653589793
 10
23586.54075261453
 20
7288.373749136413
 30
0.0
 10
23569.13905804662
 20
7287.561335689641
 30
0.0
 10
23552.02597791182
 20
7285.683539918664
 30
0.0
 10
23519.8162232498
 20
7279.955102698896
 30
0.0
 10
23504.72342729704
 20
7276.105151046427
 30
0.0
 10
23477.83127292069
 20
7266.757555099211
 30
0.0
 10
23466.03515274664
 20
7261.261036405926
 30
0.0
 10
23446.73485718103
 20
7249.0848041072
 30
0.0
 10
23439.23300585662
 20
7242.406556716703
 30
0.0
 10
23430.98617365985
 20
7230.968679734013
 30
0.0
 10
23428.77298881016
 20
7226.393846992519
 30
0.0
 10
23426.92084421913
 20
7219.138697669916
 30
0.0
 10
23426.58363325561
 20
7216.489426436943
 30
0.0
 10
23426.58363325561
 20
7213.840149638612
 30
0.0
  0
SPLINE
  5
2F3
330
6C
100
AcDbEntity
  8
Visible (ISO)
100
AcDbSpline
210
0.0
220
0.0
230
1.0
 70
     8
 71
     3
 72
    16
 73
    12
 74
     0
 42
0.0000000001
 43
0.0000000001
 40
1.570796326794896
 40
1.570796326794896
 40
1.570796326794896
 40
1.570796326794896
 40
1.581540484233952
 40
1.581540484233952
 40
1.592284641673008
 40
1.592284641673008
 40
1.603028799112064
 40
1.603028799112064
 40
1.61377295655112
 40
1.61377295655112
 40
1.624517113990175
 40
1.624517113990175
 40
1.624517113990175
 40
1.624517113990175
 10
23746.58363325561
 20
7288.840149638611
 30
0.0
 10
23747.22828270196
 20
7288.840149638611
 30
0.0
 10
23747.87293214815
 20
7288.838706663243
 30
0.0
 10
23749.16215662521
 20
7288.832934928335
 30
0.0
 10
23749.80673165578
 20
7288.828606168799
 30
0.0
 10
23751.09573289454
 20
7288.81706336525
 30
0.0
 10
23751.74015910244
 20
7288.809849321239
 30
0.0
 10
23753.028788306
 20
7288.792536781503
 30
0.0
 10
23753.67299130137
 20
7288.782438285777
 30
0.0
 10
23754.96109971577
 20
7288.759358008336
 30
0.0
 10
23755.60500513451
 20
7288.746376226625
 30
0.0
 10
23756.24872460022
 20
7288.731953551199
 30
0.0
  0
SPLINE
  5
2F4
330
6C
100
AcDbEntity
  8
Visible (ISO)
100
AcDbSpline
210
0.0
220
0.0
230
1.0
 70
     8
 71
     3
 72
    18
 73
    14
 74
     0
 42
0.0000000001
 43
0.0000000001
 40
1.682759995807404
 40
1.682759995807404
 40
1.682759995807404
 40
1.682759995807404
 40
1.974526527363882
 40
1.974526527363882
 40
2.266293058920359
 40
2.266293058920359
 40
2.558059590476837
 40
2.558059590476837
 40
2.849826122033315
 40
2.849826122033315
 40
3.035671384981435
 40
3.035671384981435
 40
3.141592653589793
 40
3.141592653589793
 40
3.141592653589793
 40
3.141592653589793
 10
23766.69501322519
 20
7288.370545651329
 30
0.0
 10
23784.09139333732
 20
7287.555569598753
 30
0.0
 10
23801.19833455259
 20
7285.675820224155
 30
0.0
 10
23833.39542419651
 20
7279.944776181037
 30
0.0
 10
23848.48169963574
 20
7276.094170900076
 30
0.0
 10
23875.36164276036
 20
7266.746454431467
 30
0.0
 10
23887.15207705614
 20
7261.250467681072
 30
0.0
 10
23906.44283232907
 20
7249.076199438707
 30
0.0
 10
23913.94083282036
 20
7242.399382390033
 30
0.0
 10
23922.18377849071
 20
7230.963717379558
 30
0.0
 10
23924.39594790627
 20
7226.389491288788
 30
0.0
 10
23926.24673947166
 20
7219.136207516733
 30
0.0
 10
23926.58363325561
 20
7216.48818135382
 30
0.0
 10
23926.58363325561
 20
7213.840149638612
 30
0.0
  0
LINE
  5
2F5
330
6C
100
AcDbEntity
  8
Visible (ISO)
100
AcDbLine
 10
23426.58363325561
 20
7138.840149638612
 30
0.0
 11
23426.58363325561
 21
7213.840149638612
 31
0.0
  0
LINE
  5
2F6
330
6C
100
AcDbEntity
  8
Visible (ISO)
100
AcDbLine
 10
23926.58363325561
 20
7138.840149638612
 30
0.0
 11
23926.58363325561
 21
7213.840149638612
 31
0.0
  0
SPLINE
  5
2F7
330
6C
100
AcDbEntity
  8
Visible (ISO)
100
AcDbSpline
210
0.0
220
0.0
230
1.0
 70
    12
 71
     3
 72
    16
 73
    12
 74
     0
 42
0.0000000001
 43
0.0000000001
 40
-3.21920367780631
 40
-3.21920367780631
 40
-3.21920367780631
 40
-3.21920367780631
 40
-3.144907213975396
 40
-3.144907213975396
 40
-2.787539367331071
 40
-2.787539367331071
 40
-2.424347457857939
 40
-2.424347457857939
 40
-2.066653533424752
 40
-2.066653533424752
 40
-1.787238537295981
 40
-1.787238537295981
 40
-1.787238537295981
 40
-1.787238537295981
 10
21886.84780726363
 20
7288.38718862165
 30
0.0
 41
1.0
 10
21886.93255114009
 20
7288.390876347119
 30
0.0
 41
1.0
 10
21887.03432685199
 20
7288.39528798181
 30
0.0
 41
1.0
 10
21887.7184143265
 20
7288.424711382241
 30
0.0
 41
1.0
 10
21888.66507794766
 20
7288.464596186165
 30
0.0
 41
1.0
 10
21890.9080971959
 20
7288.550853646968
 30
0.0
 41
1.0
 10
21892.2009007072
 20
7288.596460921228
 30
0.0
 41
1.0
 10
21894.49092136276
 20
7288.668826181781
 30
0.0
 41
1.0
 10
21895.48330255279
 20
7288.695889666188
 30
0.0
 41
1.0
 10
21896.59260400311
 20
7288.724415201729
 30
0.0
 41
1.0
 10
21896.85065960229
 20
7288.730545845853
 30
0.0
 41
1.0
 10
21896.85314511391
 20
7288.730527014521
 30
0.0
 41
1.0
  0
SPLINE
  5
2F8
330
6C
100
AcDbEntity
  8
Visible (ISO)
100
AcDbSpline
210
0.0
220
0.0
230
1.0
 70
    12
 71
     3
 72
    10
 73
     6
 74
     0
 42
0.0000000001
 43
0.0000000001
 40
-0.1776365713640109
 40
-0.1776365713640109
 40
-0.1776365713640109
 40
-0.1776365713640109
 40
-0.1711659271061255
 40
-0.1711659271061255
 40
-0.0000000000000377
 40
-0.0000000000000377
 40
-0.0000000000000377
 40
-0.0000000000000377
 10
21886.54076179341
 20
7288.373749751172
 30
0.0
 41
1.0
 10
21886.54075582331
 20
7288.373749351443
 30
0.0
 41
1.0
 10
21886.54088978626
 20
7288.37375517493
 30
0.0
 41
1.0
 10
21886.54842093003
 20
7288.37408669972
 30
0.0
 41
1.0
 10
21886.65257234352
 20
7288.378692753659
 30
0.0
 41
1.0
 10
21886.84780726363
 20
7288.38718862165
 30
0.0
 41
1.0
  0
SPLINE
  5
2F9
330
6C
100
AcDbEntity
  8
Visible (ISO)
100
AcDbSpline
210
0.0
220
0.0
230
1.0
 70
    12
 71
     3
 72
    20
 73
    16
 74
     0
 42
0.0000000001
 43
0.0000000001
 40
-2.59382535381567
 40
-2.59382535381567
 40
-2.59382535381567
 40
-2.59382535381567
 40
-2.444876729396556
 40
-2.444876729396556
 40
-2.081458385646629
 40
-2.081458385646629
 40
-1.720207435399889
 40
-1.720207435399889
 40
-1.371840256717066
 40
-1.371840256717066
 40
-1.030725615518616
 40
-1.030725615518616
 40
-0.7218612798990212
 40
-0.7218612798990212
 40
-0.6662270921108107
 40
-0.6662270921108107
 40
-0.6662270921108107
 40
-0.6662270921108107
 10
21971.58660088176
 20
7288.626834096366
 30
0.0
 41
1.0
 10
21971.44493759939
 20
7288.611536518356
 30
0.0
 41
1.0
 10
21971.37066409478
 20
7288.594957666356
 30
0.0
 41
1.0
 10
21971.37108199245
 20
7288.534984455026
 30
0.0
 41
1.0
 10
21971.81383835809
 20
7288.487836210308
 30
0.0
 41
1.0
 10
21973.37798166109
 20
7288.41159431287
 30
0.0
 41
1.0
 10
21974.48960511886
 20
7288.383249393779
 30
0.0
 41
1.0
 10
21976.83123097136
 20
7288.365113789042
 30
0.0
 41
1.0
 10
21978.0475837706
 20
7288.374137018156
 30
0.0
 41
1.0
 10
21980.07677346717
 20
7288.421745401301
 30
0.0
 41
1.0
 10
21980.89183868726
 20
7288.459203862759
 30
0.0
 41
1.0
 10
21981.77027862294
 20
7288.536608296199
 30
0.0
 41
1.0
 10
21981.89735371664
 20
7288.57555503634
 30
0.0
 41
1.0
 10
21981.67940930292
 20
7288.615343776417
 30
0.0
 41
1.0
 10
21981.63610369415
 20
7288.621246555504
 30
0.0
 41
1.0
 10
21981.58321487821
 20
7288.626961506148
 30
0.0
 41
1.0
  0
SPLINE
  5
2FA
330
6C
100
AcDbEntity
  8
Visible (ISO)
100
AcDbSpline
210
0.0
220
0.0
230
1.0
 70
    12
 71
     3
 72
    18
 73
    14
 74
     0
 42
0.0000000001
 43
0.0000000001
 40
-3.260051491272619
 40
-3.260051491272619
 40
-3.260051491272619
 40
-3.260051491272619
 40
-3.179955838887736
 40
-3.179955838887736
 40
-2.812782097510741
 40
-2.812782097510741
 40
-2.444876729396952
 40
-2.444876729396952
 40
-2.08145838564839
 40
-2.08145838564839
 40
-1.720207435400531
 40
-1.720207435400531
 40
-1.630024975632507
 40
-1.630024975632507
 40
-1.630024975632507
 40
-1.630024975632507
 10
22056.24872460023
 20
7288.731953551209
 30
0.0
 41
1.0
 10
22056.24872460023
 20
7288.731953551208
 30
0.0
 41
1.0
 10
22056.26952215618
 20
7288.731458637508
 30
0.0
 41
1.0
 10
22056.50045493181
 20
7288.72591350497
 30
0.0
 41
1.0
 10
22057.13737048831
 20
7288.710796674469
 30
0.0
 41
1.0
 10
22059.01048410851
 20
7288.658429563691
 30
0.0
 41
1.0
 10
22060.23994972798
 20
7288.620586834295
 30
0.0
 41
1.0
 10
22062.69310032028
 20
7288.534984455051
 30
0.0
 41
1.0
 10
22063.90713027587
 20
7288.487836210333
 30
0.0
 41
1.0
 10
22065.76558449921
 20
7288.411594312894
 30
0.0
 41
1.0
 10
22066.40649248787
 20
7288.383249393804
 30
0.0
 41
1.0
 10
22066.66862443243
 20
7288.371712177442
 30
0.0
 41
1.0
 10
22066.69408809537
 20
7288.37060872882
 30
0.0
 41
1.0
 10
22066.6933857023
 20
7288.370656387463
 30
0.0
 41
1.0
  0
LINE
  5
2FB
330
6C
100
AcDbEntity
  8
Visible (ISO)
100
AcDbLine
 10
22226.58363325562
 20
7138.840149638622
 30
0.0
 11
21726.58363325562
 21
7138.840149638622
 31
0.0
  0
SPLINE
  5
2FC
330
6C
100
AcDbEntity
  8
Visible (ISO)
100
AcDbSpline
210
0.0
220
0.0
230
1.0
 70
     8
 71
     3
 72
    16
 73
    12
 74
     0
 42
0.0000000001
 43
0.0000000001
 40
1.570796326794896
 40
1.570796326794896
 40
1.570796326794896
 40
1.570796326794896
 40
1.581611661120144
 40
1.581611661120144
 40
1.592426995445392
 40
1.592426995445392
 40
1.603242329770639
 40
1.603242329770639
 40
1.614057664095887
 40
1.614057664095887
 40
1.624872998421134
 40
1.624872998421134
 40
1.624872998421134
 40
1.624872998421134
 10
21906.58363325562
 20
7288.840149638621
 30
0.0
 10
21905.93471319611
 20
7288.840149638621
 30
0.0
 10
21905.28579313673
 20
7288.838687481163
 30
0.0
 10
21903.98802892209
 20
7288.832839022354
 30
0.0
 10
21903.33918476711
 20
7288.828452721003
 30
0.0
 10
21902.04164825674
 20
7288.816756487481
 30
0.0
 10
21901.39295590165
 20
7288.809446555309
 30
0.0
 10
21900.09579886881
 20
7288.791903915186
 30
0.0
 10
21899.44733419136
 20
7288.781671207235
 30
0.0
 10
21898.15070836492
 20
7288.758284212477
 30
0.0
 10
21897.50254721623
 20
7288.745129925676
 30
0.0
 10
21896.85457573958
 20
7288.73051561877
 30
0.0
  0
SPLINE
  5
2FD
330
6C
100
AcDbEntity
  8
Visible (ISO)
100
AcDbSpline
210
0.0
220
0.0
230
1.0
 70
     8
 71
     3
 72
    18
 73
    14
 74
     0
 42
0.0000000001
 43
0.0000000001
 40
1.682377054421391
 40
1.682377054421391
 40
1.682377054421391
 40
1.682377054421391
 40
1.974220174255071
 40
1.974220174255071
 40
2.266063294088751
 40
2.266063294088751
 40
2.557906413922432
 40
2.557906413922432
 40
2.849749533756112
 40
2.849749533756112
 40
3.035621581656529
 40
3.035621581656529
 40
3.141592653589793
 40
3.141592653589793
 40
3.141592653589793
 40
3.141592653589793
 10
21886.54075261453
 20
7288.373749136422
 30
0.0
 10
21869.13905804663
 20
7287.561335689651
 30
0.0
 10
21852.02597791183
 20
7285.683539918673
 30
0.0
 10
21819.8162232498
 20
7279.955102698906
 30
0.0
 10
21804.72342729704
 20
7276.105151046436
 30
0.0
 10
21777.8312729207
 20
7266.757555099221
 30
0.0
 10
21766.03515274665
 20
7261.261036405937
 30
0.0
 10
21746.73485718103
 20
7249.084804107211
 30
0.0
 10
21739.23300585663
 20
7242.406556716713
 30
0.0
 10
21730.98617365985
 20
7230.968679734023
 30
0.0
 10
21728.77298881017
 20
7226.393846992529
 30
0.0
 10
21726.92084421913
 20
7219.138697669926
 30
0.0
 10
21726.58363325562
 20
7216.489426436954
 30
0.0
 10
21726.58363325562
 20
7213.840149638622
 30
0.0
  0
SPLINE
  5
2FE
330
6C
100
AcDbEntity
  8
Visible (ISO)
100
AcDbSpline
210
0.0
220
0.0
230
1.0
 70
     8
 71
     3
 72
    16
 73
    12
 74
     0
 42
0.0000000001
 43
0.0000000001
 40
1.570796326794896
 40
1.570796326794896
 40
1.570796326794896
 40
1.570796326794896
 40
1.581540484233952
 40
1.581540484233952
 40
1.592284641673008
 40
1.592284641673008
 40
1.603028799112064
 40
1.603028799112064
 40
1.61377295655112
 40
1.61377295655112
 40
1.624517113990175
 40
1.624517113990175
 40
1.624517113990175
 40
1.624517113990175
 10
22046.58363325562
 20
7288.840149638621
 30
0.0
 10
22047.22828270196
 20
7288.840149638621
 30
0.0
 10
22047.87293214816
 20
7288.838706663252
 30
0.0
 10
22049.16215662522
 20
7288.832934928347
 30
0.0
 10
22049.80673165579
 20
7288.828606168809
 30
0.0
 10
22051.09573289454
 20
7288.817063365261
 30
0.0
 10
22051.74015910245
 20
7288.80984932125
 30
0.0
 10
22053.028788306
 20
7288.79253678151
 30
0.0
 10
22053.67299130137
 20
7288.782438285785
 30
0.0
 10
22054.96109971577
 20
7288.759358008346
 30
0.0
 10
22055.60500513452
 20
7288.746376226635
 30
0.0
 10
22056.24872460023
 20
7288.731953551209
 30
0.0
  0
SPLINE
  5
2FF
330
6C
100
AcDbEntity
  8
Visible (ISO)
100
AcDbSpline
210
0.0
220
0.0
230
1.0
 70
     8
 71
     3
 72
    18
 73
    14
 74
     0
 42
0.0000000001
 43
0.0000000001
 40
1.682759995807404
 40
1.682759995807404
 40
1.682759995807404
 40
1.682759995807404
 40
1.974526527363882
 40
1.974526527363882
 40
2.266293058920359
 40
2.266293058920359
 40
2.558059590476837
 40
2.558059590476837
 40
2.849826122033315
 40
2.849826122033315
 40
3.035671384981435
 40
3.035671384981435
 40
3.141592653589793
 40
3.141592653589793
 40
3.141592653589793
 40
3.141592653589793
 10
22066.6950132252
 20
7288.370545651338
 30
0.0
 10
22084.09139333733
 20
7287.555569598763
 30
0.0
 10
22101.1983345526
 20
7285.675820224165
 30
0.0
 10
22133.39542419651
 20
7279.944776181046
 30
0.0
 10
22148.48169963574
 20
7276.094170900086
 30
0.0
 10
22175.36164276037
 20
7266.746454431476
 30
0.0
 10
22187.15207705614
 20
7261.250467681081
 30
0.0
 10
22206.44283232907
 20
7249.076199438715
 30
0.0
 10
22213.94083282037
 20
7242.399382390043
 30
0.0
 10
22222.18377849071
 20
7230.963717379568
 30
0.0
 10
22224.39594790628
 20
7226.389491288798
 30
0.0
 10
22226.24673947166
 20
7219.136207516744
 30
0.0
 10
22226.58363325562
 20
7216.48818135383
 30
0.0
 10
22226.58363325562
 20
7213.840149638622
 30
0.0
  0
LINE
  5
300
330
6C
100
AcDbEntity
  8
Visible (ISO)
100
AcDbLine
 10
21726.58363325562
 20
7138.840149638622
 30
0.0
 11
21726.58363325562
 21
7213.840149638622
 31
0.0
  0
LINE
  5
301
330
6C
100
AcDbEntity
  8
Visible (ISO)
100
AcDbLine
 10
22226.58363325562
 20
7138.840149638622
 30
0.0
 11
22226.58363325562
 21
7213.840149638622
 31
0.0
  0
LINE
  5
302
330
6C
100
AcDbEntity
  8
Visible (ISO)
100
AcDbLine
 10
22071.436446998
 20
7295.840149638623
 30
0.0
 11
22051.436446998
 21
7295.840149638623
 31
0.0
  0
LINE
  5
303
330
6C
100
AcDbEntity
  8
Visible (ISO)
100
AcDbLine
 10
22071.436446998
 20
7295.840149638623
 30
0.0
 11
22071.436446998
 21
7293.840149638622
 31
0.0
  0
LINE
  5
304
330
6C
100
AcDbEntity
  8
Visible (ISO)
100
AcDbLine
 10
22051.436446998
 20
7295.840149638623
 30
0.0
 11
22051.436446998
 21
7293.840149638622
 31
0.0
  0
LINE
  5
305
330
6C
100
AcDbEntity
  8
Visible (ISO)
100
AcDbLine
 10
21901.73081951324
 20
7295.840149638623
 30
0.0
 11
21881.73081951323
 21
7295.840149638623
 31
0.0
  0
LINE
  5
306
330
6C
100
AcDbEntity
  8
Visible (ISO)
100
AcDbLine
 10
21901.73081951324
 20
7295.840149638623
 30
0.0
 11
21901.73081951324
 21
7293.840149638622
 31
0.0
  0
LINE
  5
307
330
6C
100
AcDbEntity
  8
Visible (ISO)
100
AcDbLine
 10
21881.73081951323
 20
7295.840149638623
 30
0.0
 11
21881.73081951323
 21
7293.840149638622
 31
0.0
  0
LINE
  5
308
330
6C
100
AcDbEntity
  8
Visible (ISO)
100
AcDbLine
 10
21986.58363325562
 20
7295.840149638597
 30
0.0
 11
21966.58363325562
 21
7295.840149638597
 31
0.0
  0
LINE
  5
309
330
6C
100
AcDbEntity
  8
Visible (ISO)
100
AcDbLine
 10
21986.58363325562
 20
7295.840149638597
 30
0.0
 11
21986.58363325562
 21
7293.840149638596
 31
0.0
  0
LINE
  5
30A
330
6C
100
AcDbEntity
  8
Visible (ISO)
100
AcDbLine
 10
21966.58363325562
 20
7295.840149638597
 30
0.0
 11
21966.58363325562
 21
7293.840149638596
 31
0.0
  0
LINE
  5
30B
330
6C
100
AcDbEntity
  8
Visible (ISO)
100
AcDbLine
 10
23771.436446998
 20
7295.840149638613
 30
0.0
 11
23751.436446998
 21
7295.840149638613
 31
0.0
  0
LINE
  5
30C
330
6C
100
AcDbEntity
  8
Visible (ISO)
100
AcDbLine
 10
23771.436446998
 20
7295.840149638613
 30
0.0
 11
23771.436446998
 21
7293.840149638612
 31
0.0
  0
LINE
  5
30D
330
6C
100
AcDbEntity
  8
Visible (ISO)
100
AcDbLine
 10
23751.436446998
 20
7295.840149638613
 30
0.0
 11
23751.436446998
 21
7293.840149638612
 31
0.0
  0
LINE
  5
30E
330
6C
100
AcDbEntity
  8
Visible (ISO)
100
AcDbLine
 10
23601.73081951323
 20
7295.840149638613
 30
0.0
 11
23581.73081951323
 21
7295.840149638613
 31
0.0
  0
LINE
  5
30F
330
6C
100
AcDbEntity
  8
Visible (ISO)
100
AcDbLine
 10
23601.73081951323
 20
7295.840149638613
 30
0.0
 11
23601.73081951323
 21
7293.840149638612
 31
0.0
  0
LINE
  5
310
330
6C
100
AcDbEntity
  8
Visible (ISO)
100
AcDbLine
 10
23581.73081951323
 20
7295.840149638613
 30
0.0
 11
23581.73081951323
 21
7293.840149638612
 31
0.0
  0
LINE
  5
311
330
6C
100
AcDbEntity
  8
Visible (ISO)
100
AcDbLine
 10
23686.58363325562
 20
7295.840149638587
 30
0.0
 11
23666.58363325562
 21
7295.840149638587
 31
0.0
  0
LINE
  5
312
330
6C
100
AcDbEntity
  8
Visible (ISO)
100
AcDbLine
 10
23686.58363325562
 20
7295.840149638587
 30
0.0
 11
23686.58363325562
 21
7293.840149638587
 31
0.0
  0
LINE
  5
313
330
6C
100
AcDbEntity
  8
Visible (ISO)
100
AcDbLine
 10
23666.58363325562
 20
7295.840149638587
 30
0.0
 11
23666.58363325562
 21
7293.840149638587
 31
0.0
  0
SPLINE
  5
314
330
6C
100
AcDbEntity
  8
Visible (ISO)
100
AcDbSpline
210
0.0
220
0.0
230
1.0
 70
    12
 71
     2
 72
     6
 73
     3
 74
     0
 42
0.0000000001
 43
0.0000000001
 40
0.4978532609589537
 40
0.4978532609589537
 40
0.4978532609589537
 40
0.9957065219179071
 40
0.9957065219179071
 40
0.9957065219179071
 10
22068.79766293017
 20
7302.240249638622
 30
0.0
 41
1.0
 10
22067.65887886234
 20
7302.240249638622
 30
0.0
 41
1.037954849302035
 10
22066.34392428612
 20
7301.481060260066
 30
0.0
 41
1.0
  0
LINE
  5
315
330
6C
100
AcDbEntity
  8
Visible (ISO)
100
AcDbLine
 10
22068.79766293017
 20
7302.240249638622
 30
0.0
 11
22061.436446998
 21
7302.240249638621
 31
0.0
  0
SPLINE
  5
316
330
6C
100
AcDbEntity
  8
Visible (ISO)
100
AcDbSpline
210
0.0
220
0.0
230
1.0
 70
    12
 71
     2
 72
     6
 73
     3
 74
     0
 42
0.0000000001
 43
0.0000000001
 40
0.0
 40
0.0
 40
0.0
 40
0.4978532609589536
 40
0.4978532609589536
 40
0.4978532609589536
 10
22066.34392428612
 20
7301.481060260066
 30
0.0
 41
1.0
 10
22063.71401513366
 20
7302.240249638621
 30
0.0
 41
1.037954849302054
 10
22061.436446998
 20
7302.240249638621
 30
0.0
 41
1.0
  0
SPLINE
  5
317
330
6C
100
AcDbEntity
  8
Visible (ISO)
100
AcDbSpline
210
0.0
220
0.0
230
1.0
 70
    12
 71
     2
 72
     6
 73
     3
 74
     0
 42
0.0000000001
 43
0.0000000001
 40
0.0
 40
0.0
 40
0.0
 40
0.4978532609589533
 40
0.4978532609589533
 40
0.4978532609589533
 10
22056.52896970989
 20
7301.481060260066
 30
0.0
 41
1.0
 10
22055.21401513367
 20
7302.240249638622
 30
0.0
 41
1.037954849302054
 10
22054.07523106583
 20
7302.240249638622
 30
0.0
 41
1.0
  0
SPLINE
  5
318
330
6C
100
AcDbEntity
  8
Visible (ISO)
100
AcDbSpline
210
0.0
220
0.0
230
1.0
 70
    12
 71
     2
 72
     6
 73
     3
 74
     0
 42
0.0000000001
 43
0.0000000001
 40
0.4978532609589536
 40
0.4978532609589536
 40
0.4978532609589536
 40
0.9957065219179071
 40
0.9957065219179071
 40
0.9957065219179071
 10
22061.436446998
 20
7302.240249638621
 30
0.0
 41
1.0
 10
22059.15887886234
 20
7302.240249638621
 30
0.0
 41
1.037954849302056
 10
22056.52896970989
 20
7301.481060260066
 30
0.0
 41
1.0
  0
LINE
  5
319
330
6C
100
AcDbEntity
  8
Visible (ISO)
100
AcDbLine
 10
22061.436446998
 20
7302.240249638619
 30
0.0
 11
22054.07523106583
 21
7302.240249638622
 31
0.0
  0
LINE
  5
31A
330
6C
100
AcDbEntity
  8
Visible (ISO)
100
AcDbLine
 10
22069.936446998
 20
7302.240249638623
 30
0.0
 11
22068.79766293017
 21
7302.240249638622
 31
0.0
  0
SPLINE
  5
31B
330
6C
100
AcDbEntity
  8
Visible (ISO)
100
AcDbSpline
210
0.0
220
0.0
230
1.0
 70
    12
 71
     2
 72
     6
 73
     3
 74
     0
 42
0.0000000001
 43
0.0000000001
 40
0.0
 40
0.0
 40
0.0
 40
0.4978532609589537
 40
0.4978532609589537
 40
0.4978532609589537
 10
22071.25140157423
 20
7301.481060260069
 30
0.0
 41
1.0
 10
22069.936446998
 20
7302.240249638623
 30
0.0
 41
1.037954849302049
 10
22068.79766293017
 20
7302.240249638622
 30
0.0
 41
1.0
  0
SPLINE
  5
31C
330
6C
100
AcDbEntity
  8
Visible (ISO)
100
AcDbSpline
210
0.0
220
0.0
230
1.0
 70
    12
 71
     2
 72
     6
 73
     3
 74
     0
 42
0.0000000001
 43
0.0000000001
 40
0.4978532609589533
 40
0.4978532609589533
 40
0.4978532609589533
 40
0.9957065219179067
 40
0.9957065219179067
 40
0.9957065219179067
 10
22054.07523106583
 20
7302.240249638622
 30
0.0
 41
1.0
 10
22052.936446998
 20
7302.240249638623
 30
0.0
 41
1.037954849302048
 10
22051.62149242178
 20
7301.481060260069
 30
0.0
 41
1.0
  0
LINE
  5
31D
330
6C
100
AcDbEntity
  8
Visible (ISO)
100
AcDbLine
 10
22054.07523106583
 20
7302.240249638622
 30
0.0
 11
22052.936446998
 21
7302.240249638623
 31
0.0
  0
LINE
  5
31E
330
6C
100
AcDbEntity
  8
Visible (ISO)
100
AcDbLine
 10
22069.936446998
 20
7302.240249638623
 30
0.0
 11
22071.25140157423
 21
7301.481060260069
 31
0.0
  0
LINE
  5
31F
330
6C
100
AcDbEntity
  8
Visible (ISO)
100
AcDbLine
 10
22052.936446998
 20
7302.240249638623
 30
0.0
 11
22051.62149242178
 21
7301.481060260069
 31
0.0
  0
LINE
  5
320
330
6C
100
AcDbEntity
  8
Visible (ISO)
100
AcDbLine
 10
22071.25140157423
 20
7296.440249638623
 30
0.0
 11
22071.25140157423
 21
7301.481060260069
 31
0.0
  0
LINE
  5
321
330
6C
100
AcDbEntity
  8
Visible (ISO)
100
AcDbLine
 10
22066.34392428612
 20
7296.44024963862
 30
0.0
 11
22066.34392428612
 21
7301.481060260066
 31
0.0
  0
LINE
  5
322
330
6C
100
AcDbEntity
  8
Visible (ISO)
100
AcDbLine
 10
22071.25140157423
 20
7296.440249638623
 30
0.0
 11
22066.34392428612
 21
7296.44024963862
 31
0.0
  0
LINE
  5
323
330
6C
100
AcDbEntity
  8
Visible (ISO)
100
AcDbLine
 10
22066.34392428612
 20
7296.44024963862
 30
0.0
 11
22056.52896970989
 21
7296.44024963862
 31
0.0
  0
LINE
  5
324
330
6C
100
AcDbEntity
  8
Visible (ISO)
100
AcDbLine
 10
22056.52896970989
 20
7296.44024963862
 30
0.0
 11
22051.62149242178
 21
7296.440249638623
 31
0.0
  0
LINE
  5
325
330
6C
100
AcDbEntity
  8
Visible (ISO)
100
AcDbLine
 10
22056.52896970989
 20
7296.44024963862
 30
0.0
 11
22056.52896970989
 21
7301.481060260066
 31
0.0
  0
LINE
  5
326
330
6C
100
AcDbEntity
  8
Visible (ISO)
100
AcDbLine
 10
22051.62149242178
 20
7296.440249638623
 30
0.0
 11
22051.62149242178
 21
7301.481060260069
 31
0.0
  0
LINE
  5
327
330
6C
100
AcDbEntity
  8
Visible (ISO)
100
AcDbLine
 10
22066.436446998
 20
7288.840149638623
 30
0.0
 11
22066.436446998
 21
7288.381904479054
 31
0.0
  0
LINE
  5
328
330
6C
100
AcDbEntity
  8
Visible (ISO)
100
AcDbLine
 10
22056.436446998
 20
7288.840149638623
 30
0.0
 11
22056.436446998
 21
7288.727432234657
 31
0.0
  0
LINE
  5
329
330
6C
100
AcDbEntity
  8
Visible (ISO)
100
AcDbLine
 10
22069.136446998
 20
7296.440249638623
 30
0.0
 11
22069.136446998
 21
7295.840149638623
 31
0.0
  0
LINE
  5
32A
330
6C
100
AcDbEntity
  8
Visible (ISO)
100
AcDbLine
 10
22053.736446998
 20
7296.440249638623
 30
0.0
 11
22053.736446998
 21
7295.840149638623
 31
0.0
  0
SPLINE
  5
32B
330
6C
100
AcDbEntity
  8
Visible (ISO)
100
AcDbSpline
210
0.0
220
0.0
230
1.0
 70
    12
 71
     2
 72
     6
 73
     3
 74
     0
 42
0.0000000001
 43
0.0000000001
 40
0.4978532609589542
 40
0.4978532609589542
 40
0.4978532609589542
 40
0.9957065219179085
 40
0.9957065219179085
 40
0.9957065219179085
 10
21884.36960358107
 20
7302.240249638622
 30
0.0
 41
1.0
 10
21883.23081951323
 20
7302.240249638623
 30
0.0
 41
1.037954849302014
 10
21881.91586493701
 20
7301.481060260069
 30
0.0
 41
1.0
  0
LINE
  5
32C
330
6C
100
AcDbEntity
  8
Visible (ISO)
100
AcDbLine
 10
21884.36960358107
 20
7302.240249638622
 30
0.0
 11
21883.23081951323
 21
7302.240249638623
 31
0.0
  0
SPLINE
  5
32D
330
6C
100
AcDbEntity
  8
Visible (ISO)
100
AcDbSpline
210
0.0
220
0.0
230
1.0
 70
    12
 71
     2
 72
     6
 73
     3
 74
     0
 42
0.0000000001
 43
0.0000000001
 40
0.0
 40
0.0
 40
0.0
 40
0.4978532609589534
 40
0.4978532609589534
 40
0.4978532609589534
 10
21901.54577408946
 20
7301.481060260069
 30
0.0
 41
1.0
 10
21900.23081951324
 20
7302.240249638623
 30
0.0
 41
1.037954849302042
 10
21899.0920354454
 20
7302.240249638622
 30
0.0
 41
1.0
  0
LINE
  5
32E
330
6C
100
AcDbEntity
  8
Visible (ISO)
100
AcDbLine
 10
21900.23081951324
 20
7302.240249638623
 30
0.0
 11
21899.0920354454
 21
7302.240249638622
 31
0.0
  0
SPLINE
  5
32F
330
6C
100
AcDbEntity
  8
Visible (ISO)
100
AcDbSpline
210
0.0
220
0.0
230
1.0
 70
    12
 71
     2
 72
     6
 73
     3
 74
     0
 42
0.0000000001
 43
0.0000000001
 40
0.4978532609589534
 40
0.4978532609589534
 40
0.4978532609589534
 40
0.9957065219179066
 40
0.9957065219179066
 40
0.9957065219179066
 10
21891.73081951323
 20
7302.240249638621
 30
0.0
 41
1.0
 10
21889.45325137757
 20
7302.240249638621
 30
0.0
 41
1.037954849302054
 10
21886.82334222512
 20
7301.481060260066
 30
0.0
 41
1.0
  0
LINE
  5
330
330
6C
100
AcDbEntity
  8
Visible (ISO)
100
AcDbLine
 10
21891.73081951323
 20
7302.240249638619
 30
0.0
 11
21884.36960358107
 21
7302.240249638622
 31
0.0
  0
SPLINE
  5
331
330
6C
100
AcDbEntity
  8
Visible (ISO)
100
AcDbSpline
210
0.0
220
0.0
230
1.0
 70
    12
 71
     2
 72
     6
 73
     3
 74
     0
 42
0.0000000001
 43
0.0000000001
 40
0.0
 40
0.0
 40
0.0
 40
0.4978532609589542
 40
0.4978532609589542
 40
0.4978532609589542
 10
21886.82334222512
 20
7301.481060260066
 30
0.0
 41
1.0
 10
21885.5083876489
 20
7302.240249638622
 30
0.0
 41
1.037954849302022
 10
21884.36960358107
 20
7302.240249638622
 30
0.0
 41
1.0
  0
SPLINE
  5
332
330
6C
100
AcDbEntity
  8
Visible (ISO)
100
AcDbSpline
210
0.0
220
0.0
230
1.0
 70
    12
 71
     2
 72
     6
 73
     3
 74
     0
 42
0.0000000001
 43
0.0000000001
 40
0.0
 40
0.0
 40
0.0
 40
0.4978532609589534
 40
0.4978532609589534
 40
0.4978532609589534
 10
21896.63829680135
 20
7301.481060260066
 30
0.0
 41
1.0
 10
21894.0083876489
 20
7302.240249638621
 30
0.0
 41
1.037954849302043
 10
21891.73081951323
 20
7302.240249638621
 30
0.0
 41
1.0
  0
SPLINE
  5
333
330
6C
100
AcDbEntity
  8
Visible (ISO)
100
AcDbSpline
210
0.0
220
0.0
230
1.0
 70
    12
 71
     2
 72
     6
 73
     3
 74
     0
 42
0.0000000001
 43
0.0000000001
 40
0.4978532609589534
 40
0.4978532609589534
 40
0.4978532609589534
 40
0.9957065219179067
 40
0.9957065219179067
 40
0.9957065219179067
 10
21899.0920354454
 20
7302.240249638622
 30
0.0
 41
1.0
 10
21897.95325137757
 20
7302.240249638622
 30
0.0
 41
1.037954849302043
 10
21896.63829680135
 20
7301.481060260066
 30
0.0
 41
1.0
  0
LINE
  5
334
330
6C
100
AcDbEntity
  8
Visible (ISO)
100
AcDbLine
 10
21899.0920354454
 20
7302.240249638622
 30
0.0
 11
21891.73081951323
 21
7302.240249638621
 31
0.0
  0
LINE
  5
335
330
6C
100
AcDbEntity
  8
Visible (ISO)
100
AcDbLine
 10
21883.23081951323
 20
7302.240249638623
 30
0.0
 11
21881.91586493701
 21
7301.481060260069
 31
0.0
  0
LINE
  5
336
330
6C
100
AcDbEntity
  8
Visible (ISO)
100
AcDbLine
 10
21900.23081951324
 20
7302.240249638623
 30
0.0
 11
21901.54577408946
 21
7301.481060260069
 31
0.0
  0
LINE
  5
337
330
6C
100
AcDbEntity
  8
Visible (ISO)
100
AcDbLine
 10
21886.82334222512
 20
7296.44024963862
 30
0.0
 11
21886.82334222512
 21
7301.481060260066
 31
0.0
  0
LINE
  5
338
330
6C
100
AcDbEntity
  8
Visible (ISO)
100
AcDbLine
 10
21896.63829680135
 20
7296.44024963862
 30
0.0
 11
21886.82334222512
 21
7296.44024963862
 31
0.0
  0
LINE
  5
339
330
6C
100
AcDbEntity
  8
Visible (ISO)
100
AcDbLine
 10
21896.63829680135
 20
7296.44024963862
 30
0.0
 11
21896.63829680135
 21
7301.481060260066
 31
0.0
  0
LINE
  5
33A
330
6C
100
AcDbEntity
  8
Visible (ISO)
100
AcDbLine
 10
21881.91586493701
 20
7296.440249638623
 30
0.0
 11
21881.91586493701
 21
7301.481060260069
 31
0.0
  0
LINE
  5
33B
330
6C
100
AcDbEntity
  8
Visible (ISO)
100
AcDbLine
 10
21886.82334222512
 20
7296.44024963862
 30
0.0
 11
21881.91586493701
 21
7296.440249638623
 31
0.0
  0
LINE
  5
33C
330
6C
100
AcDbEntity
  8
Visible (ISO)
100
AcDbLine
 10
21901.54577408946
 20
7296.440249638623
 30
0.0
 11
21896.63829680135
 21
7296.44024963862
 31
0.0
  0
LINE
  5
33D
330
6C
100
AcDbEntity
  8
Visible (ISO)
100
AcDbLine
 10
21901.54577408946
 20
7296.440249638623
 30
0.0
 11
21901.54577408946
 21
7301.481060260069
 31
0.0
  0
LINE
  5
33E
330
6C
100
AcDbEntity
  8
Visible (ISO)
100
AcDbLine
 10
21896.73081951323
 20
7288.840149638623
 30
0.0
 11
21896.73081951323
 21
7288.727526923887
 31
0.0
  0
LINE
  5
33F
330
6C
100
AcDbEntity
  8
Visible (ISO)
100
AcDbLine
 10
21886.73081951323
 20
7288.840149638623
 30
0.0
 11
21886.73081951323
 21
7288.382086474209
 31
0.0
  0
LINE
  5
340
330
6C
100
AcDbEntity
  8
Visible (ISO)
100
AcDbLine
 10
21899.43081951323
 20
7296.440249638623
 30
0.0
 11
21899.43081951323
 21
7295.840149638623
 31
0.0
  0
LINE
  5
341
330
6C
100
AcDbEntity
  8
Visible (ISO)
100
AcDbLine
 10
21884.03081951324
 20
7296.440249638623
 30
0.0
 11
21884.03081951324
 21
7295.840149638623
 31
0.0
  0
SPLINE
  5
342
330
6C
100
AcDbEntity
  8
Visible (ISO)
100
AcDbSpline
210
0.0
220
0.0
230
1.0
 70
    12
 71
     2
 72
     6
 73
     3
 74
     0
 42
0.0000000001
 43
0.0000000001
 40
0.4978532609589537
 40
0.4978532609589537
 40
0.4978532609589537
 40
0.9957065219179071
 40
0.9957065219179071
 40
0.9957065219179071
 10
21972.33363325562
 20
7302.240249638593
 30
0.0
 41
1.0
 10
21970.36120139128
 20
7302.240249638595
 30
0.0
 41
1.037954849302035
 10
21968.08363325562
 20
7301.481060260041
 30
0.0
 41
1.0
  0
LINE
  5
343
330
6C
100
AcDbEntity
  8
Visible (ISO)
100
AcDbLine
 10
21972.33363325562
 20
7302.240249638593
 30
0.0
 11
21968.08363325562
 21
7302.240249638597
 31
0.0
  0
SPLINE
  5
344
330
6C
100
AcDbEntity
  8
Visible (ISO)
100
AcDbSpline
210
0.0
220
0.0
230
1.0
 70
    28
 71
     2
 72
     6
 73
     3
 74
     0
 42
0.0000000001
 43
0.0000000001
 40
0.0
 40
0.0
 40
0.0
 40
0.4978532609589536
 40
0.4978532609589536
 40
0.4978532609589536
 10
21968.08363325562
 20
7301.481060260041
 30
0.0
 41
1.0
 10
21968.08363325562
 20
7302.240249638597
 30
0.0
 41
1.037954849302054
 10
21968.08363325562
 20
7302.240249638597
 30
0.0
 41
1.0
  0
SPLINE
  5
345
330
6C
100
AcDbEntity
  8
Visible (ISO)
100
AcDbSpline
210
0.0
220
0.0
230
1.0
 70
    12
 71
     2
 72
     6
 73
     3
 74
     0
 42
0.0000000001
 43
0.0000000001
 40
0.4978532609589542
 40
0.4978532609589542
 40
0.4978532609589542
 40
0.9957065219179085
 40
0.9957065219179085
 40
0.9957065219179085
 10
21980.83363325562
 20
7302.240249638593
 30
0.0
 41
1.0
 10
21978.86120139128
 20
7302.240249638593
 30
0.0
 41
1.037954849302014
 10
21976.58363325562
 20
7301.481060260039
 30
0.0
 41
1.0
  0
LINE
  5
346
330
6C
100
AcDbEntity
  8
Visible (ISO)
100
AcDbLine
 10
21980.83363325562
 20
7302.240249638593
 30
0.0
 11
21972.33363325562
 21
7302.240249638593
 31
0.0
  0
SPLINE
  5
347
330
6C
100
AcDbEntity
  8
Visible (ISO)
100
AcDbSpline
210
0.0
220
0.0
230
1.0
 70
    12
 71
     2
 72
     6
 73
     3
 74
     0
 42
0.0000000001
 43
0.0000000001
 40
0.0
 40
0.0
 40
0.0
 40
0.4978532609589537
 40
0.4978532609589537
 40
0.4978532609589537
 10
21976.58363325562
 20
7301.481060260039
 30
0.0
 41
1.0
 10
21974.30606511995
 20
7302.240249638593
 30
0.0
 41
1.037954849302049
 10
21972.33363325562
 20
7302.240249638593
 30
0.0
 41
1.0
  0
SPLINE
  5
348
330
6C
100
AcDbEntity
  8
Visible (ISO)
100
AcDbSpline
210
0.0
220
0.0
230
1.0
 70
    28
 71
     2
 72
     6
 73
     3
 74
     0
 42
0.0000000001
 43
0.0000000001
 40
0.4978532609589534
 40
0.4978532609589534
 40
0.4978532609589534
 40
0.9957065219179066
 40
0.9957065219179066
 40
0.9957065219179066
 10
21985.08363325562
 20
7302.240249638597
 30
0.0
 41
1.0
 10
21985.08363325562
 20
7302.240249638597
 30
0.0
 41
1.037954849302054
 10
21985.08363325562
 20
7301.481060260041
 30
0.0
 41
1.0
  0
LINE
  5
349
330
6C
100
AcDbEntity
  8
Visible (ISO)
100
AcDbLine
 10
21985.08363325562
 20
7302.240249638597
 30
0.0
 11
21980.83363325562
 21
7302.240249638593
 31
0.0
  0
SPLINE
  5
34A
330
6C
100
AcDbEntity
  8
Visible (ISO)
100
AcDbSpline
210
0.0
220
0.0
230
1.0
 70
    12
 71
     2
 72
     6
 73
     3
 74
     0
 42
0.0000000001
 43
0.0000000001
 40
0.0
 40
0.0
 40
0.0
 40
0.4978532609589542
 40
0.4978532609589542
 40
0.4978532609589542
 10
21985.08363325562
 20
7301.481060260041
 30
0.0
 41
1.0
 10
21982.80606511996
 20
7302.240249638595
 30
0.0
 41
1.037954849302022
 10
21980.83363325562
 20
7302.240249638593
 30
0.0
 41
1.0
  0
LINE
  5
34B
330
6C
100
AcDbEntity
  8
Visible (ISO)
100
AcDbLine
 10
21985.08363325562
 20
7296.440249638596
 30
0.0
 11
21985.08363325562
 21
7301.481060260041
 31
0.0
  0
LINE
  5
34C
330
6C
100
AcDbEntity
  8
Visible (ISO)
100
AcDbLine
 10
21976.58363325562
 20
7296.440249638594
 30
0.0
 11
21976.58363325562
 21
7301.481060260039
 31
0.0
  0
LINE
  5
34D
330
6C
100
AcDbEntity
  8
Visible (ISO)
100
AcDbLine
 10
21985.08363325562
 20
7296.440249638596
 30
0.0
 11
21976.58363325562
 21
7296.440249638594
 31
0.0
  0
LINE
  5
34E
330
6C
100
AcDbEntity
  8
Visible (ISO)
100
AcDbLine
 10
21968.08363325562
 20
7296.440249638596
 30
0.0
 11
21968.08363325562
 21
7301.481060260041
 31
0.0
  0
LINE
  5
34F
330
6C
100
AcDbEntity
  8
Visible (ISO)
100
AcDbLine
 10
21976.58363325562
 20
7296.440249638594
 30
0.0
 11
21968.08363325562
 21
7296.440249638596
 31
0.0
  0
LINE
  5
350
330
6C
100
AcDbEntity
  8
Visible (ISO)
100
AcDbLine
 10
21981.58363325562
 20
7288.840149638597
 30
0.0
 11
21981.58363325562
 21
7288.52396073361
 31
0.0
  0
LINE
  5
351
330
6C
100
AcDbEntity
  8
Visible (ISO)
100
AcDbLine
 10
21971.58363325562
 20
7288.840149638597
 30
0.0
 11
21971.58363325562
 21
7288.52396073361
 31
0.0
  0
LINE
  5
352
330
6C
100
AcDbEntity
  8
Visible (ISO)
100
AcDbLine
 10
21984.28363325562
 20
7296.440249638597
 30
0.0
 11
21984.28363325562
 21
7295.840149638597
 31
0.0
  0
LINE
  5
353
330
6C
100
AcDbEntity
  8
Visible (ISO)
100
AcDbLine
 10
21968.88363325562
 20
7296.440249638597
 30
0.0
 11
21968.88363325562
 21
7295.840149638597
 31
0.0
  0
SPLINE
  5
354
330
6C
100
AcDbEntity
  8
Visible (ISO)
100
AcDbSpline
210
0.0
220
0.0
230
1.0
 70
    12
 71
     2
 72
     6
 73
     3
 74
     0
 42
0.0000000001
 43
0.0000000001
 40
0.4978532609589537
 40
0.4978532609589537
 40
0.4978532609589537
 40
0.9957065219179071
 40
0.9957065219179071
 40
0.9957065219179071
 10
23768.79766293017
 20
7302.240249638611
 30
0.0
 41
1.0
 10
23767.65887886234
 20
7302.240249638611
 30
0.0
 41
1.037954849302035
 10
23766.34392428611
 20
7301.481060260056
 30
0.0
 41
1.0
  0
LINE
  5
355
330
6C
100
AcDbEntity
  8
Visible (ISO)
100
AcDbLine
 10
23768.79766293017
 20
7302.240249638611
 30
0.0
 11
23761.436446998
 21
7302.240249638611
 31
0.0
  0
SPLINE
  5
356
330
6C
100
AcDbEntity
  8
Visible (ISO)
100
AcDbSpline
210
0.0
220
0.0
230
1.0
 70
    12
 71
     2
 72
     6
 73
     3
 74
     0
 42
0.0000000001
 43
0.0000000001
 40
0.0
 40
0.0
 40
0.0
 40
0.4978532609589536
 40
0.4978532609589536
 40
0.4978532609589536
 10
23766.34392428611
 20
7301.481060260056
 30
0.0
 41
1.0
 10
23763.71401513366
 20
7302.240249638611
 30
0.0
 41
1.037954849302054
 10
23761.436446998
 20
7302.240249638611
 30
0.0
 41
1.0
  0
SPLINE
  5
357
330
6C
100
AcDbEntity
  8
Visible (ISO)
100
AcDbSpline
210
0.0
220
0.0
230
1.0
 70
    12
 71
     2
 72
     6
 73
     3
 74
     0
 42
0.0000000001
 43
0.0000000001
 40
0.0
 40
0.0
 40
0.0
 40
0.4978532609589533
 40
0.4978532609589533
 40
0.4978532609589533
 10
23756.52896970989
 20
7301.481060260056
 30
0.0
 41
1.0
 10
23755.21401513366
 20
7302.240249638611
 30
0.0
 41
1.037954849302054
 10
23754.07523106583
 20
7302.240249638611
 30
0.0
 41
1.0
  0
SPLINE
  5
358
330
6C
100
AcDbEntity
  8
Visible (ISO)
100
AcDbSpline
210
0.0
220
0.0
230
1.0
 70
    12
 71
     2
 72
     6
 73
     3
 74
     0
 42
0.0000000001
 43
0.0000000001
 40
0.4978532609589536
 40
0.4978532609589536
 40
0.4978532609589536
 40
0.9957065219179071
 40
0.9957065219179071
 40
0.9957065219179071
 10
23761.436446998
 20
7302.240249638611
 30
0.0
 41
1.0
 10
23759.15887886234
 20
7302.240249638611
 30
0.0
 41
1.037954849302056
 10
23756.52896970989
 20
7301.481060260056
 30
0.0
 41
1.0
  0
LINE
  5
359
330
6C
100
AcDbEntity
  8
Visible (ISO)
100
AcDbLine
 10
23761.436446998
 20
7302.240249638609
 30
0.0
 11
23754.07523106583
 21
7302.240249638611
 31
0.0
  0
LINE
  5
35A
330
6C
100
AcDbEntity
  8
Visible (ISO)
100
AcDbLine
 10
23769.936446998
 20
7302.240249638614
 30
0.0
 11
23768.79766293017
 21
7302.240249638611
 31
0.0
  0
SPLINE
  5
35B
330
6C
100
AcDbEntity
  8
Visible (ISO)
100
AcDbSpline
210
0.0
220
0.0
230
1.0
 70
    12
 71
     2
 72
     6
 73
     3
 74
     0
 42
0.0000000001
 43
0.0000000001
 40
0.0
 40
0.0
 40
0.0
 40
0.4978532609589537
 40
0.4978532609589537
 40
0.4978532609589537
 10
23771.25140157422
 20
7301.481060260059
 30
0.0
 41
1.0
 10
23769.936446998
 20
7302.240249638614
 30
0.0
 41
1.037954849302049
 10
23768.79766293017
 20
7302.240249638611
 30
0.0
 41
1.0
  0
SPLINE
  5
35C
330
6C
100
AcDbEntity
  8
Visible (ISO)
100
AcDbSpline
210
0.0
220
0.0
230
1.0
 70
    12
 71
     2
 72
     6
 73
     3
 74
     0
 42
0.0000000001
 43
0.0000000001
 40
0.4978532609589533
 40
0.4978532609589533
 40
0.4978532609589533
 40
0.9957065219179067
 40
0.9957065219179067
 40
0.9957065219179067
 10
23754.07523106583
 20
7302.240249638611
 30
0.0
 41
1.0
 10
23752.936446998
 20
7302.240249638614
 30
0.0
 41
1.037954849302048
 10
23751.62149242178
 20
7301.481060260059
 30
0.0
 41
1.0
  0
LINE
  5
35D
330
6C
100
AcDbEntity
  8
Visible (ISO)
100
AcDbLine
 10
23754.07523106583
 20
7302.240249638611
 30
0.0
 11
23752.936446998
 21
7302.240249638614
 31
0.0
  0
LINE
  5
35E
330
6C
100
AcDbEntity
  8
Visible (ISO)
100
AcDbLine
 10
23769.936446998
 20
7302.240249638614
 30
0.0
 11
23771.25140157422
 21
7301.481060260059
 31
0.0
  0
LINE
  5
35F
330
6C
100
AcDbEntity
  8
Visible (ISO)
100
AcDbLine
 10
23752.936446998
 20
7302.240249638614
 30
0.0
 11
23751.62149242178
 21
7301.481060260059
 31
0.0
  0
LINE
  5
360
330
6C
100
AcDbEntity
  8
Visible (ISO)
100
AcDbLine
 10
23771.25140157422
 20
7296.440249638613
 30
0.0
 11
23771.25140157422
 21
7301.481060260059
 31
0.0
  0
LINE
  5
361
330
6C
100
AcDbEntity
  8
Visible (ISO)
100
AcDbLine
 10
23766.34392428611
 20
7296.44024963861
 30
0.0
 11
23766.34392428611
 21
7301.481060260056
 31
0.0
  0
LINE
  5
362
330
6C
100
AcDbEntity
  8
Visible (ISO)
100
AcDbLine
 10
23771.25140157422
 20
7296.440249638613
 30
0.0
 11
23766.34392428611
 21
7296.44024963861
 31
0.0
  0
LINE
  5
363
330
6C
100
AcDbEntity
  8
Visible (ISO)
100
AcDbLine
 10
23766.34392428611
 20
7296.44024963861
 30
0.0
 11
23756.52896970989
 21
7296.44024963861
 31
0.0
  0
LINE
  5
364
330
6C
100
AcDbEntity
  8
Visible (ISO)
100
AcDbLine
 10
23756.52896970989
 20
7296.44024963861
 30
0.0
 11
23751.62149242178
 21
7296.440249638613
 31
0.0
  0
LINE
  5
365
330
6C
100
AcDbEntity
  8
Visible (ISO)
100
AcDbLine
 10
23756.52896970989
 20
7296.44024963861
 30
0.0
 11
23756.52896970989
 21
7301.481060260056
 31
0.0
  0
LINE
  5
366
330
6C
100
AcDbEntity
  8
Visible (ISO)
100
AcDbLine
 10
23751.62149242178
 20
7296.440249638613
 30
0.0
 11
23751.62149242178
 21
7301.481060260059
 31
0.0
  0
LINE
  5
367
330
6C
100
AcDbEntity
  8
Visible (ISO)
100
AcDbLine
 10
23766.436446998
 20
7288.840149638613
 30
0.0
 11
23766.436446998
 21
7288.381904479044
 31
0.0
  0
LINE
  5
368
330
6C
100
AcDbEntity
  8
Visible (ISO)
100
AcDbLine
 10
23756.436446998
 20
7288.840149638613
 30
0.0
 11
23756.436446998
 21
7288.727432234647
 31
0.0
  0
LINE
  5
369
330
6C
100
AcDbEntity
  8
Visible (ISO)
100
AcDbLine
 10
23769.136446998
 20
7296.440249638613
 30
0.0
 11
23769.136446998
 21
7295.840149638613
 31
0.0
  0
LINE
  5
36A
330
6C
100
AcDbEntity
  8
Visible (ISO)
100
AcDbLine
 10
23753.736446998
 20
7296.440249638613
 30
0.0
 11
23753.736446998
 21
7295.840149638613
 31
0.0
  0
SPLINE
  5
36B
330
6C
100
AcDbEntity
  8
Visible (ISO)
100
AcDbSpline
210
0.0
220
0.0
230
1.0
 70
    12
 71
     2
 72
     6
 73
     3
 74
     0
 42
0.0000000001
 43
0.0000000001
 40
0.4978532609589542
 40
0.4978532609589542
 40
0.4978532609589542
 40
0.9957065219179085
 40
0.9957065219179085
 40
0.9957065219179085
 10
23584.36960358106
 20
7302.240249638611
 30
0.0
 41
1.0
 10
23583.23081951323
 20
7302.240249638614
 30
0.0
 41
1.037954849302014
 10
23581.915864937
 20
7301.481060260059
 30
0.0
 41
1.0
  0
LINE
  5
36C
330
6C
100
AcDbEntity
  8
Visible (ISO)
100
AcDbLine
 10
23584.36960358106
 20
7302.240249638611
 30
0.0
 11
23583.23081951323
 21
7302.240249638614
 31
0.0
  0
SPLINE
  5
36D
330
6C
100
AcDbEntity
  8
Visible (ISO)
100
AcDbSpline
210
0.0
220
0.0
230
1.0
 70
    12
 71
     2
 72
     6
 73
     3
 74
     0
 42
0.0000000001
 43
0.0000000001
 40
0.0
 40
0.0
 40
0.0
 40
0.4978532609589534
 40
0.4978532609589534
 40
0.4978532609589534
 10
23601.54577408945
 20
7301.481060260059
 30
0.0
 41
1.0
 10
23600.23081951323
 20
7302.240249638614
 30
0.0
 41
1.037954849302042
 10
23599.0920354454
 20
7302.240249638611
 30
0.0
 41
1.0
  0
LINE
  5
36E
330
6C
100
AcDbEntity
  8
Visible (ISO)
100
AcDbLine
 10
23600.23081951323
 20
7302.240249638614
 30
0.0
 11
23599.0920354454
 21
7302.240249638611
 31
0.0
  0
SPLINE
  5
36F
330
6C
100
AcDbEntity
  8
Visible (ISO)
100
AcDbSpline
210
0.0
220
0.0
230
1.0
 70
    12
 71
     2
 72
     6
 73
     3
 74
     0
 42
0.0000000001
 43
0.0000000001
 40
0.4978532609589534
 40
0.4978532609589534
 40
0.4978532609589534
 40
0.9957065219179066
 40
0.9957065219179066
 40
0.9957065219179066
 10
23591.73081951323
 20
7302.240249638611
 30
0.0
 41
1.0
 10
23589.45325137757
 20
7302.240249638611
 30
0.0
 41
1.037954849302054
 10
23586.82334222512
 20
7301.481060260056
 30
0.0
 41
1.0
  0
LINE
  5
370
330
6C
100
AcDbEntity
  8
Visible (ISO)
100
AcDbLine
 10
23591.73081951323
 20
7302.240249638609
 30
0.0
 11
23584.36960358106
 21
7302.240249638611
 31
0.0
  0
SPLINE
  5
371
330
6C
100
AcDbEntity
  8
Visible (ISO)
100
AcDbSpline
210
0.0
220
0.0
230
1.0
 70
    12
 71
     2
 72
     6
 73
     3
 74
     0
 42
0.0000000001
 43
0.0000000001
 40
0.0
 40
0.0
 40
0.0
 40
0.4978532609589542
 40
0.4978532609589542
 40
0.4978532609589542
 10
23586.82334222512
 20
7301.481060260056
 30
0.0
 41
1.0
 10
23585.50838764889
 20
7302.240249638611
 30
0.0
 41
1.037954849302022
 10
23584.36960358106
 20
7302.240249638611
 30
0.0
 41
1.0
  0
SPLINE
  5
372
330
6C
100
AcDbEntity
  8
Visible (ISO)
100
AcDbSpline
210
0.0
220
0.0
230
1.0
 70
    12
 71
     2
 72
     6
 73
     3
 74
     0
 42
0.0000000001
 43
0.0000000001
 40
0.0
 40
0.0
 40
0.0
 40
0.4978532609589534
 40
0.4978532609589534
 40
0.4978532609589534
 10
23596.63829680134
 20
7301.481060260056
 30
0.0
 41
1.0
 10
23594.00838764889
 20
7302.240249638611
 30
0.0
 41
1.037954849302043
 10
23591.73081951323
 20
7302.240249638611
 30
0.0
 41
1.0
  0
SPLINE
  5
373
330
6C
100
AcDbEntity
  8
Visible (ISO)
100
AcDbSpline
210
0.0
220
0.0
230
1.0
 70
    12
 71
     2
 72
     6
 73
     3
 74
     0
 42
0.0000000001
 43
0.0000000001
 40
0.4978532609589534
 40
0.4978532609589534
 40
0.4978532609589534
 40
0.9957065219179067
 40
0.9957065219179067
 40
0.9957065219179067
 10
23599.0920354454
 20
7302.240249638611
 30
0.0
 41
1.0
 10
23597.95325137757
 20
7302.240249638611
 30
0.0
 41
1.037954849302043
 10
23596.63829680134
 20
7301.481060260056
 30
0.0
 41
1.0
  0
LINE
  5
374
330
6C
100
AcDbEntity
  8
Visible (ISO)
100
AcDbLine
 10
23599.0920354454
 20
7302.240249638611
 30
0.0
 11
23591.73081951323
 21
7302.240249638611
 31
0.0
  0
LINE
  5
375
330
6C
100
AcDbEntity
  8
Visible (ISO)
100
AcDbLine
 10
23583.23081951323
 20
7302.240249638614
 30
0.0
 11
23581.915864937
 21
7301.481060260059
 31
0.0
  0
LINE
  5
376
330
6C
100
AcDbEntity
  8
Visible (ISO)
100
AcDbLine
 10
23600.23081951323
 20
7302.240249638614
 30
0.0
 11
23601.54577408945
 21
7301.481060260059
 31
0.0
  0
LINE
  5
377
330
6C
100
AcDbEntity
  8
Visible (ISO)
100
AcDbLine
 10
23586.82334222512
 20
7296.44024963861
 30
0.0
 11
23586.82334222512
 21
7301.481060260056
 31
0.0
  0
LINE
  5
378
330
6C
100
AcDbEntity
  8
Visible (ISO)
100
AcDbLine
 10
23596.63829680134
 20
7296.44024963861
 30
0.0
 11
23586.82334222512
 21
7296.44024963861
 31
0.0
  0
LINE
  5
379
330
6C
100
AcDbEntity
  8
Visible (ISO)
100
AcDbLine
 10
23596.63829680134
 20
7296.44024963861
 30
0.0
 11
23596.63829680134
 21
7301.481060260056
 31
0.0
  0
LINE
  5
37A
330
6C
100
AcDbEntity
  8
Visible (ISO)
100
AcDbLine
 10
23581.915864937
 20
7296.440249638613
 30
0.0
 11
23581.915864937
 21
7301.481060260059
 31
0.0
  0
LINE
  5
37B
330
6C
100
AcDbEntity
  8
Visible (ISO)
100
AcDbLine
 10
23586.82334222512
 20
7296.44024963861
 30
0.0
 11
23581.915864937
 21
7296.440249638613
 31
0.0
  0
LINE
  5
37C
330
6C
100
AcDbEntity
  8
Visible (ISO)
100
AcDbLine
 10
23601.54577408945
 20
7296.440249638613
 30
0.0
 11
23596.63829680134
 21
7296.44024963861
 31
0.0
  0
LINE
  5
37D
330
6C
100
AcDbEntity
  8
Visible (ISO)
100
AcDbLine
 10
23601.54577408945
 20
7296.440249638613
 30
0.0
 11
23601.54577408945
 21
7301.481060260059
 31
0.0
  0
LINE
  5
37E
330
6C
100
AcDbEntity
  8
Visible (ISO)
100
AcDbLine
 10
23596.73081951323
 20
7288.840149638613
 30
0.0
 11
23596.73081951323
 21
7288.727526923878
 31
0.0
  0
LINE
  5
37F
330
6C
100
AcDbEntity
  8
Visible (ISO)
100
AcDbLine
 10
23586.73081951323
 20
7288.840149638613
 30
0.0
 11
23586.73081951323
 21
7288.382086474199
 31
0.0
  0
LINE
  5
380
330
6C
100
AcDbEntity
  8
Visible (ISO)
100
AcDbLine
 10
23599.43081951323
 20
7296.440249638613
 30
0.0
 11
23599.43081951323
 21
7295.840149638613
 31
0.0
  0
LINE
  5
381
330
6C
100
AcDbEntity
  8
Visible (ISO)
100
AcDbLine
 10
23584.03081951323
 20
7296.440249638613
 30
0.0
 11
23584.03081951323
 21
7295.840149638613
 31
0.0
  0
SPLINE
  5
382
330
6C
100
AcDbEntity
  8
Visible (ISO)
100
AcDbSpline
210
0.0
220
0.0
230
1.0
 70
    12
 71
     2
 72
     6
 73
     3
 74
     0
 42
0.0000000001
 43
0.0000000001
 40
0.4978532609589537
 40
0.4978532609589537
 40
0.4978532609589537
 40
0.9957065219179071
 40
0.9957065219179071
 40
0.9957065219179071
 10
23672.33363325561
 20
7302.240249638583
 30
0.0
 41
1.0
 10
23670.36120139129
 20
7302.240249638586
 30
0.0
 41
1.037954849302035
 10
23668.08363325562
 20
7301.48106026003
 30
0.0
 41
1.0
  0
LINE
  5
383
330
6C
100
AcDbEntity
  8
Visible (ISO)
100
AcDbLine
 10
23672.33363325561
 20
7302.240249638583
 30
0.0
 11
23668.08363325562
 21
7302.240249638586
 31
0.0
  0
SPLINE
  5
384
330
6C
100
AcDbEntity
  8
Visible (ISO)
100
AcDbSpline
210
0.0
220
0.0
230
1.0
 70
    28
 71
     2
 72
     6
 73
     3
 74
     0
 42
0.0000000001
 43
0.0000000001
 40
0.0
 40
0.0
 40
0.0
 40
0.4978532609589536
 40
0.4978532609589536
 40
0.4978532609589536
 10
23668.08363325562
 20
7301.48106026003
 30
0.0
 41
1.0
 10
23668.08363325562
 20
7302.240249638586
 30
0.0
 41
1.037954849302054
 10
23668.08363325562
 20
7302.240249638586
 30
0.0
 41
1.0
  0
SPLINE
  5
385
330
6C
100
AcDbEntity
  8
Visible (ISO)
100
AcDbSpline
210
0.0
220
0.0
230
1.0
 70
    12
 71
     2
 72
     6
 73
     3
 74
     0
 42
0.0000000001
 43
0.0000000001
 40
0.4978532609589542
 40
0.4978532609589542
 40
0.4978532609589542
 40
0.9957065219179085
 40
0.9957065219179085
 40
0.9957065219179085
 10
23680.83363325562
 20
7302.240249638583
 30
0.0
 41
1.0
 10
23678.86120139128
 20
7302.240249638583
 30
0.0
 41
1.037954849302014
 10
23676.58363325562
 20
7301.481060260029
 30
0.0
 41
1.0
  0
LINE
  5
386
330
6C
100
AcDbEntity
  8
Visible (ISO)
100
AcDbLine
 10
23680.83363325562
 20
7302.240249638583
 30
0.0
 11
23672.33363325561
 21
7302.240249638583
 31
0.0
  0
SPLINE
  5
387
330
6C
100
AcDbEntity
  8
Visible (ISO)
100
AcDbSpline
210
0.0
220
0.0
230
1.0
 70
    12
 71
     2
 72
     6
 73
     3
 74
     0
 42
0.0000000001
 43
0.0000000001
 40
0.0
 40
0.0
 40
0.0
 40
0.4978532609589537
 40
0.4978532609589537
 40
0.4978532609589537
 10
23676.58363325562
 20
7301.481060260029
 30
0.0
 41
1.0
 10
23674.30606511996
 20
7302.240249638583
 30
0.0
 41
1.037954849302049
 10
23672.33363325561
 20
7302.240249638583
 30
0.0
 41
1.0
  0
SPLINE
  5
388
330
6C
100
AcDbEntity
  8
Visible (ISO)
100
AcDbSpline
210
0.0
220
0.0
230
1.0
 70
    28
 71
     2
 72
     6
 73
     3
 74
     0
 42
0.0000000001
 43
0.0000000001
 40
0.4978532609589534
 40
0.4978532609589534
 40
0.4978532609589534
 40
0.9957065219179066
 40
0.9957065219179066
 40
0.9957065219179066
 10
23685.08363325562
 20
7302.240249638586
 30
0.0
 41
1.0
 10
23685.08363325562
 20
7302.240249638586
 30
0.0
 41
1.037954849302054
 10
23685.08363325562
 20
7301.48106026003
 30
0.0
 41
1.0
  0
LINE
  5
389
330
6C
100
AcDbEntity
  8
Visible (ISO)
100
AcDbLine
 10
23685.08363325562
 20
7302.240249638586
 30
0.0
 11
23680.83363325562
 21
7302.240249638583
 31
0.0
  0
SPLINE
  5
38A
330
6C
100
AcDbEntity
  8
Visible (ISO)
100
AcDbSpline
210
0.0
220
0.0
230
1.0
 70
    12
 71
     2
 72
     6
 73
     3
 74
     0
 42
0.0000000001
 43
0.0000000001
 40
0.0
 40
0.0
 40
0.0
 40
0.4978532609589542
 40
0.4978532609589542
 40
0.4978532609589542
 10
23685.08363325562
 20
7301.48106026003
 30
0.0
 41
1.0
 10
23682.80606511995
 20
7302.240249638586
 30
0.0
 41
1.037954849302022
 10
23680.83363325562
 20
7302.240249638583
 30
0.0
 41
1.0
  0
LINE
  5
38B
330
6C
100
AcDbEntity
  8
Visible (ISO)
100
AcDbLine
 10
23685.08363325562
 20
7296.440249638585
 30
0.0
 11
23685.08363325562
 21
7301.48106026003
 31
0.0
  0
LINE
  5
38C
330
6C
100
AcDbEntity
  8
Visible (ISO)
100
AcDbLine
 10
23676.58363325562
 20
7296.440249638584
 30
0.0
 11
23676.58363325562
 21
7301.481060260029
 31
0.0
  0
LINE
  5
38D
330
6C
100
AcDbEntity
  8
Visible (ISO)
100
AcDbLine
 10
23685.08363325562
 20
7296.440249638585
 30
0.0
 11
23676.58363325562
 21
7296.440249638584
 31
0.0
  0
LINE
  5
38E
330
6C
100
AcDbEntity
  8
Visible (ISO)
100
AcDbLine
 10
23668.08363325562
 20
7296.440249638585
 30
0.0
 11
23668.08363325562
 21
7301.48106026003
 31
0.0
  0
LINE
  5
38F
330
6C
100
AcDbEntity
  8
Visible (ISO)
100
AcDbLine
 10
23676.58363325562
 20
7296.440249638584
 30
0.0
 11
23668.08363325562
 21
7296.440249638585
 31
0.0
  0
LINE
  5
390
330
6C
100
AcDbEntity
  8
Visible (ISO)
100
AcDbLine
 10
23681.58363325562
 20
7288.840149638587
 30
0.0
 11
23681.58363325562
 21
7288.5239607336
 31
0.0
  0
LINE
  5
391
330
6C
100
AcDbEntity
  8
Visible (ISO)
100
AcDbLine
 10
23671.58363325561
 20
7288.840149638587
 30
0.0
 11
23671.58363325561
 21
7288.5239607336
 31
0.0
  0
LINE
  5
392
330
6C
100
AcDbEntity
  8
Visible (ISO)
100
AcDbLine
 10
23684.28363325562
 20
7296.440249638587
 30
0.0
 11
23684.28363325562
 21
7295.840149638587
 31
0.0
  0
LINE
  5
393
330
6C
100
AcDbEntity
  8
Visible (ISO)
100
AcDbLine
 10
23668.88363325562
 20
7296.440249638587
 30
0.0
 11
23668.88363325562
 21
7295.840149638587
 31
0.0
  0
LINE
  5
394
330
6C
100
AcDbEntity
  8
Visible (ISO)
100
AcDbLine
 10
20091.58363325562
 20
7843.840149638605
 30
0.0
 11
20091.58363325562
 21
7833.840149638605
 31
0.0
  0
LINE
  5
395
330
6C
100
AcDbEntity
  8
Visible (ISO)
100
AcDbLine
 10
22126.58363325563
 20
7833.840149638001
 30
0.0
 11
20091.58363325562
 21
7833.840149638605
 31
0.0
  0
LINE
  5
396
330
6C
100
AcDbEntity
  8
Visible (ISO)
100
AcDbLine
 10
22126.58363325563
 20
7843.840149638001
 30
0.0
 11
20091.58363325562
 21
7843.840149638605
 31
0.0
  0
LINE
  5
397
330
6C
100
AcDbEntity
  8
Visible (ISO)
100
AcDbLine
 10
22126.58363325563
 20
7833.840149638001
 30
0.0
 11
23726.58363325564
 21
7833.840149638001
 31
0.0
  0
LINE
  5
398
330
6C
100
AcDbEntity
  8
Visible (ISO)
100
AcDbLine
 10
22126.58363325563
 20
7843.840149638001
 30
0.0
 11
23726.58363325564
 21
7843.840149638001
 31
0.0
  0
LINE
  5
399
330
6C
100
AcDbEntity
  8
Visible (ISO)
100
AcDbLine
 10
25761.58363325562
 20
7833.840149638605
 30
0.0
 11
23726.58363325563
 21
7833.840149638001
 31
0.0
  0
LINE
  5
39A
330
6C
100
AcDbEntity
  8
Visible (ISO)
100
AcDbLine
 10
25761.58363325562
 20
7843.840149638605
 30
0.0
 11
25761.58363325562
 21
7833.840149638605
 31
0.0
  0
LINE
  5
39B
330
6C
100
AcDbEntity
  8
Visible (ISO)
100
AcDbLine
 10
25761.58363325562
 20
7843.840149638605
 30
0.0
 11
23726.58363325563
 21
7843.840149638001
 31
0.0
  0
DIMENSION
  5
731
330
6C
100
AcDbEntity
  8
Dimension (ISO)
100
AcDbDimension
  2
*D6
 10
24641.4954984952
 20
7843.840149638002
 30
0.0
 11
24641.4954984952
 21
8669.76514963852
 31
0.0
 70
   160
  1
<>
 71
     2
 42
1651.850000001036
  3
Default (ISO)
100
AcDbAlignedDimension
 13
23621.58363325562
 23
9495.690149639038
 33
0.0
 14
23726.58363325563
 24
7843.840149638002
 34
0.0
 50
90.0
100
AcDbRotatedDimension
1001
ACAD
1000
DSTYLE
1002
{
1070
   172
1070
     0
1070
   289
1070
     1
1070
    74
1070
     0
1070
   271
1070
     0
1070
   272
1070
     2
1070
    48
1040
0.0
1070
    47
1040
0.0
1002
}
  0
DIMENSION
  5
819
330
6C
100
AcDbEntity
  8
Dimension (ISO)
100
AcDbDimension
  2
*D7
 10
21238.28359400203
 20
10143.8401496386
 30
0.0
 11
21238.28359400203
 21
8993.840149638456
 31
0.0
 70
   160
  1
<>
 71
     2
 42
2300.000000000305
  3
Default (ISO)
100
AcDbAlignedDimension
 13
21489.72846131138
 23
7843.840149638303
 33
0.0
 14
21931.58363325562
 24
10143.8401496386
 34
0.0
 50
270.0
100
AcDbRotatedDimension
1001
ACAD
1000
DSTYLE
1002
{
1070
   172
1070
     0
1070
   289
1070
     1
1070
    74
1070
     0
1070
   271
1070
     2
1070
    75
1070
     1
1070
   272
1070
     2
1070
    48
1040
0.0
1070
    47
1040
0.0
1002
}
  0
DIMENSION
  5
8FE
330
6C
100
AcDbEntity
  8
Dimension (ISO)
100
AcDbDimension
  2
*D8
 10
24641.4954984952
 20
7293.840149638609
 30
0.0
 11
24641.4954984952
 21
7568.840149638309
 31
0.0
 70
   160
  1
<>
 71
     2
 42
549.9999999993924
  3
Default (ISO)
100
AcDbAlignedDimension
 13
23726.58363325563
 23
7843.840149638002
 33
0.0
 14
23775.57858262173
 24
7293.840149638609
 34
0.0
 50
270.0
100
AcDbRotatedDimension
1001
ACAD
1000
DSTYLE
1002
{
1070
   172
1070
     0
1070
   289
1070
     1
1070
    74
1070
     0
1070
   271
1070
     2
1070
   272
1070
     2
1070
    48
1040
0.0
1070
    47
1040
0.0
1002
}
  0
DIMENSION
  5
9EA
330
6C
100
AcDbEntity
  8
Dimension (ISO)
100
AcDbDimension
  2
*D9
 10
21238.28359400203
 20
7138.840149638622
 30
0.0
 11
21238.28359400203
 21
7491.340149638462
 31
0.0
 70
   160
  1
<>
 71
     2
 42
704.9999999996807
  3
Default (ISO)
100
AcDbAlignedDimension
 13
21109.08363325562
 23
7843.840149638303
 33
0.0
 14
21726.58363325562
 24
7138.840149638622
 34
0.0
 50
270.0
100
AcDbRotatedDimension
1001
ACAD
1000
DSTYLE
1002
{
1070
   172
1070
     0
1070
   289
1070
     1
1070
    74
1070
     0
1070
   271
1070
     2
1070
    75
1070
     1
1070
   272
1070
     2
1070
    48
1040
0.0
1070
    47
1040
0.0
1002
}
  0
DIMENSION
  5
F65
330
6C
100
AcDbEntity
  8
Dimension (ISO)
100
AcDbDimension
  2
*D16
 10
25326.58363325563
 20
1532.761480256621
 30
0.0
 11
22926.58363325564
 21
1532.761480256621
 31
0.0
 70
   160
  1
<>
 71
     2
 42
4799.999999999996
  3
Default (ISO)
100
AcDbAlignedDimension
 13
20526.58363325564
 23
3682.761480256623
 33
0.0
 14
25326.58363325563
 24
3682.761480256622
 34
0.0
 50
180.0
100
AcDbRotatedDimension
1001
ACAD
1000
DSTYLE
1002
{
1070
   172
1070
     0
1070
   289
1070
     1
1070
    74
1070
     0
1070
   271
1070
     2
1070
   272
1070
     2
1070
    48
1040
0.0
1070
    47
1040
0.0
1002
}
  0
DIMENSION
  5
F66
330
6C
100
AcDbEntity
  8
Dimension (ISO)
100
AcDbDimension
  2
*D17
 10
25878.97266148357
 20
6682.761480256623
 30
0.0
 11
25878.97266148357
 21
4432.761480256622
 31
0.0
 70
   160
  1
<>
 71
     2
 42
4500.0
  3
Default (ISO)
100
AcDbAlignedDimension
 13
23826.58363325564
 23
2182.761480256623
 33
0.0
 14
23826.58363325564
 24
6682.761480256623
 34
0.0
 50
270.0
100
AcDbRotatedDimension
1001
ACAD
1000
DSTYLE
1002
{
1070
   172
1070
     0
1070
   289
1070
     1
1070
    74
1070
     0
1070
   271
1070
     2
1070
   272
1070
     2
1070
    48
1040
0.0
1070
    47
1040
0.0
1002
}
  0
DIMENSION
  5
F67
330
6C
100
AcDbEntity
  8
Dimension (ISO)
100
AcDbDimension
  2
*D18
 10
22026.58363325564
 20
3185.761480256624
 30
0.0
 11
22926.58363325565
 21
3185.761480256624
 31
0.0
 70
   160
  1
<>
 71
     2
 42
1799.999999999993
  3
Default (ISO)
100
AcDbAlignedDimension
 13
23826.58363325564
 23
3685.761480256624
 33
0.0
 14
22026.58363325564
 24
3685.761480256623
 34
0.0
100
AcDbRotatedDimension
1001
ACAD
1000
DSTYLE
1002
{
1070
   172
1070
     0
1070
   289
1070
     1
1070
    74
1070
     0
1070
   271
1070
     2
1070
   272
1070
     2
1070
    48
1040
0.0
1070
    47
1040
0.0
1002
}
  0
DIMENSION
  5
F68
330
6C
100
AcDbEntity
  8
Dimension (ISO)
100
AcDbDimension
  2
*D19
 10
24441.56346966244
 20
5182.761480256624
 30
0.0
 11
24441.56346966244
 21
4432.761480256623
 31
0.0
 70
   160
  1
<>
 71
     2
 42
1500.0
  3
Default (ISO)
100
AcDbAlignedDimension
 13
23823.58363325564
 23
3682.761480256624
 33
0.0
 14
23823.58363325564
 24
5182.761480256624
 34
0.0
 50
90.0
100
AcDbRotatedDimension
1001
ACAD
1000
DSTYLE
1002
{
1070
   172
1070
     0
1070
   289
1070
     1
1070
    74
1070
     0
1070
   271
1070
     2
1070
   272
1070
     2
1070
    48
1040
0.0
1070
    47
1040
0.0
1002
}
  0
INSERT
  5
1109
330
6C
100
AcDbEntity
  8
0
100
AcDbBlockReference
  2
88115_Zestaw-drazkow
 10
22926.58363325565
 20
5115.911480256622
 30
0.0
  0
ENDSEC
  0
SECTION
  2
OBJECTS
  0
DICTIONARY
  5
C
330
0
100
AcDbDictionary
281
     1
  3
ACAD_COLOR
350
63
  3
ACAD_GROUP
350
D
  3
ACAD_LAYOUT
350
62
  3
ACAD_MATERIAL
350
10
  3
ACAD_MLEADERSTYLE
350
66
  3
ACAD_MLINESTYLE
350
5F
  3
ACAD_PLOTSETTINGS
350
61
  3
ACAD_PLOTSTYLENAME
350
E
  3
ACAD_SCALELIST
350
42
  3
ACAD_TABLESTYLE
350
64
  3
ACAD_VISUALSTYLE
350
29
  3
ACDB_RECOMPOSE_DATA
350
1118
  3
AcDbVariableDictionary
350
B26
  3
DWGPROPS
350
1119
  0
DICTIONARY
  5
AE5
330
8
100
AcDbDictionary
280
     1
281
     1
  0
DICTIONARY
  5
FE9
330
6C
100
AcDbDictionary
280
     1
281
     1
  0
DICTIONARY
  5
AD1
330
110
100
AcDbDictionary
280
     1
281
     1
  3
ACAD_MLATT
360
110D
  3
ACAD_XREC_ROUNDTRIP
360
110C
  0
DICTIONARY
  5
AD4
330
112
100
AcDbDictionary
280
     1
281
     1
  3
ACAD_MLATT
360
110F
  3
ACAD_XREC_ROUNDTRIP
360
110E
  0
DICTIONARY
  5
AD7
330
113
100
AcDbDictionary
280
     1
281
     1
  3
ACAD_MLATT
360
1111
  3
ACAD_XREC_ROUNDTRIP
360
1110
  0
DICTIONARY
  5
ADA
330
117
100
AcDbDictionary
280
     1
281
     1
  3
ACAD_MLATT
360
1113
  3
ACAD_XREC_ROUNDTRIP
360
1112
  0
DICTIONARY
  5
ADD
330
118
100
AcDbDictionary
280
     1
281
     1
  3
ACAD_MLATT
360
1115
  3
ACAD_XREC_ROUNDTRIP
360
1114
  0
DICTIONARY
  5
AE0
330
119
100
AcDbDictionary
280
     1
281
     1
  3
ACAD_MLATT
360
1117
  3
ACAD_XREC_ROUNDTRIP
360
1116
  0
DICTIONARY
  5
63
102
{ACAD_REACTORS
330
C
102
}
330
C
100
AcDbDictionary
281
     1
  0
DICTIONARY
  5
D
102
{ACAD_REACTORS
330
C
102
}
330
C
100
AcDbDictionary
281
     1
  0
DICTIONARY
  5
62
102
{ACAD_REACTORS
330
C
102
}
330
C
100
AcDbDictionary
281
     1
  3
Layout1
350
6B
  3
Layout2
350
73
  3
Model
350
6F
  0
DICTIONARY
  5
10
102
{ACAD_REACTORS
330
C
102
}
330
C
100
AcDbDictionary
281
     1
  3
ByBlock
350
19
  3
ByLayer
350
11
  3
Global
350
21
  0
DICTIONARY
  5
66
102
{ACAD_REACTORS
330
C
102
}
330
C
100
AcDbDictionary
281
     1
  3
Standard
350
67
  0
DICTIONARY
  5
5F
102
{ACAD_REACTORS
330
C
102
}
330
C
100
AcDbDictionary
281
     1
  3
Standard
350
60
  0
DICTIONARY
  5
61
102
{ACAD_REACTORS
330
C
102
}
330
C
100
AcDbDictionary
281
     1
  0
ACDBDICTIONARYWDFLT
  5
E
102
{ACAD_REACTORS
330
C
102
}
330
C
100
AcDbDictionary
281
     1
  3
Normal
350
F
100
AcDbDictionaryWithDefault
340
F
  0
DICTIONARY
  5
42
102
{ACAD_REACTORS
330
C
102
}
330
C
100
AcDbDictionary
281
     1
  3
A0
350
43
  3
A1
350
44
  3
A2
350
45
  3
A3
350
46
  3
A4
350
47
  3
A5
350
48
  3
A6
350
49
  3
A7
350
4A
  3
A8
350
4B
  3
A9
350
4C
  3
B0
350
4D
  3
B1
350
4E
  3
B2
350
4F
  3
B3
350
50
  3
B4
350
51
  3
B5
350
52
  3
B6
350
53
  0
DICTIONARY
  5
64
102
{ACAD_REACTORS
330
C
102
}
330
C
100
AcDbDictionary
281
     1
  3
Standard
350
65
  0
DICTIONARY
  5
29
102
{ACAD_REACTORS
330
C
102
}
330
C
100
AcDbDictionary
281
     1
  3
2dWireframe
350
2F
  3
Basic
350
2E
  3
Brighten
350
35
  3
ColorChange
350
39
  3
Conceptual
350
32
  3
Dim
350
34
  3
EdgeColorOff
350
41
  3
Facepattern
350
38
  3
Flat
350
2A
  3
FlatWithEdges
350
2B
  3
Gouraud
350
2C
  3
GouraudWithEdges
350
2D
  3
Hidden
350
31
  3
JitterOff
350
3F
  3
Linepattern
350
37
  3
OverhangOff
350
40
  3
Realistic
350
33
  3
Shaded
350
3E
  3
Shaded with edges
350
3D
  3
Shades of Gray
350
3A
  3
Sketchy
350
3B
  3
Thicken
350
36
  3
Wireframe
350
30
  3
X-Ray
350
3C
  0
XRECORD
  5
1118
102
{ACAD_REACTORS
330
C
102
}
330
C
100
AcDbXrecord
280
     1
 90
        1
330
65
330
110
330
112
330
113
330
117
330
118
330
119
  0
DICTIONARY
  5
B26
102
{ACAD_REACTORS
330
C
102
}
330
C
100
AcDbDictionary
281
     1
  3
CANNOSCALE
350
B2A
  3
CMLEADERSTYLE
350
B28
  3
CTABLESTYLE
350
B27
  3
DIMASSOC
350
B31
  3
HIDETEXT
350
B30
  3
INDEXCTL
350
B2F
  3
LAYEREVAL
350
B2C
  3
LAYERNOTIFY
350
B2D
  3
LIGHTINGUNITS
350
B2B
  3
MSLTSCALE
350
B29
  3
SORTENTS
350
B2E
  3
XCLIPFRAME
350
110A
  0
XRECORD
  5
1119
102
{ACAD_REACTORS
330
C
102
}
330
C
100
AcDbXrecord
280
     1
  1
DWGPROPS COOKIE
  2

  3

  4
Maruszak Marcin
  6

  7

  8
Natalia
  9
v1
300
Menadżer=
301
Firma=Muller
302
Kategoria=
303
Numer części=
304
Opis=
305
Projekt=
306
Projektant=Maruszak Marcin
307
Inżynier=
308
Zatwierdził=
309
Centrum kosztów=
 40
0.001296724537037
 41
2457945.593961678
 42
2458619.605060926
  1

 90
       18
300
Dostawca=
300
Stan użytkownika=
300
Stan projektu=PracaWToku
300
Sprawdził=
300
Zatwierdził konstrukcję=Muller
300
Zatwierdził do produkcji=
300
Kolor=Biały
300
Stanowisko=Giętarka
  0
XRECORD
  5
110D
102
{ACAD_REACTORS
330
AD1
102
}
330
AD1
100
AcDbXrecord
280
     1
 70
     4
 70
     0
 70
     0
 40
1.0
  2
Numer_katalogowy
  1
Embedded Object
 10
178.6525718386176
 20
20.68422014898354
 30
0.0
 40
2.5
 41
39.63119806127143
 46
0.0
 71
     1
 72
     5
  1
88115
  7
Note Text (ISO)
 73
     1
 44
1.0
  0
XRECORD
  5
110C
102
{ACAD_REACTORS
330
AD1
102
}
330
AD1
100
AcDbXrecord
280
     1
102
ACAD_MATT_HEIGHT
140
2.5
  0
XRECORD
  5
110F
102
{ACAD_REACTORS
330
AD4
102
}
330
AD4
100
AcDbXrecord
280
     1
 70
     4
 70
     0
 70
     0
 40
1.0
  2
DATA_UTWORZENIA
  1
Embedded Object
 10
190.5938075676742
 20
13.68925708649296
 30
0.0
 40
2.5
 41
40.52963831958745
 46
0.0
 71
     1
 72
     5
  1
2017-07-10
  7
Note Text (ISO)
 73
     1
 44
1.0
  0
XRECORD
  5
110E
102
{ACAD_REACTORS
330
AD4
102
}
330
AD4
100
AcDbXrecord
280
     1
102
ACAD_MATT_HEIGHT
140
2.5
  0
XRECORD
  5
1111
102
{ACAD_REACTORS
330
AD7
102
}
330
AD7
100
AcDbXrecord
280
     1
 70
     4
 70
     0
 70
     0
 40
1.0
  2
Nazwa
  1
Embedded Object
 10
178.6760775469949
 20
16.92733633600257
 30
0.0
 40
2.5
 41
38.632931107587
 46
0.0
 71
     1
 72
     5
  1
Zestaw drążków
  7
Note Text (ISO)
 73
     1
 44
1.0
  0
XRECORD
  5
1110
102
{ACAD_REACTORS
330
AD7
102
}
330
AD7
100
AcDbXrecord
280
     1
102
ACAD_MATT_HEIGHT
140
2.5
  0
XRECORD
  5
1113
102
{ACAD_REACTORS
330
ADA
102
}
330
ADA
100
AcDbXrecord
280
     1
 70
     2
 70
     0
 70
     0
 40
1.0
  2
Numer_katalogowy
  1
Embedded Object
 10
20921.30288790039
 20
696.0040307065355
 30
0.0
 40
175.0
 41
2774.183864289
 46
0.0
 71
     1
 72
     5
  1
88115
  7
Note Text (ISO)
 73
     1
 44
1.0
  0
XRECORD
  5
1112
102
{ACAD_REACTORS
330
ADA
102
}
330
ADA
100
AcDbXrecord
280
     1
102
ACAD_MATT_HEIGHT
140
175.0
  0
XRECORD
  5
1115
102
{ACAD_REACTORS
330
ADD
102
}
330
ADD
100
AcDbXrecord
280
     1
 70
     2
 70
     0
 70
     0
 40
1.0
  2
DATA_UTWORZENIA
  1
Embedded Object
 10
21757.18938893435
 20
206.3566163321956
 30
0.0
 40
175.0
 41
2837.074682371122
 46
0.0
 71
     1
 72
     5
  1
2017-07-10
  7
Note Text (ISO)
 73
     1
 44
1.0
  0
XRECORD
  5
1114
102
{ACAD_REACTORS
330
ADD
102
}
330
ADD
100
AcDbXrecord
280
     1
102
ACAD_MATT_HEIGHT
140
175.0
  0
XRECORD
  5
1117
102
{ACAD_REACTORS
330
AE0
102
}
330
AE0
100
AcDbXrecord
280
     1
 70
     2
 70
     0
 70
     0
 40
1.0
  2
Nazwa
  1
Embedded Object
 10
20922.9482874868
 20
433.0221637978683
 30
0.0
 40
175.0
 41
2704.305177531091
 46
0.0
 71
     1
 72
     5
  1
Zestaw drążków
  7
Note Text (ISO)
 73
     1
 44
1.0
  0
XRECORD
  5
1116
102
{ACAD_REACTORS
330
AE0
102
}
330
AE0
100
AcDbXrecord
280
     1
102
ACAD_MATT_HEIGHT
140
175.0
  0
LAYOUT
  5
6B
102
{ACAD_XDICTIONARY
360
114E
102
}
102
{ACAD_REACTORS
330
62
102
}
330
62
100
AcDbPlotSettings
  1

  2

  4

  6

 40
0.0
 41
0.0
 42
0.0
 43
0.0
 44
0.0
 45
0.0
 46
0.0
 47
0.0
 48
0.0
 49
0.0
140
0.0
141
0.0
142
1.0
143
1.0
 70
   688
 72
     0
 73
     0
 74
     5
  7

 75
    16
147
1.0
148
0.0
149
0.0
100
AcDbLayout
  1
Layout1
 70
     1
 71
     1
 10
0.0
 20
0.0
 11
20790.0
 21
14700.0
 12
0.0
 22
0.0
 32
0.0
 14
0.0
 24
0.0
 34
0.0
 15
20790.0
 25
14700.0
 35
0.0
146
0.0
 13
0.0
 23
0.0
 33
0.0
 16
1.0
 26
0.0
 36
0.0
 17
0.0
 27
1.0
 37
0.0
 76
     0
330
68
  0
LAYOUT
  5
73
102
{ACAD_XDICTIONARY
360
1152
102
}
102
{ACAD_REACTORS
330
62
102
}
330
62
100
AcDbPlotSettings
  1

  2

  4

  6

 40
0.0
 41
0.0
 42
0.0
 43
0.0
 44
0.0
 45
0.0
 46
0.0
 47
0.0
 48
0.0
 49
0.0
140
0.0
141
0.0
142
1.0
143
1.0
 70
   688
 72
     0
 73
     0
 74
     5
  7

 75
    16
147
1.0
148
0.0
149
0.0
100
AcDbLayout
  1
Layout2
 70
     1
 71
     2
 10
0.0
 20
0.0
 11
12.0
 21
9.0
 12
0.0
 22
0.0
 32
0.0
 14
0.0
 24
0.0
 34
0.0
 15
0.0
 25
0.0
 35
0.0
146
0.0
 13
0.0
 23
0.0
 33
0.0
 16
1.0
 26
0.0
 36
0.0
 17
0.0
 27
1.0
 37
0.0
 76
     0
330
70
  0
LAYOUT
  5
6F
102
{ACAD_XDICTIONARY
360
1150
102
}
102
{ACAD_REACTORS
330
62
102
}
330
62
100
AcDbPlotSettings
  1

  2

  4

  6

 40
0.0
 41
0.0
 42
0.0
 43
0.0
 44
0.0
 45
0.0
 46
0.0
 47
0.0
 48
0.0
 49
0.0
140
0.0
141
0.0
142
1.0
143
1.0
 70
  1712
 72
     0
 73
     0
 74
     0
  7

 75
     0
147
1.0
148
0.0
149
0.0
100
AcDbLayout
  1
Model
 70
     1
 71
     0
 10
0.0
 20
0.0
 11
12.0
 21
9.0
 12
0.0
 22
0.0
 32
0.0
 14
0.0
 24
0.0
 34
0.0
 15
0.0
 25
0.0
 35
0.0
146
0.0
 13
0.0
 23
0.0
 33
0.0
 16
1.0
 26
0.0
 36
0.0
 17
0.0
 27
1.0
 37
0.0
 76
     0
330
6C
331
57
  0
MATERIAL
  5
19
102
{ACAD_XDICTIONARY
360
1A
102
}
102
{ACAD_REACTORS
330
10
102
}
330
10
100
AcDbMaterial
  1
ByBlock
 72
     0
 43
0.0208333333333333
 43
0.0
 43
0.0
 43
0.0
 43
0.0
 43
0.0208333333333333
 43
0.0
 43
0.0
 43
0.0
 43
0.0
 43
1.0
 43
0.0
 43
0.0
 43
0.0
 43
0.0
 43
1.0
 77
     0
 47
0.0208333333333333
 47
0.0
 47
0.0
 47
0.0
 47
0.0
 47
0.0208333333333333
 47
0.0
 47
0.0
 47
0.0
 47
0.0
 47
1.0
 47
0.0
 47
0.0
 47
0.0
 47
0.0
 47
1.0
171
     0
 49
0.0208333333333333
 49
0.0
 49
0.0
 49
0.0
 49
0.0
 49
0.0208333333333333
 49
0.0
 49
0.0
 49
0.0
 49
0.0
 49
1.0
 49
0.0
 49
0.0
 49
0.0
 49
0.0
 49
1.0
175
     0
142
0.0208333333333333
142
0.0
142
0.0
142
0.0
142
0.0
142
0.0208333333333333
142
0.0
142
0.0
142
0.0
142
0.0
142
1.0
142
0.0
142
0.0
142
0.0
142
0.0
142
1.0
179
     0
144
0.0208333333333333
144
0.0
144
0.0
144
0.0
144
0.0
144
0.0208333333333333
144
0.0
144
0.0
144
0.0
144
0.0
144
1.0
144
0.0
144
0.0
144
0.0
144
0.0
144
1.0
147
0.0208333333333333
147
0.0
147
0.0
147
0.0
147
0.0
147
0.0208333333333333
147
0.0
147
0.0
147
0.0
147
0.0
147
1.0
147
0.0
147
0.0
147
0.0
147
0.0
147
1.0
  0
MATERIAL
  5
11
102
{ACAD_XDICTIONARY
360
12
102
}
102
{ACAD_REACTORS
330
10
102
}
330
10
100
AcDbMaterial
  1
ByLayer
 72
     0
 43
0.0208333333333333
 43
0.0
 43
0.0
 43
0.0
 43
0.0
 43
0.0208333333333333
 43
0.0
 43
0.0
 43
0.0
 43
0.0
 43
1.0
 43
0.0
 43
0.0
 43
0.0
 43
0.0
 43
1.0
 77
     0
 47
0.0208333333333333
 47
0.0
 47
0.0
 47
0.0
 47
0.0
 47
0.0208333333333333
 47
0.0
 47
0.0
 47
0.0
 47
0.0
 47
1.0
 47
0.0
 47
0.0
 47
0.0
 47
0.0
 47
1.0
171
     0
 49
0.0208333333333333
 49
0.0
 49
0.0
 49
0.0
 49
0.0
 49
0.0208333333333333
 49
0.0
 49
0.0
 49
0.0
 49
0.0
 49
1.0
 49
0.0
 49
0.0
 49
0.0
 49
0.0
 49
1.0
175
     0
142
0.0208333333333333
142
0.0
142
0.0
142
0.0
142
0.0
142
0.0208333333333333
142
0.0
142
0.0
142
0.0
142
0.0
142
1.0
142
0.0
142
0.0
142
0.0
142
0.0
142
1.0
179
     0
144
0.0208333333333333
144
0.0
144
0.0
144
0.0
144
0.0
144
0.0208333333333333
144
0.0
144
0.0
144
0.0
144
0.0
144
1.0
144
0.0
144
0.0
144
0.0
144
0.0
144
1.0
147
0.0208333333333333
147
0.0
147
0.0
147
0.0
147
0.0
147
0.0208333333333333
147
0.0
147
0.0
147
0.0
147
0.0
147
1.0
147
0.0
147
0.0
147
0.0
147
0.0
147
1.0
  0
MATERIAL
  5
21
102
{ACAD_XDICTIONARY
360
22
102
}
102
{ACAD_REACTORS
330
10
102
}
330
10
100
AcDbMaterial
  1
Global
 72
     0
 43
0.0208333333333333
 43
0.0
 43
0.0
 43
0.0
 43
0.0
 43
0.0208333333333333
 43
0.0
 43
0.0
 43
0.0
 43
0.0
 43
1.0
 43
0.0
 43
0.0
 43
0.0
 43
0.0
 43
1.0
 77
     0
 47
0.0208333333333333
 47
0.0
 47
0.0
 47
0.0
 47
0.0
 47
0.0208333333333333
 47
0.0
 47
0.0
 47
0.0
 47
0.0
 47
1.0
 47
0.0
 47
0.0
 47
0.0
 47
0.0
 47
1.0
171
     0
 49
0.0208333333333333
 49
0.0
 49
0.0
 49
0.0
 49
0.0
 49
0.0208333333333333
 49
0.0
 49
0.0
 49
0.0
 49
0.0
 49
1.0
 49
0.0
 49
0.0
 49
0.0
 49
0.0
 49
1.0
175
     0
142
0.0208333333333333
142
0.0
142
0.0
142
0.0
142
0.0
142
0.0208333333333333
142
0.0
142
0.0
142
0.0
142
0.0
142
1.0
142
0.0
142
0.0
142
0.0
142
0.0
142
1.0
179
     0
144
0.0208333333333333
144
0.0
144
0.0
144
0.0
144
0.0
144
0.0208333333333333
144
0.0
144
0.0
144
0.0
144
0.0
144
1.0
144
0.0
144
0.0
144
0.0
144
0.0
144
1.0
147
0.0208333333333333
147
0.0
147
0.0
147
0.0
147
0.0
147
0.0208333333333333
147
0.0
147
0.0
147
0.0
147
0.0
147
1.0
147
0.0
147
0.0
147
0.0
147
0.0
147
1.0
  0
MLEADERSTYLE
  5
67
102
{ACAD_REACTORS
330
66
102
}
330
66
100
AcDbMLeaderStyle
170
     2
171
     1
172
     0
 90
        2
 40
0.0
 41
0.0
173
     1
 91
-1056964608
340
5B
 92
       -2
290
     1
 42
0.09
291
     1
 43
0.36
  3
Standard
 44
0.18
300

342
55
174
     1
178
     6
175
     1
176
     0
 93
-1056964608
 45
0.18
292
     0
297
     0
 46
0.18
 94
-1056964608
 47
1.0
 49
1.0
140
1.0
293
     1
141
0.0
294
     1
177
     0
142
1.0
295
     0
296
     0
143
0.125
1001
ACAD_MLEADERVER
1070
     2
  0
MLINESTYLE
  5
60
102
{ACAD_REACTORS
330
5F
102
}
330
5F
100
AcDbMlineStyle
  2
STANDARD
 70
     0
  3

 62
   256
 51
90.0
 52
90.0
 71
     2
 49
0.5
 62
   256
  6
BYLAYER
 49
-0.5
 62
   256
  6
BYLAYER
  0
ACDBPLACEHOLDER
  5
F
102
{ACAD_REACTORS
330
E
102
}
330
E
  0
SCALE
  5
43
102
{ACAD_REACTORS
330
42
102
}
330
42
100
AcDbScale
 70
     0
300
1:1
140
1.0
141
1.0
290
     1
  0
SCALE
  5
44
102
{ACAD_REACTORS
330
42
102
}
330
42
100
AcDbScale
 70
     0
300
1/128" = 1'-0"
140
0.0078125
141
12.0
290
     0
  0
SCALE
  5
45
102
{ACAD_REACTORS
330
42
102
}
330
42
100
AcDbScale
 70
     0
300
1/64" = 1'-0"
140
0.015625
141
12.0
290
     0
  0
SCALE
  5
46
102
{ACAD_REACTORS
330
42
102
}
330
42
100
AcDbScale
 70
     0
300
1/32" = 1'-0"
140
0.03125
141
12.0
290
     0
  0
SCALE
  5
47
102
{ACAD_REACTORS
330
42
102
}
330
42
100
AcDbScale
 70
     0
300
1/16" = 1'-0"
140
0.0625
141
12.0
290
     0
  0
SCALE
  5
48
102
{ACAD_REACTORS
330
42
102
}
330
42
100
AcDbScale
 70
     0
300
3/32" = 1'-0"
140
0.09375
141
12.0
290
     0
  0
SCALE
  5
49
102
{ACAD_REACTORS
330
42
102
}
330
42
100
AcDbScale
 70
     0
300
1/8" = 1'-0"
140
0.125
141
12.0
290
     0
  0
SCALE
  5
4A
102
{ACAD_REACTORS
330
42
102
}
330
42
100
AcDbScale
 70
     0
300
3/16" = 1'-0"
140
0.1875
141
12.0
290
     0
  0
SCALE
  5
4B
102
{ACAD_REACTORS
330
42
102
}
330
42
100
AcDbScale
 70
     0
300
1/4" = 1'-0"
140
0.25
141
12.0
290
     0
  0
SCALE
  5
4C
102
{ACAD_REACTORS
330
42
102
}
330
42
100
AcDbScale
 70
     0
300
3/8" = 1'-0"
140
0.375
141
12.0
290
     0
  0
SCALE
  5
4D
102
{ACAD_REACTORS
330
42
102
}
330
42
100
AcDbScale
 70
     0
300
1/2" = 1'-0"
140
0.5
141
12.0
290
     0
  0
SCALE
  5
4E
102
{ACAD_REACTORS
330
42
102
}
330
42
100
AcDbScale
 70
     0
300
3/4" = 1'-0"
140
0.75
141
12.0
290
     0
  0
SCALE
  5
4F
102
{ACAD_REACTORS
330
42
102
}
330
42
100
AcDbScale
 70
     0
300
1" = 1'-0"
140
1.0
141
12.0
290
     0
  0
SCALE
  5
50
102
{ACAD_REACTORS
330
42
102
}
330
42
100
AcDbScale
 70
     0
300
1-1/2" = 1'-0"
140
1.5
141
12.0
290
     0
  0
SCALE
  5
51
102
{ACAD_REACTORS
330
42
102
}
330
42
100
AcDbScale
 70
     0
300
3" = 1'-0"
140
3.0
141
12.0
290
     0
  0
SCALE
  5
52
102
{ACAD_REACTORS
330
42
102
}
330
42
100
AcDbScale
 70
     0
300
6" = 1'-0"
140
6.0
141
12.0
290
     0
  0
SCALE
  5
53
102
{ACAD_REACTORS
330
42
102
}
330
42
100
AcDbScale
 70
     0
300
1'-0" = 1'-0"
140
12.0
141
12.0
290
     0
  0
TABLESTYLE
  5
65
102
{ACAD_XDICTIONARY
360
ACF
102
}
102
{ACAD_REACTORS
330
64
102
}
330
64
100
AcDbTableStyle
  3
Standard
 70
     0
 71
     0
 40
0.06
 41
0.06
280
     0
281
     0
  7
Standard
140
0.18
170
     2
 62
     0
 63
     7
283
     0
274
    -2
284
     1
 64
     0
275
    -2
285
     1
 65
     0
276
    -2
286
     1
 66
     0
277
    -2
287
     1
 67
     0
278
    -2
288
     1
 68
     0
279
    -2
289
     1
 69
     0
  7
Standard
140
0.25
170
     5
 62
     0
 63
     7
283
     0
274
    -2
284
     1
 64
     0
275
    -2
285
     1
 65
     0
276
    -2
286
     1
 66
     0
277
    -2
287
     1
 67
     0
278
    -2
288
     1
 68
     0
279
    -2
289
     1
 69
     0
  7
Standard
140
0.18
170
     5
 62
     0
 63
     7
283
     0
274
    -2
284
     1
 64
     0
275
    -2
285
     1
 65
     0
276
    -2
286
     1
 66
     0
277
    -2
287
     1
 67
     0
278
    -2
288
     1
 68
     0
279
    -2
289
     1
 69
     0
  0
VISUALSTYLE
  5
2F
102
{ACAD_XDICTIONARY
360
1127
102
}
102
{ACAD_REACTORS
330
29
102
}
330
29
100
AcDbVisualStyle
  2
2dWireframe
 70
     4
 71
     0
 72
     2
 73
     0
 90
        0
 40
-0.6
 41
-30.0
 62
     5
 63
     7
 74
     1
 91
        4
 64
     7
 65
   257
 75
     1
175
     1
 42
1.0
 92
        0
 66
   257
 43
1.0
 76
     1
 77
     6
 78
     2
 67
     7
 79
     5
170
     0
171
     0
290
     0
174
     0
 93
        1
 44
0.0
173
     0
291
     0
 45
0.0
1001
ACAD
1000
AcDbSavedByObjectVersion
1070
     0
  0
VISUALSTYLE
  5
2E
102
{ACAD_XDICTIONARY
360
1125
102
}
102
{ACAD_REACTORS
330
29
102
}
330
29
100
AcDbVisualStyle
  2
Basic
 70
     7
 71
     1
 72
     0
 73
     1
 90
        0
 40
-0.6
 41
-30.0
 62
     5
 63
     7
 74
     0
 91
        4
 64
     7
 65
   257
 75
     1
175
     1
 42
1.0
 92
        8
 66
     7
 43
1.0
 76
     1
 77
     6
 78
     2
 67
     7
 79
     5
170
     0
171
     0
290
     0
174
     0
 93
        1
 44
0.0
173
     0
291
     1
 45
0.0
1001
ACAD
1000
AcDbSavedByObjectVersion
1070
     0
  0
VISUALSTYLE
  5
35
102
{ACAD_XDICTIONARY
360
1133
102
}
102
{ACAD_REACTORS
330
29
102
}
330
29
100
AcDbVisualStyle
  2
Brighten
 70
    12
 71
     2
 72
     2
 73
     0
 90
        0
 40
-0.6
 41
-30.0
 62
     5
 63
     7
 74
     1
 91
        4
 64
     7
 65
   257
 75
     1
175
     1
 42
1.0
 92
        8
 66
     7
 43
1.0
 76
     1
 77
     6
 78
     2
 67
     7
 79
     5
170
     0
171
     0
290
     0
174
     0
 93
        1
 44
50.0
173
     0
291
     1
 45
0.0
1001
ACAD
1000
AcDbSavedByObjectVersion
1070
     0
  0
VISUALSTYLE
  5
39
102
{ACAD_XDICTIONARY
360
113B
102
}
102
{ACAD_REACTORS
330
29
102
}
330
29
100
AcDbVisualStyle
  2
ColorChange
 70
    16
 71
     2
 72
     2
 73
     3
 90
        0
 40
-0.6
 41
-30.0
 62
     5
 63
     8
 74
     1
 91
        4
 64
     7
 65
   257
 75
     1
175
     1
 42
1.0
 92
        8
 66
     8
 43
1.0
 76
     1
 77
     6
 78
     2
 67
     7
 79
     5
170
     0
171
     0
290
     0
174
     0
 93
        1
 44
0.0
173
     0
291
     1
 45
0.0
1001
ACAD
1000
AcDbSavedByObjectVersion
1070
     0
  0
VISUALSTYLE
  5
32
102
{ACAD_XDICTIONARY
360
112D
102
}
102
{ACAD_REACTORS
330
29
102
}
330
29
100
AcDbVisualStyle
  2
Conceptual
 70
     9
 71
     3
 72
     2
 73
     0
 90
        0
 40
-0.6
 41
-30.0
 62
     5
 63
     7
 74
     2
 91
        2
 64
     7
 65
   257
 75
     1
175
     1
 42
179.0
 92
        8
 66
     7
 43
1.0
 76
     1
 77
     6
 78
     2
 67
     7
 79
     3
170
     0
171
     0
290
     0
174
     0
 93
        1
 44
0.0
173
     0
291
     0
 45
0.0
1001
ACAD
1000
AcDbSavedByObjectVersion
1070
     0
  0
VISUALSTYLE
  5
34
102
{ACAD_XDICTIONARY
360
1131
102
}
102
{ACAD_REACTORS
330
29
102
}
330
29
100
AcDbVisualStyle
  2
Dim
 70
    11
 71
     2
 72
     2
 73
     0
 90
        0
 40
-0.6
 41
-30.0
 62
     5
 63
     7
 74
     1
 91
        4
 64
     7
 65
   257
 75
     1
175
     1
 42
1.0
 92
        8
 66
     7
 43
1.0
 76
     1
 77
     6
 78
     2
 67
     7
 79
     5
170
     0
171
     0
290
     0
174
     0
 93
        1
 44
-50.0
173
     0
291
     1
 45
0.0
1001
ACAD
1000
AcDbSavedByObjectVersion
1070
     0
  0
VISUALSTYLE
  5
41
102
{ACAD_XDICTIONARY
360
114B
102
}
102
{ACAD_REACTORS
330
29
102
}
330
29
100
AcDbVisualStyle
  2
EdgeColorOff
 70
    22
 71
     2
 72
     2
 73
     0
 90
        0
 40
-0.6
 41
-30.0
 62
     5
 63
     7
 74
     1
 91
        4
 64
     7
 65
   257
 75
     1
175
     1
 42
1.0
 92
        8
 66
     7
 43
1.0
 76
     1
 77
     6
 78
     2
 67
     7
 79
     5
170
     0
171
     0
290
     0
174
     0
 93
        1
 44
0.0
173
     0
291
     1
 45
0.0
1001
ACAD
1000
AcDbSavedByObjectVersion
1070
     0
  0
VISUALSTYLE
  5
38
102
{ACAD_XDICTIONARY
360
1139
102
}
102
{ACAD_REACTORS
330
29
102
}
330
29
100
AcDbVisualStyle
  2
Facepattern
 70
    15
 71
     2
 72
     2
 73
     0
 90
        0
 40
-0.6
 41
-30.0
 62
     5
 63
     7
 74
     1
 91
        4
 64
     7
 65
   257
 75
     1
175
     1
 42
1.0
 92
        8
 66
     7
 43
1.0
 76
     1
 77
     6
 78
     2
 67
     7
 79
     5
170
     0
171
     0
290
     0
174
     0
 93
        1
 44
0.0
173
     0
291
     1
 45
0.0
1001
ACAD
1000
AcDbSavedByObjectVersion
1070
     0
  0
VISUALSTYLE
  5
2A
102
{ACAD_XDICTIONARY
360
111D
102
}
102
{ACAD_REACTORS
330
29
102
}
330
29
100
AcDbVisualStyle
  2
Flat
 70
     0
 71
     2
 72
     1
 73
     1
 90
        2
 40
-0.6
 41
30.0
 62
     5
 63
     7
 74
     0
 91
        0
 64
     7
 65
   257
 75
     1
175
     1
 42
1.0
 92
        8
 66
     7
 43
1.0
 76
     1
 77
     6
 78
     2
 67
     7
 79
     5
170
     0
171
     0
290
     0
174
     0
 93
       13
 44
0.0
173
     0
291
     1
 45
0.0
1001
ACAD
1000
AcDbSavedByObjectVersion
1070
     0
  0
VISUALSTYLE
  5
2B
102
{ACAD_XDICTIONARY
360
111F
102
}
102
{ACAD_REACTORS
330
29
102
}
330
29
100
AcDbVisualStyle
  2
FlatWithEdges
 70
     1
 71
     2
 72
     1
 73
     1
 90
        2
 40
-0.6
 41
30.0
 62
     5
 63
     7
 74
     1
 91
        0
 64
     7
 65
   257
 75
     1
175
     1
 42
1.0
 92
        0
 66
   257
 43
1.0
 76
     1
 77
     6
 78
     2
 67
     7
 79
     5
170
     0
171
     0
290
     0
174
     0
 93
       13
 44
0.0
173
     0
291
     1
 45
0.0
1001
ACAD
1000
AcDbSavedByObjectVersion
1070
     0
  0
VISUALSTYLE
  5
2C
102
{ACAD_XDICTIONARY
360
1121
102
}
102
{ACAD_REACTORS
330
29
102
}
330
29
100
AcDbVisualStyle
  2
Gouraud
 70
     2
 71
     2
 72
     2
 73
     1
 90
        2
 40
-0.6
 41
30.0
 62
     5
 63
     7
 74
     0
 91
        0
 64
     7
 65
   257
 75
     1
175
     1
 42
1.0
 92
        0
 66
     7
 43
1.0
 76
     1
 77
     6
 78
     2
 67
     7
 79
     5
170
     0
171
     0
290
     0
174
     0
 93
       13
 44
0.0
173
     0
291
     1
 45
0.0
1001
ACAD
1000
AcDbSavedByObjectVersion
1070
     0
  0
VISUALSTYLE
  5
2D
102
{ACAD_XDICTIONARY
360
1123
102
}
102
{ACAD_REACTORS
330
29
102
}
330
29
100
AcDbVisualStyle
  2
GouraudWithEdges
 70
     3
 71
     2
 72
     2
 73
     1
 90
        2
 40
-0.6
 41
30.0
 62
     5
 63
     7
 74
     1
 91
        0
 64
     7
 65
   257
 75
     1
175
     1
 42
1.0
 92
        0
 66
   257
 43
1.0
 76
     1
 77
     6
 78
     2
 67
     7
 79
     5
170
     0
171
     0
290
     0
174
     0
 93
       13
 44
0.0
173
     0
291
     1
 45
0.0
1001
ACAD
1000
AcDbSavedByObjectVersion
1070
     0
  0
VISUALSTYLE
  5
31
102
{ACAD_XDICTIONARY
360
112B
102
}
102
{ACAD_REACTORS
330
29
102
}
330
29
100
AcDbVisualStyle
  2
Hidden
 70
     6
 71
     1
 72
     2
 73
     2
 90
        0
 40
-0.6
 41
-30.0
 62
     5
 63
     7
 74
     2
 91
        2
 64
     7
 65
   257
 75
     2
175
     1
 42
40.0
 92
        0
 66
   257
 43
1.0
 76
     1
 77
     6
 78
     2
 67
     7
 79
     3
170
     0
171
     0
290
     0
174
     0
 93
        1
 44
0.0
173
     0
291
     0
 45
0.0
1001
ACAD
1000
AcDbSavedByObjectVersion
1070
     0
  0
VISUALSTYLE
  5
3F
102
{ACAD_XDICTIONARY
360
1147
102
}
102
{ACAD_REACTORS
330
29
102
}
330
29
100
AcDbVisualStyle
  2
JitterOff
 70
    20
 71
     2
 72
     2
 73
     0
 90
        0
 40
-0.6
 41
-30.0
 62
     5
 63
     7
 74
     1
 91
        4
 64
     7
 65
   257
 75
     1
175
     1
 42
1.0
 92
       10
 66
     7
 43
1.0
 76
     1
 77
     6
 78
     2
 67
     7
 79
     5
170
     0
171
     0
290
     0
174
     0
 93
        1
 44
0.0
173
     0
291
     1
 45
0.0
1001
ACAD
1000
AcDbSavedByObjectVersion
1070
     0
  0
VISUALSTYLE
  5
37
102
{ACAD_XDICTIONARY
360
1137
102
}
102
{ACAD_REACTORS
330
29
102
}
330
29
100
AcDbVisualStyle
  2
Linepattern
 70
    14
 71
     2
 72
     2
 73
     0
 90
        0
 40
-0.6
 41
-30.0
 62
     5
 63
     7
 74
     1
 91
        4
 64
     7
 65
   257
 75
     7
175
     7
 42
1.0
 92
        8
 66
     7
 43
1.0
 76
     1
 77
     6
 78
     2
 67
     7
 79
     5
170
     0
171
     0
290
     0
174
     0
 93
        1
 44
0.0
173
     0
291
     1
 45
0.0
1001
ACAD
1000
AcDbSavedByObjectVersion
1070
     0
  0
VISUALSTYLE
  5
40
102
{ACAD_XDICTIONARY
360
1149
102
}
102
{ACAD_REACTORS
330
29
102
}
330
29
100
AcDbVisualStyle
  2
OverhangOff
 70
    21
 71
     2
 72
     2
 73
     0
 90
        0
 40
-0.6
 41
-30.0
 62
     5
 63
     7
 74
     1
 91
        4
 64
     7
 65
   257
 75
     1
175
     1
 42
1.0
 92
        9
 66
     7
 43
1.0
 76
     1
 77
     6
 78
     2
 67
     7
 79
     5
170
     0
171
     0
290
     0
174
     0
 93
        1
 44
0.0
173
     0
291
     1
 45
0.0
1001
ACAD
1000
AcDbSavedByObjectVersion
1070
     0
  0
VISUALSTYLE
  5
33
102
{ACAD_XDICTIONARY
360
112F
102
}
102
{ACAD_REACTORS
330
29
102
}
330
29
100
AcDbVisualStyle
  2
Realistic
 70
     8
 71
     2
 72
     2
 73
     0
 90
        2
 40
-0.6
 41
30.0
 62
     5
 63
     7
 74
     0
 91
        0
 64
     7
 65
   257
 75
     1
175
     1
 42
1.0
 92
        8
 66
   257
 43
1.0
 76
     1
 77
     6
 78
     2
 67
     7
 79
     3
170
     0
171
     0
290
     0
174
     0
 93
       13
 44
0.0
173
     0
291
     0
 45
0.0
1001
ACAD
1000
AcDbSavedByObjectVersion
1070
     0
  0
VISUALSTYLE
  5
3E
102
{ACAD_XDICTIONARY
360
1145
102
}
102
{ACAD_REACTORS
330
29
102
}
330
29
100
AcDbVisualStyle
  2
Shaded
 70
    27
 71
     2
 72
     2
 73
     1
 90
        2
 40
-0.6
 41
30.0
 62
     5
 63
     7
 74
     0
 91
        4
 64
     7
 65
   257
 75
     1
175
     1
 42
1.0
 92
        8
 66
   257
 43
1.0
 76
     1
 77
     6
 78
     2
 67
     8
 79
     3
170
     0
171
     0
290
     0
174
     0
 93
        5
 44
0.0
173
     0
291
     0
 45
0.0
1001
ACAD
1000
AcDbSavedByObjectVersion
1070
     0
  0
VISUALSTYLE
  5
3D
102
{ACAD_XDICTIONARY
360
1143
102
}
102
{ACAD_REACTORS
330
29
102
}
330
29
100
AcDbVisualStyle
  2
Shaded with edges
 70
    26
 71
     2
 72
     2
 73
     1
 90
        2
 40
-0.6
 41
30.0
 62
     5
 63
     7
 74
     1
 91
       10
 64
     7
 65
   257
 75
     2
175
     1
 42
1.0
 92
        8
 66
   257
 43
1.0
 76
     1
 77
     6
 78
     2
 67
     7
 79
     3
170
     0
171
     0
290
     0
174
     0
 93
        5
 44
0.0
173
     0
291
     0
 45
0.0
1001
ACAD
1000
AcDbSavedByObjectVersion
1070
     0
  0
VISUALSTYLE
  5
3A
102
{ACAD_XDICTIONARY
360
113D
102
}
102
{ACAD_REACTORS
330
29
102
}
330
29
100
AcDbVisualStyle
  2
Shades of Gray
 70
    23
 71
     2
 72
     2
 73
     3
 90
        0
 40
-0.6
 41
-30.0
 62
     5
 63
     7
 74
     2
 91
        2
 64
     7
 65
     7
 75
     1
175
     1
 42
40.0
 92
        8
 66
     7
 43
1.0
 76
     1
 77
     6
 78
     2
 67
     7
 79
     3
170
     0
171
     0
290
     0
174
     0
 93
        1
 44
0.0
173
     0
291
     0
 45
0.0
1001
ACAD
1000
AcDbSavedByObjectVersion
1070
     0
  0
VISUALSTYLE
  5
3B
102
{ACAD_XDICTIONARY
360
113F
102
}
102
{ACAD_REACTORS
330
29
102
}
330
29
100
AcDbVisualStyle
  2
Sketchy
 70
    24
 71
     1
 72
     2
 73
     2
 90
        0
 40
-0.6
 41
-30.0
 62
     5
 63
     7
 74
     2
 91
        2
 64
     7
 65
     7
 75
     1
175
     1
 42
40.0
 92
       11
 66
     7
 43
1.0
 76
     1
 77
     6
 78
     2
 67
     7
 79
     6
170
     0
171
     0
290
     0
174
     0
 93
        1
 44
0.0
173
     0
291
     0
 45
0.0
1001
ACAD
1000
AcDbSavedByObjectVersion
1070
     0
  0
VISUALSTYLE
  5
36
102
{ACAD_XDICTIONARY
360
1135
102
}
102
{ACAD_REACTORS
330
29
102
}
330
29
100
AcDbVisualStyle
  2
Thicken
 70
    13
 71
     2
 72
     2
 73
     0
 90
        0
 40
-0.6
 41
-30.0
 62
     5
 63
     7
 74
     1
 91
        4
 64
     7
 65
   257
 75
     1
175
     1
 42
1.0
 92
       12
 66
     7
 43
1.0
 76
     1
 77
     6
 78
     2
 67
     7
 79
     5
170
     0
171
     0
290
     0
174
     0
 93
        1
 44
0.0
173
     0
291
     1
 45
0.0
1001
ACAD
1000
AcDbSavedByObjectVersion
1070
     0
  0
VISUALSTYLE
  5
30
102
{ACAD_XDICTIONARY
360
1129
102
}
102
{ACAD_REACTORS
330
29
102
}
330
29
100
AcDbVisualStyle
  2
Wireframe
 70
     5
 71
     0
 72
     2
 73
     0
 90
        0
 40
-0.6
 41
-30.0
 62
     5
 63
     7
 74
     1
 91
        4
 64
     7
 65
   257
 75
     1
175
     1
 42
1.0
 92
        0
 66
   257
 43
1.0
 76
     1
 77
     6
 78
     2
 67
     7
 79
     3
170
     0
171
     0
290
     0
174
     0
 93
        1
 44
0.0
173
     0
291
     0
 45
0.0
1001
ACAD
1000
AcDbSavedByObjectVersion
1070
     0
  0
VISUALSTYLE
  5
3C
102
{ACAD_XDICTIONARY
360
1141
102
}
102
{ACAD_REACTORS
330
29
102
}
330
29
100
AcDbVisualStyle
  2
X-Ray
 70
    25
 71
     2
 72
     2
 73
     1
 90
        1
 40
0.5
 41
-30.0
 62
     5
 63
     7
 74
     1
 91
        0
 64
     7
 65
   257
 75
     1
175
     1
 42
1.0
 92
        8
 66
     7
 43
1.0
 76
     1
 77
     6
 78
     2
 67
     7
 79
     3
170
     0
171
     0
290
     0
174
     0
 93
       13
 44
0.0
173
     0
291
     0
 45
0.0
1001
ACAD
1000
AcDbSavedByObjectVersion
1070
     0
  0
DICTIONARYVAR
  5
B2A
102
{ACAD_REACTORS
330
B26
102
}
330
B26
100
DictionaryVariables
280
     0
  1
1:1
  0
DICTIONARYVAR
  5
B28
102
{ACAD_REACTORS
330
B26
102
}
330
B26
100
DictionaryVariables
280
     0
  1
STANDARD
  0
DICTIONARYVAR
  5
B27
102
{ACAD_REACTORS
330
B26
102
}
330
B26
100
DictionaryVariables
280
     0
  1
STANDARD
  0
DICTIONARYVAR
  5
B31
102
{ACAD_REACTORS
330
B26
102
}
330
B26
100
DictionaryVariables
280
     0
  1
1
  0
DICTIONARYVAR
  5
B30
102
{ACAD_REACTORS
330
B26
102
}
330
B26
100
DictionaryVariables
280
     0
  1
1
  0
DICTIONARYVAR
  5
B2F
102
{ACAD_REACTORS
330
B26
102
}
330
B26
100
DictionaryVariables
280
     0
  1
0
  0
DICTIONARYVAR
  5
B2C
102
{ACAD_REACTORS
330
B26
102
}
330
B26
100
DictionaryVariables
280
     0
  1
0
  0
DICTIONARYVAR
  5
B2D
102
{ACAD_REACTORS
330
B26
102
}
330
B26
100
DictionaryVariables
280
     0
  1
0
  0
DICTIONARYVAR
  5
B2B
102
{ACAD_REACTORS
330
B26
102
}
330
B26
100
DictionaryVariables
280
     0
  1
2
  0
DICTIONARYVAR
  5
B29
102
{ACAD_REACTORS
330
B26
102
}
330
B26
100
DictionaryVariables
280
     0
  1
1
  0
DICTIONARYVAR
  5
B2E
102
{ACAD_REACTORS
330
B26
102
}
330
B26
100
DictionaryVariables
280
     0
  1
127
  0
DICTIONARYVAR
  5
110A
102
{ACAD_REACTORS
330
B26
102
}
330
B26
100
DictionaryVariables
280
     0
  1
2
  0
DICTIONARY
  5
114E
330
6B
100
AcDbDictionary
280
     1
281
     1
  3
ACAD_XREC_ROUNDTRIP
360
114F
  0
DICTIONARY
  5
1152
330
73
100
AcDbDictionary
280
     1
281
     1
  3
ACAD_XREC_ROUNDTRIP
360
1153
  0
DICTIONARY
  5
1150
330
6F
100
AcDbDictionary
280
     1
281
     1
  3
ACAD_XREC_ROUNDTRIP
360
1151
  0
DICTIONARY
  5
1A
330
19
100
AcDbDictionary
280
     1
281
     1
  3
ACAD_XREC_ROUNDTRIP
360
111B
  3
BUMPTILE
360
1C
  3
DIFFUSETILE
360
1B
  3
OPACITYTILE
360
1F
  3
REFLECTIONTILE
360
1E
  3
REFRACTIONTILE
360
20
  3
SPECULARTILE
360
1D
  0
DICTIONARY
  5
12
330
11
100
AcDbDictionary
280
     1
281
     1
  3
ACAD_XREC_ROUNDTRIP
360
111A
  3
BUMPTILE
360
14
  3
DIFFUSETILE
360
13
  3
OPACITYTILE
360
17
  3
REFLECTIONTILE
360
16
  3
REFRACTIONTILE
360
18
  3
SPECULARTILE
360
15
  0
DICTIONARY
  5
22
330
21
100
AcDbDictionary
280
     1
281
     1
  3
ACAD_XREC_ROUNDTRIP
360
111C
  3
BUMPTILE
360
24
  3
DIFFUSETILE
360
23
  3
OPACITYTILE
360
27
  3
REFLECTIONTILE
360
26
  3
REFRACTIONTILE
360
28
  3
SPECULARTILE
360
25
  0
DICTIONARY
  5
ACF
330
65
100
AcDbDictionary
280
     1
281
     1
  3
ACAD_ROUNDTRIP_2008_TABLESTYLE_CELLSTYLEMAP
360
110B
  3
ACAD_XREC_ROUNDTRIP
360
114D
  0
DICTIONARY
  5
1127
330
2F
100
AcDbDictionary
280
     1
281
     1
  3
ACAD_XREC_ROUNDTRIP
360
1128
  0
DICTIONARY
  5
1125
330
2E
100
AcDbDictionary
280
     1
281
     1
  3
ACAD_XREC_ROUNDTRIP
360
1126
  0
DICTIONARY
  5
1133
330
35
100
AcDbDictionary
280
     1
281
     1
  3
ACAD_XREC_ROUNDTRIP
360
1134
  0
DICTIONARY
  5
113B
330
39
100
AcDbDictionary
280
     1
281
     1
  3
ACAD_XREC_ROUNDTRIP
360
113C
  0
DICTIONARY
  5
112D
330
32
100
AcDbDictionary
280
     1
281
     1
  3
ACAD_XREC_ROUNDTRIP
360
112E
  0
DICTIONARY
  5
1131
330
34
100
AcDbDictionary
280
     1
281
     1
  3
ACAD_XREC_ROUNDTRIP
360
1132
  0
DICTIONARY
  5
114B
330
41
100
AcDbDictionary
280
     1
281
     1
  3
ACAD_XREC_ROUNDTRIP
360
114C
  0
DICTIONARY
  5
1139
330
38
100
AcDbDictionary
280
     1
281
     1
  3
ACAD_XREC_ROUNDTRIP
360
113A
  0
DICTIONARY
  5
111D
330
2A
100
AcDbDictionary
280
     1
281
     1
  3
ACAD_XREC_ROUNDTRIP
360
111E
  0
DICTIONARY
  5
111F
330
2B
100
AcDbDictionary
280
     1
281
     1
  3
ACAD_XREC_ROUNDTRIP
360
1120
  0
DICTIONARY
  5
1121
330
2C
100
AcDbDictionary
280
     1
281
     1
  3
ACAD_XREC_ROUNDTRIP
360
1122
  0
DICTIONARY
  5
1123
330
2D
100
AcDbDictionary
280
     1
281
     1
  3
ACAD_XREC_ROUNDTRIP
360
1124
  0
DICTIONARY
  5
112B
330
31
100
AcDbDictionary
280
     1
281
     1
  3
ACAD_XREC_ROUNDTRIP
360
112C
  0
DICTIONARY
  5
1147
330
3F
100
AcDbDictionary
280
     1
281
     1
  3
ACAD_XREC_ROUNDTRIP
360
1148
  0
DICTIONARY
  5
1137
330
37
100
AcDbDictionary
280
     1
281
     1
  3
ACAD_XREC_ROUNDTRIP
360
1138
  0
DICTIONARY
  5
1149
330
40
100
AcDbDictionary
280
     1
281
     1
  3
ACAD_XREC_ROUNDTRIP
360
114A
  0
DICTIONARY
  5
112F
330
33
100
AcDbDictionary
280
     1
281
     1
  3
ACAD_XREC_ROUNDTRIP
360
1130
  0
DICTIONARY
  5
1145
330
3E
100
AcDbDictionary
280
     1
281
     1
  3
ACAD_XREC_ROUNDTRIP
360
1146
  0
DICTIONARY
  5
1143
330
3D
100
AcDbDictionary
280
     1
281
     1
  3
ACAD_XREC_ROUNDTRIP
360
1144
  0
DICTIONARY
  5
113D
330
3A
100
AcDbDictionary
280
     1
281
     1
  3
ACAD_XREC_ROUNDTRIP
360
113E
  0
DICTIONARY
  5
113F
330
3B
100
AcDbDictionary
280
     1
281
     1
  3
ACAD_XREC_ROUNDTRIP
360
1140
  0
DICTIONARY
  5
1135
330
36
100
AcDbDictionary
280
     1
281
     1
  3
ACAD_XREC_ROUNDTRIP
360
1136
  0
DICTIONARY
  5
1129
330
30
100
AcDbDictionary
280
     1
281
     1
  3
ACAD_XREC_ROUNDTRIP
360
112A
  0
DICTIONARY
  5
1141
330
3C
100
AcDbDictionary
280
     1
281
     1
  3
ACAD_XREC_ROUNDTRIP
360
1142
  0
XRECORD
  5
114F
102
{ACAD_REACTORS
330
114E
102
}
330
114E
100
AcDbXrecord
280
     1
102
SHADEPLOT
 70
     0
102
SHADEPLOTRESLEVEL
 70
     2
102
SHADEPLOTCUSTOMDPI
 70
   300
  0
XRECORD
  5
1153
102
{ACAD_REACTORS
330
1152
102
}
330
1152
100
AcDbXrecord
280
     1
102
SHADEPLOT
 70
     0
102
SHADEPLOTRESLEVEL
 70
     2
102
SHADEPLOTCUSTOMDPI
 70
   300
  0
XRECORD
  5
1151
102
{ACAD_REACTORS
330
1150
102
}
330
1150
100
AcDbXrecord
280
     1
102
SHADEPLOT
 70
     0
102
SHADEPLOTRESLEVEL
 70
     2
102
SHADEPLOTCUSTOMDPI
 70
   300
  0
XRECORD
  5
111B
102
{ACAD_REACTORS
330
1A
102
}
330
1A
100
AcDbXrecord
280
     1
102
MATERIAL
148
0.0
149
0.0
149
0.0
 93
        0
 94
      127
282
     0
 72
     0
 77
     0
171
     0
175
     0
179
     0
273
     0
  0
XRECORD
  5
1C
102
{ACAD_REACTORS
330
1A
102
}
330
1A
100
AcDbXrecord
280
     1
270
     1
271
     1
  0
XRECORD
  5
1B
102
{ACAD_REACTORS
330
1A
102
}
330
1A
100
AcDbXrecord
280
     1
270
     1
271
     1
  0
XRECORD
  5
1F
102
{ACAD_REACTORS
330
1A
102
}
330
1A
100
AcDbXrecord
280
     1
270
     1
271
     1
  0
XRECORD
  5
1E
102
{ACAD_REACTORS
330
1A
102
}
330
1A
100
AcDbXrecord
280
     1
270
     1
271
     1
  0
XRECORD
  5
20
102
{ACAD_REACTORS
330
1A
102
}
330
1A
100
AcDbXrecord
280
     1
270
     1
271
     1
  0
XRECORD
  5
1D
102
{ACAD_REACTORS
330
1A
102
}
330
1A
100
AcDbXrecord
280
     1
270
     1
271
     1
  0
XRECORD
  5
111A
102
{ACAD_REACTORS
330
12
102
}
330
12
100
AcDbXrecord
280
     1
102
MATERIAL
148
0.0
149
0.0
149
0.0
 93
        0
 94
      127
282
     0
 72
     0
 77
     0
171
     0
175
     0
179
     0
273
     0
  0
XRECORD
  5
14
102
{ACAD_REACTORS
330
12
102
}
330
12
100
AcDbXrecord
280
     1
270
     1
271
     1
  0
XRECORD
  5
13
102
{ACAD_REACTORS
330
12
102
}
330
12
100
AcDbXrecord
280
     1
270
     1
271
     1
  0
XRECORD
  5
17
102
{ACAD_REACTORS
330
12
102
}
330
12
100
AcDbXrecord
280
     1
270
     1
271
     1
  0
XRECORD
  5
16
102
{ACAD_REACTORS
330
12
102
}
330
12
100
AcDbXrecord
280
     1
270
     1
271
     1
  0
XRECORD
  5
18
102
{ACAD_REACTORS
330
12
102
}
330
12
100
AcDbXrecord
280
     1
270
     1
271
     1
  0
XRECORD
  5
15
102
{ACAD_REACTORS
330
12
102
}
330
12
100
AcDbXrecord
280
     1
270
     1
271
     1
  0
XRECORD
  5
111C
102
{ACAD_REACTORS
330
22
102
}
330
22
100
AcDbXrecord
280
     1
102
MATERIAL
148
0.0
149
0.0
149
0.0
 93
        0
 94
      127
282
     0
 72
     0
 77
     0
171
     0
175
     0
179
     0
273
     0
  0
XRECORD
  5
24
102
{ACAD_REACTORS
330
22
102
}
330
22
100
AcDbXrecord
280
     1
270
     1
271
     1
  0
XRECORD
  5
23
102
{ACAD_REACTORS
330
22
102
}
330
22
100
AcDbXrecord
280
     1
270
     1
271
     1
  0
XRECORD
  5
27
102
{ACAD_REACTORS
330
22
102
}
330
22
100
AcDbXrecord
280
     1
270
     1
271
     1
  0
XRECORD
  5
26
102
{ACAD_REACTORS
330
22
102
}
330
22
100
AcDbXrecord
280
     1
270
     1
271
     1
  0
XRECORD
  5
28
102
{ACAD_REACTORS
330
22
102
}
330
22
100
AcDbXrecord
280
     1
270
     1
271
     1
  0
XRECORD
  5
25
102
{ACAD_REACTORS
330
22
102
}
330
22
100
AcDbXrecord
280
     1
270
     1
271
     1
  0
CELLSTYLEMAP
  5
110B
102
{ACAD_REACTORS
330
ACF
102
}
330
ACF
100
AcDbCellStyleMap
 90
        3
300
CELLSTYLE
  1
TABLEFORMAT_BEGIN
 90
        5
170
     1
 91
        0
 92
    32768
 62
   257
 93
        1
300
CONTENTFORMAT
  1
CONTENTFORMAT_BEGIN
 90
        0
 91
        0
 92
      512
 93
        0
300

 40
0.0
140
1.0
 94
        5
 62
     0
340
55
144
0.25
309
CONTENTFORMAT_END
171
     0
 94
        0
309
TABLEFORMAT_END
  1
CELLSTYLE_BEGIN
 90
        1
 91
        1
300
_TITLE
309
CELLSTYLE_END
300
CELLSTYLE
  1
TABLEFORMAT_BEGIN
 90
        5
170
     1
 91
        0
 92
        0
 62
   257
 93
        1
300
CONTENTFORMAT
  1
CONTENTFORMAT_BEGIN
 90
        0
 91
        0
 92
      512
 93
        0
300

 40
0.0
140
1.0
 94
        5
 62
     0
340
55
144
0.18
309
CONTENTFORMAT_END
171
     0
 94
        0
309
TABLEFORMAT_END
  1
CELLSTYLE_BEGIN
 90
        2
 91
        1
300
_HEADER
309
CELLSTYLE_END
300
CELLSTYLE
  1
TABLEFORMAT_BEGIN
 90
        5
170
     1
 91
        0
 92
        0
 62
   257
 93
        1
300
CONTENTFORMAT
  1
CONTENTFORMAT_BEGIN
 90
        0
 91
        0
 92
      512
 93
        0
300

 40
0.0
140
1.0
 94
        2
 62
     0
340
55
144
0.18
309
CONTENTFORMAT_END
171
     0
 94
        0
309
TABLEFORMAT_END
  1
CELLSTYLE_BEGIN
 90
        3
 91
        2
300
_DATA
309
CELLSTYLE_END
  0
XRECORD
  5
114D
102
{ACAD_REACTORS
330
ACF
102
}
330
ACF
100
AcDbXrecord
280
     1
102
ACAD_ROUNDTRIP_PRE2007_TABLESTYLE
 90
      512
 91
        0
  1

 92
      512
 93
        0
  2

 94
      512
 95
        0
  3

  0
XRECORD
  5
1128
102
{ACAD_REACTORS
330
1127
102
}
330
1127
100
AcDbXrecord
280
     1
102
RTVSPropertyOp0
 70
     1
102
RTVSPropertyOp1
 70
     1
102
RTVSPropertyOp2
 70
     1
102
RTVSPropertyOp3
 70
     1
102
RTVSPropertyOp4
 70
     1
102
RTVSPropertyOp5
 70
     1
102
RTVSPropertyOp6
 70
     1
102
RTVSPropertyOp7
 70
     1
102
RTVSPropertyOp8
 70
     1
102
RTVSPropertyOp9
 70
     1
102
RTVSPropertyOp10
 70
     1
102
RTVSPropertyOp11
 70
     1
102
RTVSPropertyOp12
 70
     1
102
RTVSPropertyOp13
 70
     1
102
RTVSPropertyOp14
 70
     1
102
RTVSPropertyOp15
 70
     1
102
RTVSPropertyOp16
 70
     1
102
RTVSPropertyOp17
 70
     1
102
RTVSPropertyOp18
 70
     1
102
RTVSPropertyOp19
 70
     1
102
RTVSPropertyOp20
 70
     1
102
RTVSPropertyOp21
 70
     1
102
RTVSPropertyOp22
 70
     1
102
RTVSPropertyOp23
 70
     1
102
RTVSPropertyOp24
 70
     1
102
RTVSPropertyOp25
 70
     1
102
RTVSPropertyOp26
 70
     1
102
RTVSPropertyOp27
 70
     1
102
RTVSPropertyOp28
 70
     1
102
RTVSPropertyOp29
 70
     1
102
RTVSPropertyOp30
 70
     1
102
RTVSPropertyOp31
 70
     1
102
RTVSPropertyOp32
 70
     1
  0
XRECORD
  5
1126
102
{ACAD_REACTORS
330
1125
102
}
330
1125
100
AcDbXrecord
280
     1
102
RTVSPropertyOp0
 70
     1
102
RTVSPropertyOp1
 70
     1
102
RTVSPropertyOp2
 70
     1
102
RTVSPropertyOp3
 70
     1
102
RTVSPropertyOp4
 70
     1
102
RTVSPropertyOp5
 70
     1
102
RTVSPropertyOp6
 70
     1
102
RTVSPropertyOp7
 70
     1
102
RTVSPropertyOp8
 70
     1
102
RTVSPropertyOp9
 70
     1
102
RTVSPropertyOp10
 70
     1
102
RTVSPropertyOp11
 70
     1
102
RTVSPropertyOp12
 70
     1
102
RTVSPropertyOp13
 70
     1
102
RTVSPropertyOp14
 70
     1
102
RTVSPropertyOp15
 70
     1
102
RTVSPropertyOp16
 70
     1
102
RTVSPropertyOp17
 70
     1
102
RTVSPropertyOp18
 70
     1
102
RTVSPropertyOp19
 70
     1
102
RTVSPropertyOp20
 70
     1
102
RTVSPropertyOp21
 70
     1
102
RTVSPropertyOp22
 70
     1
102
RTVSPropertyOp23
 70
     1
102
RTVSPropertyOp24
 70
     1
102
RTVSPropertyOp25
 70
     1
102
RTVSPropertyOp26
 70
     1
102
RTVSPropertyOp27
 70
     1
102
RTVSPropertyOp28
 70
     1
102
RTVSPropertyOp29
 70
     1
102
RTVSPropertyOp30
 70
     1
102
RTVSPropertyOp31
 70
     1
102
RTVSPropertyOp32
 70
     1
  0
XRECORD
  5
1134
102
{ACAD_REACTORS
330
1133
102
}
330
1133
100
AcDbXrecord
280
     1
102
RTVSPropertyOp0
 70
     1
102
RTVSPropertyOp1
 70
     1
102
RTVSPropertyOp2
 70
     1
102
RTVSPropertyOp3
 70
     1
102
RTVSPropertyOp4
 70
     1
102
RTVSPropertyOp5
 70
     1
102
RTVSPropertyOp6
 70
     1
102
RTVSPropertyOp7
 70
     1
102
RTVSPropertyOp8
 70
     1
102
RTVSPropertyOp9
 70
     1
102
RTVSPropertyOp10
 70
     1
102
RTVSPropertyOp11
 70
     1
102
RTVSPropertyOp12
 70
     1
102
RTVSPropertyOp13
 70
     1
102
RTVSPropertyOp14
 70
     1
102
RTVSPropertyOp15
 70
     1
102
RTVSPropertyOp16
 70
     1
102
RTVSPropertyOp17
 70
     1
102
RTVSPropertyOp18
 70
     1
102
RTVSPropertyOp19
 70
     1
102
RTVSPropertyOp20
 70
     1
102
RTVSPropertyOp21
 70
     1
102
RTVSPropertyOp22
 70
     1
102
RTVSPropertyOp23
 70
     1
102
RTVSPropertyOp24
 70
     1
102
RTVSPropertyOp25
 70
     1
102
RTVSPropertyOp26
 70
     1
102
RTVSPropertyOp27
 70
     1
102
RTVSPropertyOp28
 70
     1
102
RTVSPropertyOp29
 70
     1
102
RTVSPropertyOp30
 70
     1
102
RTVSPropertyOp31
 70
     1
102
RTVSPropertyOp32
 70
     1
  0
XRECORD
  5
113C
102
{ACAD_REACTORS
330
113B
102
}
330
113B
100
AcDbXrecord
280
     1
102
RTVSPropertyOp0
 70
     1
102
RTVSPropertyOp1
 70
     1
102
RTVSPropertyOp2
 70
     1
102
RTVSPropertyOp3
 70
     1
102
RTVSPropertyOp4
 70
     1
102
RTVSPropertyOp5
 70
     1
102
RTVSPropertyOp6
 70
     1
102
RTVSPropertyOp7
 70
     1
102
RTVSPropertyOp8
 70
     1
102
RTVSPropertyOp9
 70
     1
102
RTVSPropertyOp10
 70
     1
102
RTVSPropertyOp11
 70
     1
102
RTVSPropertyOp12
 70
     1
102
RTVSPropertyOp13
 70
     1
102
RTVSPropertyOp14
 70
     1
102
RTVSPropertyOp15
 70
     1
102
RTVSPropertyOp16
 70
     1
102
RTVSPropertyOp17
 70
     1
102
RTVSPropertyOp18
 70
     1
102
RTVSPropertyOp19
 70
     1
102
RTVSPropertyOp20
 70
     1
102
RTVSPropertyOp21
 70
     1
102
RTVSPropertyOp22
 70
     1
102
RTVSPropertyOp23
 70
     1
102
RTVSPropertyOp24
 70
     1
102
RTVSPropertyOp25
 70
     1
102
RTVSPropertyOp26
 70
     1
102
RTVSPropertyOp27
 70
     1
102
RTVSPropertyOp28
 70
     1
102
RTVSPropertyOp29
 70
     1
102
RTVSPropertyOp30
 70
     1
102
RTVSPropertyOp31
 70
     1
102
RTVSPropertyOp32
 70
     1
  0
XRECORD
  5
112E
102
{ACAD_REACTORS
330
112D
102
}
330
112D
100
AcDbXrecord
280
     1
102
RTVSPropertyOp0
 70
     1
102
RTVSPropertyOp1
 70
     1
102
RTVSPropertyOp2
 70
     1
102
RTVSPropertyOp3
 70
     1
102
RTVSPropertyOp4
 70
     1
102
RTVSPropertyOp5
 70
     1
102
RTVSPropertyOp6
 70
     1
102
RTVSPropertyOp7
 70
     1
102
RTVSPropertyOp8
 70
     1
102
RTVSPropertyOp9
 70
     1
102
RTVSPropertyOp10
 70
     1
102
RTVSPropertyOp11
 70
     1
102
RTVSPropertyOp12
 70
     1
102
RTVSPropertyOp13
 70
     1
102
RTVSPropertyOp14
 70
     1
102
RTVSPropertyOp15
 70
     1
102
RTVSPropertyOp16
 70
     1
102
RTVSPropertyOp17
 70
     1
102
RTVSPropertyOp18
 70
     1
102
RTVSPropertyOp19
 70
     1
102
RTVSPropertyOp20
 70
     1
102
RTVSPropertyOp21
 70
     1
102
RTVSPropertyOp22
 70
     1
102
RTVSPropertyOp23
 70
     1
102
RTVSPropertyOp24
 70
     1
102
RTVSPropertyOp25
 70
     1
102
RTVSPropertyOp26
 70
     1
102
RTVSPropertyOp27
 70
     1
102
RTVSPropertyOp28
 70
     1
102
RTVSPropertyOp29
 70
     1
102
RTVSPropertyOp30
 70
     1
102
RTVSPropertyOp31
 70
     1
102
RTVSPropertyOp32
 70
     1
  0
XRECORD
  5
1132
102
{ACAD_REACTORS
330
1131
102
}
330
1131
100
AcDbXrecord
280
     1
102
RTVSPropertyOp0
 70
     1
102
RTVSPropertyOp1
 70
     1
102
RTVSPropertyOp2
 70
     1
102
RTVSPropertyOp3
 70
     1
102
RTVSPropertyOp4
 70
     1
102
RTVSPropertyOp5
 70
     1
102
RTVSPropertyOp6
 70
     1
102
RTVSPropertyOp7
 70
     1
102
RTVSPropertyOp8
 70
     1
102
RTVSPropertyOp9
 70
     1
102
RTVSPropertyOp10
 70
     1
102
RTVSPropertyOp11
 70
     1
102
RTVSPropertyOp12
 70
     1
102
RTVSPropertyOp13
 70
     1
102
RTVSPropertyOp14
 70
     1
102
RTVSPropertyOp15
 70
     1
102
RTVSPropertyOp16
 70
     1
102
RTVSPropertyOp17
 70
     1
102
RTVSPropertyOp18
 70
     1
102
RTVSPropertyOp19
 70
     1
102
RTVSPropertyOp20
 70
     1
102
RTVSPropertyOp21
 70
     1
102
RTVSPropertyOp22
 70
     1
102
RTVSPropertyOp23
 70
     1
102
RTVSPropertyOp24
 70
     1
102
RTVSPropertyOp25
 70
     1
102
RTVSPropertyOp26
 70
     1
102
RTVSPropertyOp27
 70
     1
102
RTVSPropertyOp28
 70
     1
102
RTVSPropertyOp29
 70
     1
102
RTVSPropertyOp30
 70
     1
102
RTVSPropertyOp31
 70
     1
102
RTVSPropertyOp32
 70
     1
  0
XRECORD
  5
114C
102
{ACAD_REACTORS
330
114B
102
}
330
114B
100
AcDbXrecord
280
     1
102
RTVSPropertyOp0
 70
     0
102
RTVSPropertyOp1
 70
     0
102
RTVSPropertyOp2
 70
     0
102
RTVSPropertyOp3
 70
     0
102
RTVSPropertyOp4
 70
     0
102
RTVSPropertyOp5
 70
     0
102
RTVSPropertyOp6
 70
     0
102
RTVSPropertyOp7
 70
     0
102
RTVSPropertyOp8
 70
     0
102
RTVSPropertyOp9
 70
     0
102
RTVSPropertyOp10
 70
     0
102
RTVSPropertyOp11
 70
     0
102
RTVSPropertyOp12
 70
     0
102
RTVSPropertyOp13
 70
     0
102
RTVSPropertyOp14
 70
     2
102
RTVSPropertyOp15
 70
     0
102
RTVSPropertyOp16
 70
     0
102
RTVSPropertyOp17
 70
     0
102
RTVSPropertyOp18
 70
     0
102
RTVSPropertyOp19
 70
     0
102
RTVSPropertyOp20
 70
     0
102
RTVSPropertyOp21
 70
     0
102
RTVSPropertyOp22
 70
     0
102
RTVSPropertyOp23
 70
     0
102
RTVSPropertyOp24
 70
     0
102
RTVSPropertyOp25
 70
     0
102
RTVSPropertyOp26
 70
     0
102
RTVSPropertyOp27
 70
     0
102
RTVSPropertyOp28
 70
     0
102
RTVSPropertyOp29
 70
     0
102
RTVSPropertyOp30
 70
     0
102
RTVSPropertyOp31
 70
     0
102
RTVSPropertyOp32
 70
     0
  0
XRECORD
  5
113A
102
{ACAD_REACTORS
330
1139
102
}
330
1139
100
AcDbXrecord
280
     1
102
RTVSPropertyOp0
 70
     1
102
RTVSPropertyOp1
 70
     1
102
RTVSPropertyOp2
 70
     1
102
RTVSPropertyOp3
 70
     1
102
RTVSPropertyOp4
 70
     1
102
RTVSPropertyOp5
 70
     1
102
RTVSPropertyOp6
 70
     1
102
RTVSPropertyOp7
 70
     1
102
RTVSPropertyOp8
 70
     1
102
RTVSPropertyOp9
 70
     1
102
RTVSPropertyOp10
 70
     1
102
RTVSPropertyOp11
 70
     1
102
RTVSPropertyOp12
 70
     1
102
RTVSPropertyOp13
 70
     1
102
RTVSPropertyOp14
 70
     1
102
RTVSPropertyOp15
 70
     1
102
RTVSPropertyOp16
 70
     1
102
RTVSPropertyOp17
 70
     1
102
RTVSPropertyOp18
 70
     1
102
RTVSPropertyOp19
 70
     1
102
RTVSPropertyOp20
 70
     1
102
RTVSPropertyOp21
 70
     1
102
RTVSPropertyOp22
 70
     1
102
RTVSPropertyOp23
 70
     1
102
RTVSPropertyOp24
 70
     1
102
RTVSPropertyOp25
 70
     1
102
RTVSPropertyOp26
 70
     1
102
RTVSPropertyOp27
 70
     1
102
RTVSPropertyOp28
 70
     1
102
RTVSPropertyOp29
 70
     1
102
RTVSPropertyOp30
 70
     1
102
RTVSPropertyOp31
 70
     1
102
RTVSPropertyOp32
 70
     1
  0
XRECORD
  5
111E
102
{ACAD_REACTORS
330
111D
102
}
330
111D
100
AcDbXrecord
280
     1
102
RTVSPropertyOp0
 70
     1
102
RTVSPropertyOp1
 70
     1
102
RTVSPropertyOp2
 70
     1
102
RTVSPropertyOp3
 70
     1
102
RTVSPropertyOp4
 70
     1
102
RTVSPropertyOp5
 70
     1
102
RTVSPropertyOp6
 70
     1
102
RTVSPropertyOp7
 70
     1
102
RTVSPropertyOp8
 70
     1
102
RTVSPropertyOp9
 70
     1
102
RTVSPropertyOp10
 70
     1
102
RTVSPropertyOp11
 70
     1
102
RTVSPropertyOp12
 70
     1
102
RTVSPropertyOp13
 70
     1
102
RTVSPropertyOp14
 70
     1
102
RTVSPropertyOp15
 70
     1
102
RTVSPropertyOp16
 70
     1
102
RTVSPropertyOp17
 70
     1
102
RTVSPropertyOp18
 70
     1
102
RTVSPropertyOp19
 70
     1
102
RTVSPropertyOp20
 70
     1
102
RTVSPropertyOp21
 70
     1
102
RTVSPropertyOp22
 70
     1
102
RTVSPropertyOp23
 70
     1
102
RTVSPropertyOp24
 70
     1
102
RTVSPropertyOp25
 70
     1
102
RTVSPropertyOp26
 70
     1
102
RTVSPropertyOp27
 70
     1
102
RTVSPropertyOp28
 70
     1
102
RTVSPropertyOp29
 70
     1
102
RTVSPropertyOp30
 70
     1
102
RTVSPropertyOp31
 70
     1
102
RTVSPropertyOp32
 70
     1
  0
XRECORD
  5
1120
102
{ACAD_REACTORS
330
111F
102
}
330
111F
100
AcDbXrecord
280
     1
102
RTVSPropertyOp0
 70
     1
102
RTVSPropertyOp1
 70
     1
102
RTVSPropertyOp2
 70
     1
102
RTVSPropertyOp3
 70
     1
102
RTVSPropertyOp4
 70
     1
102
RTVSPropertyOp5
 70
     1
102
RTVSPropertyOp6
 70
     1
102
RTVSPropertyOp7
 70
     1
102
RTVSPropertyOp8
 70
     1
102
RTVSPropertyOp9
 70
     1
102
RTVSPropertyOp10
 70
     1
102
RTVSPropertyOp11
 70
     1
102
RTVSPropertyOp12
 70
     1
102
RTVSPropertyOp13
 70
     1
102
RTVSPropertyOp14
 70
     1
102
RTVSPropertyOp15
 70
     1
102
RTVSPropertyOp16
 70
     1
102
RTVSPropertyOp17
 70
     1
102
RTVSPropertyOp18
 70
     1
102
RTVSPropertyOp19
 70
     1
102
RTVSPropertyOp20
 70
     1
102
RTVSPropertyOp21
 70
     1
102
RTVSPropertyOp22
 70
     1
102
RTVSPropertyOp23
 70
     1
102
RTVSPropertyOp24
 70
     1
102
RTVSPropertyOp25
 70
     1
102
RTVSPropertyOp26
 70
     1
102
RTVSPropertyOp27
 70
     1
102
RTVSPropertyOp28
 70
     1
102
RTVSPropertyOp29
 70
     1
102
RTVSPropertyOp30
 70
     1
102
RTVSPropertyOp31
 70
     1
102
RTVSPropertyOp32
 70
     1
  0
XRECORD
  5
1122
102
{ACAD_REACTORS
330
1121
102
}
330
1121
100
AcDbXrecord
280
     1
102
RTVSPropertyOp0
 70
     1
102
RTVSPropertyOp1
 70
     1
102
RTVSPropertyOp2
 70
     1
102
RTVSPropertyOp3
 70
     1
102
RTVSPropertyOp4
 70
     1
102
RTVSPropertyOp5
 70
     1
102
RTVSPropertyOp6
 70
     1
102
RTVSPropertyOp7
 70
     1
102
RTVSPropertyOp8
 70
     1
102
RTVSPropertyOp9
 70
     1
102
RTVSPropertyOp10
 70
     1
102
RTVSPropertyOp11
 70
     1
102
RTVSPropertyOp12
 70
     1
102
RTVSPropertyOp13
 70
     1
102
RTVSPropertyOp14
 70
     1
102
RTVSPropertyOp15
 70
     1
102
RTVSPropertyOp16
 70
     1
102
RTVSPropertyOp17
 70
     1
102
RTVSPropertyOp18
 70
     1
102
RTVSPropertyOp19
 70
     1
102
RTVSPropertyOp20
 70
     1
102
RTVSPropertyOp21
 70
     1
102
RTVSPropertyOp22
 70
     1
102
RTVSPropertyOp23
 70
     1
102
RTVSPropertyOp24
 70
     1
102
RTVSPropertyOp25
 70
     1
102
RTVSPropertyOp26
 70
     1
102
RTVSPropertyOp27
 70
     1
102
RTVSPropertyOp28
 70
     1
102
RTVSPropertyOp29
 70
     1
102
RTVSPropertyOp30
 70
     1
102
RTVSPropertyOp31
 70
     1
102
RTVSPropertyOp32
 70
     1
  0
XRECORD
  5
1124
102
{ACAD_REACTORS
330
1123
102
}
330
1123
100
AcDbXrecord
280
     1
102
RTVSPropertyOp0
 70
     1
102
RTVSPropertyOp1
 70
     1
102
RTVSPropertyOp2
 70
     1
102
RTVSPropertyOp3
 70
     1
102
RTVSPropertyOp4
 70
     1
102
RTVSPropertyOp5
 70
     1
102
RTVSPropertyOp6
 70
     1
102
RTVSPropertyOp7
 70
     1
102
RTVSPropertyOp8
 70
     1
102
RTVSPropertyOp9
 70
     1
102
RTVSPropertyOp10
 70
     1
102
RTVSPropertyOp11
 70
     1
102
RTVSPropertyOp12
 70
     1
102
RTVSPropertyOp13
 70
     1
102
RTVSPropertyOp14
 70
     1
102
RTVSPropertyOp15
 70
     1
102
RTVSPropertyOp16
 70
     1
102
RTVSPropertyOp17
 70
     1
102
RTVSPropertyOp18
 70
     1
102
RTVSPropertyOp19
 70
     1
102
RTVSPropertyOp20
 70
     1
102
RTVSPropertyOp21
 70
     1
102
RTVSPropertyOp22
 70
     1
102
RTVSPropertyOp23
 70
     1
102
RTVSPropertyOp24
 70
     1
102
RTVSPropertyOp25
 70
     1
102
RTVSPropertyOp26
 70
     1
102
RTVSPropertyOp27
 70
     1
102
RTVSPropertyOp28
 70
     1
102
RTVSPropertyOp29
 70
     1
102
RTVSPropertyOp30
 70
     1
102
RTVSPropertyOp31
 70
     1
102
RTVSPropertyOp32
 70
     1
  0
XRECORD
  5
112C
102
{ACAD_REACTORS
330
112B
102
}
330
112B
100
AcDbXrecord
280
     1
102
RTVSPropertyOp0
 70
     1
102
RTVSPropertyOp1
 70
     1
102
RTVSPropertyOp2
 70
     1
102
RTVSPropertyOp3
 70
     1
102
RTVSPropertyOp4
 70
     1
102
RTVSPropertyOp5
 70
     1
102
RTVSPropertyOp6
 70
     1
102
RTVSPropertyOp7
 70
     1
102
RTVSPropertyOp8
 70
     1
102
RTVSPropertyOp9
 70
     1
102
RTVSPropertyOp10
 70
     1
102
RTVSPropertyOp11
 70
     1
102
RTVSPropertyOp12
 70
     1
102
RTVSPropertyOp13
 70
     1
102
RTVSPropertyOp14
 70
     1
102
RTVSPropertyOp15
 70
     1
102
RTVSPropertyOp16
 70
     1
102
RTVSPropertyOp17
 70
     1
102
RTVSPropertyOp18
 70
     1
102
RTVSPropertyOp19
 70
     1
102
RTVSPropertyOp20
 70
     1
102
RTVSPropertyOp21
 70
     1
102
RTVSPropertyOp22
 70
     1
102
RTVSPropertyOp23
 70
     1
102
RTVSPropertyOp24
 70
     1
102
RTVSPropertyOp25
 70
     1
102
RTVSPropertyOp26
 70
     1
102
RTVSPropertyOp27
 70
     1
102
RTVSPropertyOp28
 70
     1
102
RTVSPropertyOp29
 70
     1
102
RTVSPropertyOp30
 70
     1
102
RTVSPropertyOp31
 70
     1
102
RTVSPropertyOp32
 70
     1
  0
XRECORD
  5
1148
102
{ACAD_REACTORS
330
1147
102
}
330
1147
100
AcDbXrecord
280
     1
102
RTVSPropertyOp0
 70
     0
102
RTVSPropertyOp1
 70
     0
102
RTVSPropertyOp2
 70
     0
102
RTVSPropertyOp3
 70
     0
102
RTVSPropertyOp4
 70
     0
102
RTVSPropertyOp5
 70
     0
102
RTVSPropertyOp6
 70
     0
102
RTVSPropertyOp7
 70
     0
102
RTVSPropertyOp8
 70
     0
102
RTVSPropertyOp9
 70
     0
102
RTVSPropertyOp10
 70
     0
102
RTVSPropertyOp11
 70
     0
102
RTVSPropertyOp12
 70
     0
102
RTVSPropertyOp13
 70
     0
102
RTVSPropertyOp14
 70
     2
102
RTVSPropertyOp15
 70
     0
102
RTVSPropertyOp16
 70
     0
102
RTVSPropertyOp17
 70
     0
102
RTVSPropertyOp18
 70
     0
102
RTVSPropertyOp19
 70
     0
102
RTVSPropertyOp20
 70
     0
102
RTVSPropertyOp21
 70
     0
102
RTVSPropertyOp22
 70
     0
102
RTVSPropertyOp23
 70
     0
102
RTVSPropertyOp24
 70
     0
102
RTVSPropertyOp25
 70
     0
102
RTVSPropertyOp26
 70
     0
102
RTVSPropertyOp27
 70
     0
102
RTVSPropertyOp28
 70
     0
102
RTVSPropertyOp29
 70
     0
102
RTVSPropertyOp30
 70
     0
102
RTVSPropertyOp31
 70
     0
102
RTVSPropertyOp32
 70
     0
  0
XRECORD
  5
1138
102
{ACAD_REACTORS
330
1137
102
}
330
1137
100
AcDbXrecord
280
     1
102
RTVSPropertyOp0
 70
     1
102
RTVSPropertyOp1
 70
     1
102
RTVSPropertyOp2
 70
     1
102
RTVSPropertyOp3
 70
     1
102
RTVSPropertyOp4
 70
     1
102
RTVSPropertyOp5
 70
     1
102
RTVSPropertyOp6
 70
     1
102
RTVSPropertyOp7
 70
     1
102
RTVSPropertyOp8
 70
     1
102
RTVSPropertyOp9
 70
     1
102
RTVSPropertyOp10
 70
     1
102
RTVSPropertyOp11
 70
     1
102
RTVSPropertyOp12
 70
     1
102
RTVSPropertyOp13
 70
     1
102
RTVSPropertyOp14
 70
     1
102
RTVSPropertyOp15
 70
     1
102
RTVSPropertyOp16
 70
     1
102
RTVSPropertyOp17
 70
     1
102
RTVSPropertyOp18
 70
     1
102
RTVSPropertyOp19
 70
     1
102
RTVSPropertyOp20
 70
     1
102
RTVSPropertyOp21
 70
     1
102
RTVSPropertyOp22
 70
     1
102
RTVSPropertyOp23
 70
     1
102
RTVSPropertyOp24
 70
     1
102
RTVSPropertyOp25
 70
     1
102
RTVSPropertyOp26
 70
     1
102
RTVSPropertyOp27
 70
     1
102
RTVSPropertyOp28
 70
     1
102
RTVSPropertyOp29
 70
     1
102
RTVSPropertyOp30
 70
     1
102
RTVSPropertyOp31
 70
     1
102
RTVSPropertyOp32
 70
     1
  0
XRECORD
  5
114A
102
{ACAD_REACTORS
330
1149
102
}
330
1149
100
AcDbXrecord
280
     1
102
RTVSPropertyOp0
 70
     0
102
RTVSPropertyOp1
 70
     0
102
RTVSPropertyOp2
 70
     0
102
RTVSPropertyOp3
 70
     0
102
RTVSPropertyOp4
 70
     0
102
RTVSPropertyOp5
 70
     0
102
RTVSPropertyOp6
 70
     0
102
RTVSPropertyOp7
 70
     0
102
RTVSPropertyOp8
 70
     0
102
RTVSPropertyOp9
 70
     0
102
RTVSPropertyOp10
 70
     0
102
RTVSPropertyOp11
 70
     0
102
RTVSPropertyOp12
 70
     0
102
RTVSPropertyOp13
 70
     0
102
RTVSPropertyOp14
 70
     2
102
RTVSPropertyOp15
 70
     0
102
RTVSPropertyOp16
 70
     0
102
RTVSPropertyOp17
 70
     0
102
RTVSPropertyOp18
 70
     0
102
RTVSPropertyOp19
 70
     0
102
RTVSPropertyOp20
 70
     0
102
RTVSPropertyOp21
 70
     0
102
RTVSPropertyOp22
 70
     0
102
RTVSPropertyOp23
 70
     0
102
RTVSPropertyOp24
 70
     0
102
RTVSPropertyOp25
 70
     0
102
RTVSPropertyOp26
 70
     0
102
RTVSPropertyOp27
 70
     0
102
RTVSPropertyOp28
 70
     0
102
RTVSPropertyOp29
 70
     0
102
RTVSPropertyOp30
 70
     0
102
RTVSPropertyOp31
 70
     0
102
RTVSPropertyOp32
 70
     0
  0
XRECORD
  5
1130
102
{ACAD_REACTORS
330
112F
102
}
330
112F
100
AcDbXrecord
280
     1
102
RTVSPropertyOp0
 70
     1
102
RTVSPropertyOp1
 70
     1
102
RTVSPropertyOp2
 70
     1
102
RTVSPropertyOp3
 70
     1
102
RTVSPropertyOp4
 70
     1
102
RTVSPropertyOp5
 70
     1
102
RTVSPropertyOp6
 70
     1
102
RTVSPropertyOp7
 70
     1
102
RTVSPropertyOp8
 70
     1
102
RTVSPropertyOp9
 70
     1
102
RTVSPropertyOp10
 70
     1
102
RTVSPropertyOp11
 70
     1
102
RTVSPropertyOp12
 70
     1
102
RTVSPropertyOp13
 70
     1
102
RTVSPropertyOp14
 70
     1
102
RTVSPropertyOp15
 70
     1
102
RTVSPropertyOp16
 70
     1
102
RTVSPropertyOp17
 70
     1
102
RTVSPropertyOp18
 70
     1
102
RTVSPropertyOp19
 70
     1
102
RTVSPropertyOp20
 70
     1
102
RTVSPropertyOp21
 70
     1
102
RTVSPropertyOp22
 70
     1
102
RTVSPropertyOp23
 70
     1
102
RTVSPropertyOp24
 70
     1
102
RTVSPropertyOp25
 70
     1
102
RTVSPropertyOp26
 70
     1
102
RTVSPropertyOp27
 70
     1
102
RTVSPropertyOp28
 70
     1
102
RTVSPropertyOp29
 70
     1
102
RTVSPropertyOp30
 70
     1
102
RTVSPropertyOp31
 70
     1
102
RTVSPropertyOp32
 70
     1
  0
XRECORD
  5
1146
102
{ACAD_REACTORS
330
1145
102
}
330
1145
100
AcDbXrecord
280
     1
102
RTVSPropertyOp0
 70
     1
102
RTVSPropertyOp1
 70
     1
102
RTVSPropertyOp2
 70
     1
102
RTVSPropertyOp3
 70
     1
102
RTVSPropertyOp4
 70
     1
102
RTVSPropertyOp5
 70
     1
102
RTVSPropertyOp6
 70
     1
102
RTVSPropertyOp7
 70
     1
102
RTVSPropertyOp8
 70
     1
102
RTVSPropertyOp9
 70
     1
102
RTVSPropertyOp10
 70
     1
102
RTVSPropertyOp11
 70
     1
102
RTVSPropertyOp12
 70
     1
102
RTVSPropertyOp13
 70
     1
102
RTVSPropertyOp14
 70
     1
102
RTVSPropertyOp15
 70
     1
102
RTVSPropertyOp16
 70
     1
102
RTVSPropertyOp17
 70
     1
102
RTVSPropertyOp18
 70
     1
102
RTVSPropertyOp19
 70
     1
102
RTVSPropertyOp20
 70
     1
102
RTVSPropertyOp21
 70
     1
102
RTVSPropertyOp22
 70
     1
102
RTVSPropertyOp23
 70
     1
102
RTVSPropertyOp24
 70
     1
102
RTVSPropertyOp25
 70
     1
102
RTVSPropertyOp26
 70
     1
102
RTVSPropertyOp27
 70
     1
102
RTVSPropertyOp28
 70
     1
102
RTVSPropertyOp29
 70
     1
102
RTVSPropertyOp30
 70
     1
102
RTVSPropertyOp31
 70
     1
102
RTVSPropertyOp32
 70
     1
  0
XRECORD
  5
1144
102
{ACAD_REACTORS
330
1143
102
}
330
1143
100
AcDbXrecord
280
     1
102
RTVSPropertyOp0
 70
     1
102
RTVSPropertyOp1
 70
     1
102
RTVSPropertyOp2
 70
     1
102
RTVSPropertyOp3
 70
     1
102
RTVSPropertyOp4
 70
     1
102
RTVSPropertyOp5
 70
     1
102
RTVSPropertyOp6
 70
     1
102
RTVSPropertyOp7
 70
     1
102
RTVSPropertyOp8
 70
     1
102
RTVSPropertyOp9
 70
     1
102
RTVSPropertyOp10
 70
     1
102
RTVSPropertyOp11
 70
     1
102
RTVSPropertyOp12
 70
     1
102
RTVSPropertyOp13
 70
     1
102
RTVSPropertyOp14
 70
     1
102
RTVSPropertyOp15
 70
     1
102
RTVSPropertyOp16
 70
     1
102
RTVSPropertyOp17
 70
     1
102
RTVSPropertyOp18
 70
     1
102
RTVSPropertyOp19
 70
     1
102
RTVSPropertyOp20
 70
     1
102
RTVSPropertyOp21
 70
     1
102
RTVSPropertyOp22
 70
     1
102
RTVSPropertyOp23
 70
     1
102
RTVSPropertyOp24
 70
     1
102
RTVSPropertyOp25
 70
     1
102
RTVSPropertyOp26
 70
     1
102
RTVSPropertyOp27
 70
     1
102
RTVSPropertyOp28
 70
     1
102
RTVSPropertyOp29
 70
     1
102
RTVSPropertyOp30
 70
     1
102
RTVSPropertyOp31
 70
     1
102
RTVSPropertyOp32
 70
     1
  0
XRECORD
  5
113E
102
{ACAD_REACTORS
330
113D
102
}
330
113D
100
AcDbXrecord
280
     1
102
RTVSPropertyOp0
 70
     1
102
RTVSPropertyOp1
 70
     1
102
RTVSPropertyOp2
 70
     1
102
RTVSPropertyOp3
 70
     1
102
RTVSPropertyOp4
 70
     1
102
RTVSPropertyOp5
 70
     1
102
RTVSPropertyOp6
 70
     1
102
RTVSPropertyOp7
 70
     1
102
RTVSPropertyOp8
 70
     1
102
RTVSPropertyOp9
 70
     1
102
RTVSPropertyOp10
 70
     1
102
RTVSPropertyOp11
 70
     1
102
RTVSPropertyOp12
 70
     1
102
RTVSPropertyOp13
 70
     1
102
RTVSPropertyOp14
 70
     1
102
RTVSPropertyOp15
 70
     1
102
RTVSPropertyOp16
 70
     1
102
RTVSPropertyOp17
 70
     1
102
RTVSPropertyOp18
 70
     1
102
RTVSPropertyOp19
 70
     1
102
RTVSPropertyOp20
 70
     1
102
RTVSPropertyOp21
 70
     1
102
RTVSPropertyOp22
 70
     1
102
RTVSPropertyOp23
 70
     1
102
RTVSPropertyOp24
 70
     1
102
RTVSPropertyOp25
 70
     1
102
RTVSPropertyOp26
 70
     1
102
RTVSPropertyOp27
 70
     1
102
RTVSPropertyOp28
 70
     1
102
RTVSPropertyOp29
 70
     1
102
RTVSPropertyOp30
 70
     1
102
RTVSPropertyOp31
 70
     1
102
RTVSPropertyOp32
 70
     1
  0
XRECORD
  5
1140
102
{ACAD_REACTORS
330
113F
102
}
330
113F
100
AcDbXrecord
280
     1
102
RTVSPropertyOp0
 70
     1
102
RTVSPropertyOp1
 70
     1
102
RTVSPropertyOp2
 70
     1
102
RTVSPropertyOp3
 70
     1
102
RTVSPropertyOp4
 70
     1
102
RTVSPropertyOp5
 70
     1
102
RTVSPropertyOp6
 70
     1
102
RTVSPropertyOp7
 70
     1
102
RTVSPropertyOp8
 70
     1
102
RTVSPropertyOp9
 70
     1
102
RTVSPropertyOp10
 70
     1
102
RTVSPropertyOp11
 70
     1
102
RTVSPropertyOp12
 70
     1
102
RTVSPropertyOp13
 70
     1
102
RTVSPropertyOp14
 70
     1
102
RTVSPropertyOp15
 70
     1
102
RTVSPropertyOp16
 70
     1
102
RTVSPropertyOp17
 70
     1
102
RTVSPropertyOp18
 70
     1
102
RTVSPropertyOp19
 70
     1
102
RTVSPropertyOp20
 70
     1
102
RTVSPropertyOp21
 70
     1
102
RTVSPropertyOp22
 70
     1
102
RTVSPropertyOp23
 70
     1
102
RTVSPropertyOp24
 70
     1
102
RTVSPropertyOp25
 70
     1
102
RTVSPropertyOp26
 70
     1
102
RTVSPropertyOp27
 70
     1
102
RTVSPropertyOp28
 70
     1
102
RTVSPropertyOp29
 70
     1
102
RTVSPropertyOp30
 70
     1
102
RTVSPropertyOp31
 70
     1
102
RTVSPropertyOp32
 70
     1
  0
XRECORD
  5
1136
102
{ACAD_REACTORS
330
1135
102
}
330
1135
100
AcDbXrecord
280
     1
102
RTVSPropertyOp0
 70
     1
102
RTVSPropertyOp1
 70
     1
102
RTVSPropertyOp2
 70
     1
102
RTVSPropertyOp3
 70
     1
102
RTVSPropertyOp4
 70
     1
102
RTVSPropertyOp5
 70
     1
102
RTVSPropertyOp6
 70
     1
102
RTVSPropertyOp7
 70
     1
102
RTVSPropertyOp8
 70
     1
102
RTVSPropertyOp9
 70
     1
102
RTVSPropertyOp10
 70
     1
102
RTVSPropertyOp11
 70
     1
102
RTVSPropertyOp12
 70
     1
102
RTVSPropertyOp13
 70
     1
102
RTVSPropertyOp14
 70
     1
102
RTVSPropertyOp15
 70
     1
102
RTVSPropertyOp16
 70
     1
102
RTVSPropertyOp17
 70
     1
102
RTVSPropertyOp18
 70
     1
102
RTVSPropertyOp19
 70
     1
102
RTVSPropertyOp20
 70
     1
102
RTVSPropertyOp21
 70
     1
102
RTVSPropertyOp22
 70
     1
102
RTVSPropertyOp23
 70
     1
102
RTVSPropertyOp24
 70
     1
102
RTVSPropertyOp25
 70
     1
102
RTVSPropertyOp26
 70
     1
102
RTVSPropertyOp27
 70
     1
102
RTVSPropertyOp28
 70
     1
102
RTVSPropertyOp29
 70
     1
102
RTVSPropertyOp30
 70
     1
102
RTVSPropertyOp31
 70
     1
102
RTVSPropertyOp32
 70
     1
  0
XRECORD
  5
112A
102
{ACAD_REACTORS
330
1129
102
}
330
1129
100
AcDbXrecord
280
     1
102
RTVSPropertyOp0
 70
     1
102
RTVSPropertyOp1
 70
     1
102
RTVSPropertyOp2
 70
     1
102
RTVSPropertyOp3
 70
     1
102
RTVSPropertyOp4
 70
     1
102
RTVSPropertyOp5
 70
     1
102
RTVSPropertyOp6
 70
     1
102
RTVSPropertyOp7
 70
     1
102
RTVSPropertyOp8
 70
     1
102
RTVSPropertyOp9
 70
     1
102
RTVSPropertyOp10
 70
     1
102
RTVSPropertyOp11
 70
     1
102
RTVSPropertyOp12
 70
     1
102
RTVSPropertyOp13
 70
     1
102
RTVSPropertyOp14
 70
     1
102
RTVSPropertyOp15
 70
     1
102
RTVSPropertyOp16
 70
     1
102
RTVSPropertyOp17
 70
     1
102
RTVSPropertyOp18
 70
     1
102
RTVSPropertyOp19
 70
     1
102
RTVSPropertyOp20
 70
     1
102
RTVSPropertyOp21
 70
     1
102
RTVSPropertyOp22
 70
     1
102
RTVSPropertyOp23
 70
     1
102
RTVSPropertyOp24
 70
     1
102
RTVSPropertyOp25
 70
     1
102
RTVSPropertyOp26
 70
     1
102
RTVSPropertyOp27
 70
     1
102
RTVSPropertyOp28
 70
     1
102
RTVSPropertyOp29
 70
     1
102
RTVSPropertyOp30
 70
     1
102
RTVSPropertyOp31
 70
     1
102
RTVSPropertyOp32
 70
     1
  0
XRECORD
  5
1142
102
{ACAD_REACTORS
330
1141
102
}
330
1141
100
AcDbXrecord
280
     1
102
RTVSPropertyOp0
 70
     1
102
RTVSPropertyOp1
 70
     1
102
RTVSPropertyOp2
 70
     1
102
RTVSPropertyOp3
 70
     1
102
RTVSPropertyOp4
 70
     1
102
RTVSPropertyOp5
 70
     1
102
RTVSPropertyOp6
 70
     1
102
RTVSPropertyOp7
 70
     1
102
RTVSPropertyOp8
 70
     1
102
RTVSPropertyOp9
 70
     1
102
RTVSPropertyOp10
 70
     1
102
RTVSPropertyOp11
 70
     1
102
RTVSPropertyOp12
 70
     1
102
RTVSPropertyOp13
 70
     1
102
RTVSPropertyOp14
 70
     1
102
RTVSPropertyOp15
 70
     1
102
RTVSPropertyOp16
 70
     1
102
RTVSPropertyOp17
 70
     1
102
RTVSPropertyOp18
 70
     1
102
RTVSPropertyOp19
 70
     1
102
RTVSPropertyOp20
 70
     1
102
RTVSPropertyOp21
 70
     1
102
RTVSPropertyOp22
 70
     1
102
RTVSPropertyOp23
 70
     1
102
RTVSPropertyOp24
 70
     1
102
RTVSPropertyOp25
 70
     1
102
RTVSPropertyOp26
 70
     1
102
RTVSPropertyOp27
 70
     1
102
RTVSPropertyOp28
 70
     1
102
RTVSPropertyOp29
 70
     1
102
RTVSPropertyOp30
 70
     1
102
RTVSPropertyOp31
 70
     1
102
RTVSPropertyOp32
 70
     1
  0
ENDSEC
  0
EOF
